  0
SECTION
  2
HEADER
  9
$ACADVER
  1
AC1015
  9
$ACADMAINTVER
 70
     6
  9
$DWGCODEPAGE
  3
ANSI_932
  9
$INSBASE
 10
0.0
 20
0.0
 30
0.0
  9
$EXTMIN
 10
38.1623942935052
 20
-1016.04859577507
 30
0.0
  9
$EXTMAX
 10
391.930685541189
 20
671.234020456647
 30
0.0
  9
$LIMMIN
 10
0.0
 20
0.0
  9
$LIMMAX
 10
12.0
 20
9.0
  9
$ORTHOMODE
 70
     0
  9
$REGENMODE
 70
     1
  9
$FILLMODE
 70
     1
  9
$QTEXTMODE
 70
     0
  9
$MIRRTEXT
 70
     1
  9
$LTSCALE
 40
1.0
  9
$ATTMODE
 70
     1
  9
$TEXTSIZE
 40
0.2
  9
$TRACEWID
 40
0.05
  9
$TEXTSTYLE
  7
Standard
  9
$CLAYER
  8
0
  9
$CELTYPE
  6
ByLayer
  9
$CECOLOR
 62
   256
  9
$CELTSCALE
 40
1.0
  9
$DISPSILH
 70
     0
  9
$DIMSCALE
 40
1.0
  9
$DIMASZ
 40
0.18
  9
$DIMEXO
 40
0.0625
  9
$DIMDLI
 40
0.38
  9
$DIMRND
 40
0.0
  9
$DIMDLE
 40
0.0
  9
$DIMEXE
 40
0.18
  9
$DIMTP
 40
0.0
  9
$DIMTM
 40
0.0
  9
$DIMTXT
 40
0.18
  9
$DIMCEN
 40
0.09
  9
$DIMTSZ
 40
0.0
  9
$DIMTOL
 70
     0
  9
$DIMLIM
 70
     0
  9
$DIMTIH
 70
     1
  9
$DIMTOH
 70
     1
  9
$DIMSE1
 70
     0
  9
$DIMSE2
 70
     0
  9
$DIMTAD
 70
     0
  9
$DIMZIN
 70
     0
  9
$DIMBLK
  1

  9
$DIMASO
 70
     1
  9
$DIMSHO
 70
     1
  9
$DIMPOST
  1

  9
$DIMAPOST
  1

  9
$DIMALT
 70
     0
  9
$DIMALTD
 70
     2
  9
$DIMALTF
 40
25.4
  9
$DIMLFAC
 40
1.0
  9
$DIMTOFL
 70
     0
  9
$DIMTVP
 40
0.0
  9
$DIMTIX
 70
     0
  9
$DIMSOXD
 70
     0
  9
$DIMSAH
 70
     0
  9
$DIMBLK1
  1

  9
$DIMBLK2
  1

  9
$DIMSTYLE
  2
Standard
  9
$DIMCLRD
 70
     0
  9
$DIMCLRE
 70
     0
  9
$DIMCLRT
 70
     0
  9
$DIMTFAC
 40
1.0
  9
$DIMGAP
 40
0.09
  9
$DIMJUST
 70
     0
  9
$DIMSD1
 70
     0
  9
$DIMSD2
 70
     0
  9
$DIMTOLJ
 70
     1
  9
$DIMTZIN
 70
     0
  9
$DIMALTZ
 70
     0
  9
$DIMALTTZ
 70
     0
  9
$DIMUPT
 70
     0
  9
$DIMDEC
 70
     4
  9
$DIMTDEC
 70
     4
  9
$DIMALTU
 70
     2
  9
$DIMALTTD
 70
     2
  9
$DIMTXSTY
  7
Standard
  9
$DIMAUNIT
 70
     0
  9
$DIMADEC
 70
     0
  9
$DIMALTRND
 40
0.0
  9
$DIMAZIN
 70
     0
  9
$DIMDSEP
 70
    46
  9
$DIMATFIT
 70
     3
  9
$DIMFRAC
 70
     0
  9
$DIMLDRBLK
  1

  9
$DIMLUNIT
 70
     2
  9
$DIMLWD
 70
    -2
  9
$DIMLWE
 70
    -2
  9
$DIMTMOVE
 70
     0
  9
$LUNITS
 70
     2
  9
$LUPREC
 70
     4
  9
$SKETCHINC
 40
0.1
  9
$FILLETRAD
 40
0.5
  9
$AUNITS
 70
     0
  9
$AUPREC
 70
     0
  9
$MENU
  1
.
  9
$ELEVATION
 40
0.0
  9
$PELEVATION
 40
0.0
  9
$THICKNESS
 40
0.0
  9
$LIMCHECK
 70
     0
  9
$CHAMFERA
 40
0.5
  9
$CHAMFERB
 40
0.5
  9
$CHAMFERC
 40
1.0
  9
$CHAMFERD
 40
0.0
  9
$SKPOLY
 70
     0
  9
$TDCREATE
 40
2457774.655175162
  9
$TDUCREATE
 40
2457774.280175162
  9
$TDUPDATE
 40
2457774.655175174
  9
$TDUUPDATE
 40
2457774.280175174
  9
$TDINDWG
 40
0.0000000116
  9
$TDUSRTIMER
 40
0.0000000116
  9
$USRTIMER
 70
     1
  9
$ANGBASE
 50
0.0
  9
$ANGDIR
 70
     0
  9
$PDMODE
 70
     0
  9
$PDSIZE
 40
0.0
  9
$PLINEWID
 40
0.0
  9
$SPLFRAME
 70
     0
  9
$SPLINETYPE
 70
     6
  9
$SPLINESEGS
 70
     8
  9
$HANDSEED
  5
68A
  9
$SURFTAB1
 70
     6
  9
$SURFTAB2
 70
     6
  9
$SURFTYPE
 70
     6
  9
$SURFU
 70
     6
  9
$SURFV
 70
     6
  9
$UCSBASE
  2

  9
$UCSNAME
  2

  9
$UCSORG
 10
0.0
 20
0.0
 30
0.0
  9
$UCSXDIR
 10
1.0
 20
0.0
 30
0.0
  9
$UCSYDIR
 10
0.0
 20
1.0
 30
0.0
  9
$UCSORTHOREF
  2

  9
$UCSORTHOVIEW
 70
     0
  9
$UCSORGTOP
 10
0.0
 20
0.0
 30
0.0
  9
$UCSORGBOTTOM
 10
0.0
 20
0.0
 30
0.0
  9
$UCSORGLEFT
 10
0.0
 20
0.0
 30
0.0
  9
$UCSORGRIGHT
 10
0.0
 20
0.0
 30
0.0
  9
$UCSORGFRONT
 10
0.0
 20
0.0
 30
0.0
  9
$UCSORGBACK
 10
0.0
 20
0.0
 30
0.0
  9
$PUCSBASE
  2

  9
$PUCSNAME
  2

  9
$PUCSORG
 10
0.0
 20
0.0
 30
0.0
  9
$PUCSXDIR
 10
1.0
 20
0.0
 30
0.0
  9
$PUCSYDIR
 10
0.0
 20
1.0
 30
0.0
  9
$PUCSORTHOREF
  2

  9
$PUCSORTHOVIEW
 70
     0
  9
$PUCSORGTOP
 10
0.0
 20
0.0
 30
0.0
  9
$PUCSORGBOTTOM
 10
0.0
 20
0.0
 30
0.0
  9
$PUCSORGLEFT
 10
0.0
 20
0.0
 30
0.0
  9
$PUCSORGRIGHT
 10
0.0
 20
0.0
 30
0.0
  9
$PUCSORGFRONT
 10
0.0
 20
0.0
 30
0.0
  9
$PUCSORGBACK
 10
0.0
 20
0.0
 30
0.0
  9
$USERI1
 70
     0
  9
$USERI2
 70
     0
  9
$USERI3
 70
     0
  9
$USERI4
 70
     0
  9
$USERI5
 70
     0
  9
$USERR1
 40
18.0
  9
$USERR2
 40
0.0
  9
$USERR3
 40
0.0
  9
$USERR4
 40
0.0
  9
$USERR5
 40
0.0
  9
$WORLDVIEW
 70
     1
  9
$SHADEDGE
 70
     3
  9
$SHADEDIF
 70
    70
  9
$TILEMODE
 70
     1
  9
$MAXACTVP
 70
    64
  9
$PINSBASE
 10
0.0
 20
0.0
 30
0.0
  9
$PLIMCHECK
 70
     0
  9
$PEXTMIN
 10
1.00000000000000E+20
 20
1.00000000000000E+20
 30
1.00000000000000E+20
  9
$PEXTMAX
 10
-1.00000000000000E+20
 20
-1.00000000000000E+20
 30
-1.00000000000000E+20
  9
$PLIMMIN
 10
0.0
 20
0.0
  9
$PLIMMAX
 10
12.0
 20
9.0
  9
$UNITMODE
 70
     0
  9
$VISRETAIN
 70
     1
  9
$PLINEGEN
 70
     0
  9
$PSLTSCALE
 70
     1
  9
$TREEDEPTH
 70
  3020
  9
$CMLSTYLE
  2
Standard
  9
$CMLJUST
 70
     0
  9
$CMLSCALE
 40
1.0
  9
$PROXYGRAPHICS
 70
     1
  9
$MEASUREMENT
 70
     1
  9
$CELWEIGHT
370
    -1
  9
$ENDCAPS
280
     0
  9
$JOINSTYLE
280
     0
  9
$LWDISPLAY
290
     0
  9
$INSUNITS
 70
     1
  9
$HYPERLINKBASE
  1

  9
$STYLESHEET
  1

  9
$XEDIT
290
     1
  9
$CEPSNTYPE
380
     0
  9
$PSTYLEMODE
290
     1
  9
$FINGERPRINTGUID
  2
{473D9A8C-6B20-432E-8478-82C065281D9B}
  9
$VERSIONGUID
  2
{FAEB1C32-E019-11D5-929B-00C0DF256EC4}
  9
$EXTNAMES
290
     1
  9
$PSVPSCALE
 40
0.0
  9
$OLESTARTUP
290
     0
  0
ENDSEC
  0
SECTION
  2
CLASSES
  0
CLASS
  1
ACDBDICTIONARYWDFLT
  2
AcDbDictionaryWithDefault
  3
ObjectDBX Classes
 90
        0
280
     0
281
     0
  0
CLASS
  1
VISUALSTYLE
  2
AcDbVisualStyle
  3
ObjectDBX Classes
 90
     4095
280
     0
281
     0
  0
CLASS
  1
MATERIAL
  2
AcDbMaterial
  3
ObjectDBX Classes
 90
     1153
280
     0
281
     0
  0
CLASS
  1

  2
exOdDbCircle
  3

 90
        0
280
     0
281
     1
  0
CLASS
  1

  2
exOdDbSpline
  3

 90
        0
280
     0
281
     1
  0
CLASS
  1

  2
exOdDbPolyline
  3

 90
        0
280
     0
281
     1
  0
CLASS
  1
SCALE
  2
AcDbScale
  3
ObjectDBX Classes
 90
     1153
280
     0
281
     0
  0
CLASS
  1
DICTIONARYVAR
  2
AcDbDictionaryVar
  3
ObjectDBX Classes
 90
        0
280
     0
281
     0
  0
CLASS
  1
ACDBPLACEHOLDER
  2
AcDbPlaceHolder
  3
ObjectDBX Classes
 90
        0
280
     0
281
     0
  0
CLASS
  1
LAYOUT
  2
AcDbLayout
  3
ObjectDBX Classes
 90
        0
280
     0
281
     0
  0
ENDSEC
  0
SECTION
  2
TABLES
  0
TABLE
  2
VPORT
  5
8
330
0
100
AcDbSymbolTable
 70
     1
  0
VPORT
  5
29
330
8
100
AcDbSymbolTableRecord
100
AcDbViewportTableRecord
  2
*Active
 70
     0
 10
0.0
 20
0.0
 11
1.0
 21
1.0
 12
215.0465399173471
 22
-172.4072876592115
 13
0.0
 23
0.0
 14
0.5
 24
0.5
 15
0.5
 25
0.5
 16
0.0
 26
0.0
 36
1.0
 17
0.0
 27
0.0
 37
0.0
 40
1856.010877854889
 41
1.60267857142857
 42
50.0
 43
0.0
 44
0.0
 50
0.0
 51
0.0
 71
     0
 72
   100
 73
     1
 74
     3
 75
     0
 76
     0
 77
     0
 78
     0
281
     0
 65
     1
110
0.0
120
0.0
130
0.0
111
1.0
121
0.0
131
0.0
112
0.0
122
1.0
132
0.0
 79
     0
146
0.0
  0
ENDTAB
  0
TABLE
  2
LTYPE
  5
5
330
0
100
AcDbSymbolTable
 70
     8
  0
LTYPE
  5
14
330
5
100
AcDbSymbolTableRecord
100
AcDbLinetypeTableRecord
  2
ByBlock
 70
     0
  3

 72
    65
 73
     0
 40
0.0
  0
LTYPE
  5
15
330
5
100
AcDbSymbolTableRecord
100
AcDbLinetypeTableRecord
  2
ByLayer
 70
     0
  3

 72
    65
 73
     0
 40
0.0
  0
LTYPE
  5
16
330
5
100
AcDbSymbolTableRecord
100
AcDbLinetypeTableRecord
  2
Continuous
 70
     0
  3
Solid line
 72
    65
 73
     0
 40
0.0
  0
LTYPE
  5
3F
330
5
100
AcDbSymbolTableRecord
100
AcDbLinetypeTableRecord
  2
DASHED
 70
     0
  3
Dashed
 72
    65
 73
     2
 40
15.0
 49
7.0
 74
     0
 49
-8.0
 74
     0
  0
LTYPE
  5
40
330
5
100
AcDbSymbolTableRecord
100
AcDbLinetypeTableRecord
  2
DOTTED
 70
     0
  3
Dotted
 72
    65
 73
     2
 40
1.0
 49
0.0
 74
     0
 49
-1.0
 74
     0
  0
LTYPE
  5
41
330
5
100
AcDbSymbolTableRecord
100
AcDbLinetypeTableRecord
  2
DOT_CENTER
 70
     0
  3
Dot_Center
 72
    65
 73
     4
 40
14.0
 49
12.0
 74
     0
 49
-1.0
 74
     0
 49
0.0
 74
     0
 49
-1.0
 74
     0
  0
LTYPE
  5
42
330
5
100
AcDbSymbolTableRecord
100
AcDbLinetypeTableRecord
  2
LONG_DASHED
 70
     0
  3
Long_Dashed
 72
    65
 73
     2
 40
15.0
 49
10.0
 74
     0
 49
-5.0
 74
     0
  0
LTYPE
  5
43
330
5
100
AcDbSymbolTableRecord
100
AcDbLinetypeTableRecord
  2
DASH_CENTER
 70
     0
  3
Dash_Center
 72
    65
 73
     4
 40
14.0
 49
11.0
 74
     0
 49
-1.0
 74
     0
 49
1.0
 74
     0
 49
-1.0
 74
     0
  0
LTYPE
  5
44
330
5
100
AcDbSymbolTableRecord
100
AcDbLinetypeTableRecord
  2
PHANTOM
 70
     0
  3
Phantom
 72
    65
 73
     6
 40
13.0
 49
10.0
 74
     0
 49
-1.0
 74
     0
 49
0.0
 74
     0
 49
-1.0
 74
     0
 49
0.0
 74
     0
 49
-1.0
 74
     0
  0
LTYPE
  5
45
330
5
100
AcDbSymbolTableRecord
100
AcDbLinetypeTableRecord
  2
CENTER_DASH_DASH
 70
     0
  3
Center_Dash_Dash
 72
    65
 73
     6
 40
14.0
 49
9.0
 74
     0
 49
-1.0
 74
     0
 49
1.0
 74
     0
 49
-1.0
 74
     0
 49
1.0
 74
     0
 49
-1.0
 74
     0
  0
ENDTAB
  0
TABLE
  2
LAYER
  5
2
330
0
100
AcDbSymbolTable
 70
     7
  0
LAYER
  5
10
330
2
100
AcDbSymbolTableRecord
100
AcDbLayerTableRecord
  2
0
 70
     0
 62
     7
  6
Continuous
370
    -3
390
F
  0
LAYER
  5
46
330
2
100
AcDbSymbolTableRecord
100
AcDbLayerTableRecord
  2
1
 70
     0
 62
     7
  6
Continuous
370
    -3
390
F
  0
LAYER
  5
47
330
2
100
AcDbSymbolTableRecord
100
AcDbLayerTableRecord
  2
11
 70
     0
 62
     7
  6
Continuous
370
    -3
390
F
  0
LAYER
  5
48
330
2
100
AcDbSymbolTableRecord
100
AcDbLayerTableRecord
  2
2
 70
     0
 62
     7
  6
Continuous
370
    -3
390
F
  0
LAYER
  5
49
330
2
100
AcDbSymbolTableRecord
100
AcDbLayerTableRecord
  2
3
 70
     0
 62
     7
  6
Continuous
370
    -3
390
F
  0
LAYER
  5
4A
330
2
100
AcDbSymbolTableRecord
100
AcDbLayerTableRecord
  2
4
 70
     0
 62
     7
  6
Continuous
370
    -3
390
F
  0
LAYER
  5
4B
330
2
100
AcDbSymbolTableRecord
100
AcDbLayerTableRecord
  2
5
 70
     0
 62
     7
  6
Continuous
370
    -3
390
F
  0
ENDTAB
  0
TABLE
  2
STYLE
  5
3
330
0
100
AcDbSymbolTable
 70
     2
  0
STYLE
  5
11
330
3
100
AcDbSymbolTableRecord
100
AcDbTextStyleTableRecord
  2
Standard
 70
     0
 40
0.0
 41
1.0
 50
0.0
 71
     0
 42
0.2
  3
txt
  4

  0
STYLE
  5
630
330
3
100
AcDbSymbolTableRecord
100
AcDbTextStyleTableRecord
  2
CONVERTER_11
 70
     0
 40
0.0
 41
0.9
 50
0.0
 71
     0
 42
0.2
  3
txt.shx
  4

  0
ENDTAB
  0
TABLE
  2
VIEW
  5
6
330
0
100
AcDbSymbolTable
 70
     0
  0
ENDTAB
  0
TABLE
  2
UCS
  5
7
330
0
100
AcDbSymbolTable
 70
     0
  0
ENDTAB
  0
TABLE
  2
APPID
  5
9
330
0
100
AcDbSymbolTable
 70
     1
  0
APPID
  5
12
330
9
100
AcDbSymbolTableRecord
100
AcDbRegAppTableRecord
  2
ACAD
 70
     0
  0
ENDTAB
  0
TABLE
  2
DIMSTYLE
  5
A
330
0
100
AcDbSymbolTable
 70
     2
100
AcDbDimStyleTable
  0
DIMSTYLE
105
27
330
A
100
AcDbSymbolTableRecord
100
AcDbDimStyleTableRecord
  2
Standard
 70
     0
340
11
  0
DIMSTYLE
105
65C
102
{ACAD_REACTORS
330
65D
102
}
330
A
100
AcDbSymbolTableRecord
100
AcDbDimStyleTableRecord
  2
ME10_DIM_10
 70
     0
 41
16.0
 42
1.0
 44
1.0
 73
     0
 74
     0
 77
     1
 78
    12
140
20.0
147
1.0
172
     1
173
     1
174
     1
175
     1
176
     2
177
     2
178
     2
271
     3
340
630
343
656
344
656
  0
ENDTAB
  0
TABLE
  2
BLOCK_RECORD
  5
1
330
0
100
AcDbSymbolTable
 70
     3
  0
BLOCK_RECORD
  5
1F
330
1
100
AcDbSymbolTableRecord
100
AcDbBlockTableRecord
  2
*Model_Space
340
22
  0
BLOCK_RECORD
  5
1B
330
1
100
AcDbSymbolTableRecord
100
AcDbBlockTableRecord
  2
*Paper_Space
340
1E
  0
BLOCK_RECORD
  5
23
330
1
100
AcDbSymbolTableRecord
100
AcDbBlockTableRecord
  2
*Paper_Space0
340
26
  0
BLOCK_RECORD
  5
628
330
1
100
AcDbSymbolTableRecord
100
AcDbBlockTableRecord
  2
*D1
340
0
  0
BLOCK_RECORD
  5
656
330
1
100
AcDbSymbolTableRecord
100
AcDbBlockTableRecord
  2
_OPEN30
340
0
  0
ENDTAB
  0
ENDSEC
  0
SECTION
  2
BLOCKS
  0
BLOCK
  5
20
330
1F
100
AcDbEntity
  8
0
100
AcDbBlockBegin
  2
*Model_Space
 70
     0
 10
0.0
 20
0.0
 30
0.0
  3
*Model_Space
  1

  0
ENDBLK
  5
21
330
1F
100
AcDbEntity
  8
0
100
AcDbBlockEnd
  0
BLOCK
  5
1C
330
1B
100
AcDbEntity
 67
     1
  8
0
100
AcDbBlockBegin
  2
*Paper_Space
 70
     0
 10
0.0
 20
0.0
 30
0.0
  3
*Paper_Space
  1

  0
ENDBLK
  5
1D
330
1B
100
AcDbEntity
 67
     1
  8
0
100
AcDbBlockEnd
  0
BLOCK
  5
24
330
23
100
AcDbEntity
  8
0
100
AcDbBlockBegin
  2
*Paper_Space0
 70
     0
 10
0.0
 20
0.0
 30
0.0
  3
*Paper_Space0
  1

  0
ENDBLK
  5
25
330
23
100
AcDbEntity
  8
0
100
AcDbBlockEnd
  0
BLOCK
  5
654
330
628
100
AcDbEntity
  8
0
100
AcDbBlockBegin
  2
*D1
 70
     1
 10
0.0
 20
0.0
 30
0.0
  3
*D1
  1

  0
LINE
  5
629
330
628
100
AcDbEntity
  8
1
  6
Continuous
 62
     2
100
AcDbLine
 10
387.643498462291
 20
-895.806757327145
 30
0.0
 11
387.643498462291
 21
459.893247826687
 31
0.0
  0
LINE
  5
62A
330
628
100
AcDbEntity
  8
1
  6
Continuous
 62
     2
100
AcDbLine
 10
319.6675413945362
 20
-895.806757327145
 30
0.0
 11
388.643498462291
 21
-895.806757327145
 31
0.0
  0
LINE
  5
62B
330
628
100
AcDbEntity
  8
1
  6
Continuous
 62
     2
100
AcDbLine
 10
368.3675415599805
 20
459.893247826687
 30
0.0
 11
388.643498462291
 21
459.893247826687
 31
0.0
  0
LINE
  5
62C
330
628
100
AcDbEntity
  8
1
 62
     2
100
AcDbLine
 10
387.643498462291
 20
459.893247826687
 30
0.0
 11
391.930685541189
 21
443.893247826687
 31
0.0
  0
LINE
  5
62D
330
628
100
AcDbEntity
  8
1
 62
     2
100
AcDbLine
 10
387.643498462291
 20
459.893247826687
 30
0.0
 11
383.3563113833931
 21
443.893247826687
 31
0.0
  0
LINE
  5
62E
330
628
100
AcDbEntity
  8
1
 62
     2
100
AcDbLine
 10
387.643498462291
 20
-895.806757327145
 30
0.0
 11
383.3563113833931
 21
-879.806757327145
 31
0.0
  0
LINE
  5
62F
330
628
100
AcDbEntity
  8
1
 62
     2
100
AcDbLine
 10
387.643498462291
 20
-895.806757327145
 30
0.0
 11
391.930685541189
 21
-879.806757327145
 31
0.0
  0
MTEXT
  5
653
330
628
100
AcDbEntity
  8
1
 62
     2
100
AcDbMText
 10
386.643498462291
 20
-280.356776887601
 30
0.0
 40
20.0
 41
0.0
 71
     7
 72
     1
  1
1251\U+ff5e1357
  7
CONVERTER_11
 11
0.0
 21
1.0
 31
0.0
 73
     1
 44
0.60024009603842
  0
ENDBLK
  5
655
330
628
100
AcDbEntity
  8
0
100
AcDbBlockEnd
  0
BLOCK
  5
657
330
656
100
AcDbEntity
  8
0
100
AcDbBlockBegin
  2
_OPEN30
 70
     0
 10
0.0
 20
0.0
 30
0.0
  3
_OPEN30
  1

  0
LINE
  5
659
330
656
100
AcDbEntity
  8
0
  6
ByBlock
 62
     0
370
    -2
100
AcDbLine
 10
-1.0
 20
0.267949
 30
0.0
 11
0.0
 21
0.0
 31
0.0
  0
LINE
  5
65A
330
656
100
AcDbEntity
  8
0
  6
ByBlock
 62
     0
370
    -2
100
AcDbLine
 10
0.0
 20
0.0
 30
0.0
 11
-1.0
 21
-0.267949
 31
0.0
  0
LINE
  5
65B
330
656
100
AcDbEntity
  8
0
  6
ByBlock
 62
     0
370
    -2
100
AcDbLine
 10
0.0
 20
0.0
 30
0.0
 11
-1.0
 21
0.0
 31
0.0
  0
ENDBLK
  5
658
330
656
100
AcDbEntity
  8
0
100
AcDbBlockEnd
  0
ENDSEC
  0
SECTION
  2
ENTITIES
  0
POINT
  5
4C
330
1F
100
AcDbEntity
  8
1
 62
     7
100
AcDbPoint
 10
318.667541394536
 20
-895.806757327144
 30
0.0
  0
POINT
  5
4D
330
1F
100
AcDbEntity
  8
1
 62
     7
100
AcDbPoint
 10
367.367541559981
 20
459.893247826687
 30
0.0
  0
POINT
  5
4E
330
1F
100
AcDbEntity
  8
1
 62
     3
 60
     1
100
AcDbPoint
 10
1303.14398201537
 20
510.959411463083
 30
0.0
  0
POINT
  5
4F
330
1F
100
AcDbEntity
  8
1
 62
     3
 60
     1
100
AcDbPoint
 10
1094.15814047343
 20
380.418638833124
 30
0.0
  0
POINT
  5
50
330
1F
100
AcDbEntity
  8
1
 62
     3
 60
     1
100
AcDbPoint
 10
1116.15814047343
 20
380.418638833124
 30
0.0
  0
POINT
  5
51
330
1F
100
AcDbEntity
  8
1
 62
     3
 60
     1
100
AcDbPoint
 10
1614.08444662044
 20
389.666872485818
 30
0.0
  0
POINT
  5
52
330
1F
100
AcDbEntity
  8
1
 62
     3
 60
     1
100
AcDbPoint
 10
1622.29021798638
 20
346.666872485818
 30
0.0
  0
POINT
  5
53
330
1F
100
AcDbEntity
  8
1
 62
     3
 60
     1
100
AcDbPoint
 10
825.009541861669
 20
449.734020456647
 30
0.0
  0
POINT
  5
54
330
1F
100
AcDbEntity
  8
1
 62
     3
 60
     1
100
AcDbPoint
 10
616.023700319733
 20
319.193247826688
 30
0.0
  0
POINT
  5
55
330
1F
100
AcDbEntity
  8
1
 62
     3
 60
     1
100
AcDbPoint
 10
638.023700319733
 20
319.193247826688
 30
0.0
  0
POINT
  5
56
330
1F
100
AcDbEntity
  8
1
 62
     3
 60
     1
100
AcDbPoint
 10
1135.95000646674
 20
328.441481479382
 30
0.0
  0
POINT
  5
57
330
1F
100
AcDbEntity
  8
1
 62
     3
 60
     1
100
AcDbPoint
 10
1144.15577783268
 20
285.441481479382
 30
0.0
  0
LINE
  5
58
330
1F
100
AcDbEntity
  8
1
  6
Continuous
 62
     3
100
AcDbLine
 10
297.367541559981
 20
297.443247826688
 30
0.0
 11
296.096410615549
 21
297.443247826688
 31
0.0
  0
LINE
  5
132
330
1F
100
AcDbEntity
  8
1
  6
Continuous
 62
     4
100
AcDbLine
 10
106.599142809403
 20
-925.401031139528
 30
0.0
 11
116.825503035548
 21
-923.788197143864
 31
0.0
  0
LINE
  5
133
330
1F
100
AcDbEntity
  8
1
  6
Continuous
 62
     4
100
AcDbLine
 10
106.599142809403
 20
-925.401031139528
 30
0.0
 11
114.649013555663
 21
-918.891095814123
 31
0.0
  0
LINE
  5
134
330
1F
100
AcDbEntity
  8
1
  6
Continuous
 62
     4
100
AcDbLine
 10
302.746207804568
 20
-925.401031139528
 30
0.0
 11
294.696337058308
 21
-918.891095814123
 31
0.0
  0
LINE
  5
135
330
1F
100
AcDbEntity
  8
1
  6
Continuous
 62
     4
100
AcDbLine
 10
302.746207804568
 20
-925.401031139528
 30
0.0
 11
292.519847578423
 21
-923.788197143864
 31
0.0
  0
LINE
  5
136
330
1F
100
AcDbEntity
  8
1
  6
Continuous
 62
     3
100
AcDbLine
 10
103.062394293505
 20
452.118118957284
 30
0.0
 11
101.662394293505
 21
446.893247826687
 31
0.0
  0
LINE
  5
137
330
1F
100
AcDbEntity
  8
1
  6
Continuous
 62
     3
100
AcDbLine
 10
100.262394293505
 20
452.118118957284
 30
0.0
 11
101.662394293505
 21
446.893247826687
 31
0.0
  0
LINE
  5
138
330
1F
100
AcDbEntity
  8
1
  6
Continuous
 62
     3
100
AcDbLine
 10
100.262394293505
 20
452.118118957284
 30
0.0
 11
100.262394293505
 21
457.593247826687
 31
0.0
  0
LINE
  5
139
330
1F
100
AcDbEntity
  8
1
  6
Continuous
 62
     3
100
AcDbLine
 10
103.062394293505
 20
452.118118957284
 30
0.0
 11
103.062394293505
 21
457.593247826687
 31
0.0
  0
LINE
  5
13A
330
1F
100
AcDbEntity
  8
1
  6
Continuous
 62
     3
100
AcDbLine
 10
102.409755744128
 20
447.750587079449
 30
0.0
 11
100.994848277224
 21
447.452711823259
 31
0.0
  0
LINE
  5
13B
330
1F
100
AcDbEntity
  8
1
  6
Continuous
 62
     3
100
AcDbLine
 10
102.86410442287
 20
449.446239432869
 30
0.0
 11
100.589022354246
 21
448.967274786843
 31
0.0
  0
LINE
  5
13C
330
1F
100
AcDbEntity
  8
1
  6
Continuous
 62
     3
100
AcDbLine
 10
103.318453101613
 20
451.141891786289
 30
0.0
 11
100.183196431268
 21
450.481837750426
 31
0.0
  0
LINE
  5
13D
330
1F
100
AcDbEntity
  8
1
  6
Continuous
 62
     3
100
AcDbLine
 10
103.562394293505
 20
452.793247826687
 30
0.0
 11
99.7623942935052
 21
451.993247826687
 31
0.0
  0
LINE
  5
13E
330
1F
100
AcDbEntity
  8
1
  6
Continuous
 62
     3
100
AcDbLine
 10
103.562394293505
 20
454.393247826687
 30
0.0
 11
99.7623942935052
 21
453.593247826687
 31
0.0
  0
LINE
  5
13F
330
1F
100
AcDbEntity
  8
1
  6
Continuous
 62
     3
100
AcDbLine
 10
103.562394293505
 20
455.993247826687
 30
0.0
 11
99.7623942935052
 21
455.193247826687
 31
0.0
  0
LINE
  5
140
330
1F
100
AcDbEntity
  8
1
  6
Continuous
 62
     3
100
AcDbLine
 10
103.562394293505
 20
457.593247826687
 30
0.0
 11
99.7623942935052
 21
456.793247826687
 31
0.0
  0
LINE
  5
141
330
1F
100
AcDbEntity
  8
1
  6
Continuous
 62
     3
100
AcDbLine
 10
103.562394293505
 20
457.593247826687
 30
0.0
 11
99.7623942935052
 21
457.593247826687
 31
0.0
  0
LINE
  5
142
330
1F
100
AcDbEntity
  8
1
  6
Continuous
 62
     3
100
AcDbLine
 10
99.7623942935052
 20
457.593247826687
 30
0.0
 11
99.7623942935052
 21
459.893247826687
 31
0.0
  0
LINE
  5
143
330
1F
100
AcDbEntity
  8
1
  6
Continuous
 62
     3
100
AcDbLine
 10
103.562394293505
 20
457.593247826687
 30
0.0
 11
103.562394293505
 21
459.893247826687
 31
0.0
  0
LINE
  5
144
330
1F
100
AcDbEntity
  8
1
  6
Continuous
 62
     3
100
AcDbLine
 10
109.662394293505
 20
-844.806752173312
 30
0.0
 11
93.6623942935053
 21
-844.806752173312
 31
0.0
  0
LINE
  5
145
330
1F
100
AcDbEntity
  8
1
  6
Continuous
 62
     3
100
AcDbLine
 10
97.1623942935051
 20
-643.806752173313
 30
0.0
 11
97.1623942935053
 21
297.193247826688
 31
0.0
  0
LINE
  5
146
330
1F
100
AcDbEntity
  8
1
  6
Continuous
 62
     3
100
AcDbLine
 10
92.1623942935053
 20
-852.806752173312
 30
0.0
 11
92.1623942935053
 21
-877.306757909944
 31
0.0
  0
LINE
  5
147
330
1F
100
AcDbEntity
  8
1
  6
Continuous
 62
     3
100
AcDbLine
 10
111.162394293505
 20
-852.806752173312
 30
0.0
 11
111.162394293505
 21
-877.306757909944
 31
0.0
  0
LINE
  5
148
330
1F
100
AcDbEntity
  8
1
  6
Continuous
 62
     3
100
AcDbLine
 10
92.1623942935053
 20
-852.806752173312
 30
0.0
 11
111.162394293505
 21
-852.806752173312
 31
0.0
  0
LINE
  5
149
330
1F
100
AcDbEntity
  8
2
  6
Continuous
 62
     3
100
AcDbLine
 10
95.6623942935053
 20
-643.806752173313
 30
0.0
 11
95.6623942935053
 21
-843.806752173312
 31
0.0
  0
LINE
  5
14A
330
1F
100
AcDbEntity
  8
2
  6
Continuous
 62
     3
100
AcDbLine
 10
107.662394293505
 20
-643.806752173313
 30
0.0
 11
107.662394293505
 21
-843.806752173313
 31
0.0
  0
LINE
  5
14B
330
1F
100
AcDbEntity
  8
1
  6
Continuous
 62
     3
100
AcDbLine
 10
109.162394293505
 20
-844.306752173312
 30
0.0
 11
94.1623942935053
 21
-844.306752173312
 31
0.0
  0
LINE
  5
14C
330
1F
100
AcDbEntity
  8
1
  6
Continuous
 62
     3
100
AcDbLine
 10
97.1623942935053
 20
-843.806752173312
 30
0.0
 11
97.1623942935053
 21
-844.306752173312
 31
0.0
  0
LINE
  5
14D
330
1F
100
AcDbEntity
  8
1
  6
Continuous
 62
     3
100
AcDbLine
 10
106.162394293505
 20
-843.806752173312
 30
0.0
 11
106.162394293505
 21
-844.306752173312
 31
0.0
  0
LINE
  5
14E
330
1F
100
AcDbEntity
  8
2
  6
Continuous
 62
     3
100
AcDbLine
 10
95.6623942935053
 20
-643.806752173313
 30
0.0
 11
107.662394293505
 21
-643.806752173313
 31
0.0
  0
LINE
  5
14F
330
1F
100
AcDbEntity
  8
1
  6
Continuous
 62
     3
100
AcDbLine
 10
94.1623942935053
 20
-844.306752173312
 30
0.0
 11
93.6623942935053
 21
-844.806752173312
 31
0.0
  0
LINE
  5
150
330
1F
100
AcDbEntity
  8
1
  6
Continuous
 62
     3
100
AcDbLine
 10
93.6623942935053
 20
-852.806752173312
 30
0.0
 11
93.6623942935053
 21
-844.806752173312
 31
0.0
  0
LINE
  5
151
330
1F
100
AcDbEntity
  8
1
  6
Continuous
 62
     3
100
AcDbLine
 10
109.662394293505
 20
-844.806752173312
 30
0.0
 11
109.162394293505
 21
-844.306752173312
 31
0.0
  0
LINE
  5
152
330
1F
100
AcDbEntity
  8
1
  6
Continuous
 62
     3
100
AcDbLine
 10
109.662394293505
 20
-852.806752173312
 30
0.0
 11
109.662394293505
 21
-844.806752173312
 31
0.0
  0
LINE
  5
153
330
1F
100
AcDbEntity
  8
2
  6
Continuous
 62
     3
100
AcDbLine
 10
91.1623946413054
 20
-908.306757327144
 30
0.0
 11
112.162394246505
 21
-908.306757327144
 31
0.0
  0
LINE
  5
154
330
1F
100
AcDbEntity
  8
2
  6
Continuous
 62
     3
100
AcDbLine
 10
95.6623942935053
 20
-843.806752173312
 30
0.0
 11
107.662394293505
 21
-843.806752173313
 31
0.0
  0
LINE
  5
155
330
1F
100
AcDbEntity
  8
1
  6
Continuous
 62
     3
100
AcDbLine
 10
106.162394293505
 20
-643.806752173313
 30
0.0
 11
106.162394293505
 21
297.193247826688
 31
0.0
  0
LINE
  5
156
330
1F
100
AcDbEntity
  8
3
  6
Continuous
 62
     3
100
AcDbLine
 10
111.326354238269
 20
589.806562950713
 30
0.0
 11
116.241331252813
 21
591.595468286109
 31
0.0
  0
LINE
  5
157
330
1F
100
AcDbEntity
  8
3
  6
Continuous
 62
     3
100
AcDbLine
 10
111.701692413081
 20
588.721853476887
 30
0.0
 11
111.207071263029
 21
589.428245686429
 31
0.0
  0
LINE
  5
158
330
1F
100
AcDbEntity
  8
3
  6
Continuous
 62
     3
100
AcDbLine
 10
112.760005991659
 20
587.210425049135
 30
0.0
 11
112.279578898697
 21
587.896546044331
 31
0.0
  0
LINE
  5
159
330
1F
100
AcDbEntity
  8
3
  6
Continuous
 62
     3
100
AcDbLine
 10
116.518347399424
 20
591.199848228491
 30
0.0
 11
113.156305113511
 21
587.193122255801
 31
0.0
  0
LINE
  5
15A
330
1F
100
AcDbEntity
  8
3
  6
Continuous
 62
     3
100
AcDbLine
 10
87.0834573341975
 20
591.595468286107
 30
0.0
 11
91.9984343487412
 21
589.806562950713
 31
0.0
  0
LINE
  5
15B
330
1F
100
AcDbEntity
  8
3
  6
Continuous
 62
     3
100
AcDbLine
 10
92.1177173239832
 20
589.428245686429
 30
0.0
 11
91.6230961739291
 21
588.721853476887
 31
0.0
  0
LINE
  5
15C
330
1F
100
AcDbEntity
  8
3
  6
Continuous
 62
     3
100
AcDbLine
 10
91.0452096883134
 20
587.896546044331
 30
0.0
 11
90.5647825953512
 21
587.210425049135
 31
0.0
  0
LINE
  5
15D
330
1F
100
AcDbEntity
  8
3
  6
Continuous
 62
     3
100
AcDbLine
 10
90.1684834734992
 20
587.193122255801
 30
0.0
 11
86.8064411875873
 21
591.199848228491
 31
0.0
  0
LINE
  5
15E
330
1F
100
AcDbEntity
  8
3
  6
Continuous
 62
     3
100
AcDbLine
 10
103.462394293505
 20
591.835592861441
 30
0.0
 11
103.462394293505
 21
596.223916199951
 31
0.0
  0
LINE
  5
15F
330
1F
100
AcDbEntity
  8
3
  6
Continuous
 62
     3
100
AcDbLine
 10
101.462394293505
 20
591.735270505479
 30
0.0
 11
101.462394293505
 21
596.085737321351
 31
0.0
  0
LINE
  5
160
330
1F
100
AcDbEntity
  8
2
  6
DOT_CENTER
 62
     1
100
AcDbLine
 10
38.1623942935052
 20
607.734020456647
 30
0.0
 11
165.162394293505
 21
607.734020456647
 31
0.0
  0
LINE
  5
161
330
1F
100
AcDbEntity
  8
2
  6
DOT_CENTER
 62
     1
100
AcDbLine
 10
101.662394293505
 20
544.234020456647
 30
0.0
 11
101.662394293505
 21
671.234020456647
 31
0.0
  0
LINE
  5
162
330
1F
100
AcDbEntity
  8
3
  6
Continuous
 62
     3
100
AcDbLine
 10
47.870493537053
 20
462.893247826687
 30
0.0
 11
155.454295049958
 21
462.893247826687
 31
0.0
  0
LINE
  5
163
330
1F
100
AcDbEntity
  8
3
  6
Continuous
 62
     3
100
AcDbLine
 10
136.412394293505
 20
459.893247826687
 30
0.0
 11
135.761182474794
 21
440.791034477837
 31
0.0
  0
LINE
  5
164
330
1F
100
AcDbEntity
  8
3
  6
Continuous
 62
     3
100
AcDbLine
 10
66.9123942935053
 20
459.893247826687
 30
0.0
 11
67.563606112216
 21
440.791034477837
 31
0.0
  0
LINE
  5
165
330
1F
100
AcDbEntity
  8
3
  6
Continuous
 62
     3
100
AcDbLine
 10
159.162394293505
 20
460.393247826687
 30
0.0
 11
159.162394293505
 21
459.893247826687
 31
0.0
  0
LINE
  5
166
330
1F
100
AcDbEntity
  8
3
  6
Continuous
 62
     3
100
AcDbLine
 10
44.1623942935053
 20
460.393247826687
 30
0.0
 11
44.1623942935053
 21
459.893247826687
 31
0.0
  0
LINE
  5
167
330
1F
100
AcDbEntity
  8
3
  6
Continuous
 62
     3
100
AcDbLine
 10
84.1623942935053
 20
348.893247826687
 30
0.0
 11
84.1623942935053
 21
346.893247826688
 31
0.0
  0
LINE
  5
168
330
1F
100
AcDbEntity
  8
3
  6
Continuous
 62
     3
100
AcDbLine
 10
119.162394293505
 20
348.893247826687
 30
0.0
 11
119.162394293505
 21
346.893247826688
 31
0.0
  0
LINE
  5
169
330
1F
100
AcDbEntity
  8
3
  6
Continuous
 62
     3
100
AcDbLine
 10
109.662394293505
 20
346.893247826688
 30
0.0
 11
109.662394293505
 21
341.893247826688
 31
0.0
  0
LINE
  5
16A
330
1F
100
AcDbEntity
  8
3
  6
Continuous
 62
     3
100
AcDbLine
 10
93.6623942935053
 20
346.893247826688
 30
0.0
 11
93.6623942935053
 21
341.893247826688
 31
0.0
  0
LINE
  5
16B
330
1F
100
AcDbEntity
  8
3
  6
Continuous
 62
     3
100
AcDbLine
 10
119.162394293505
 20
437.893247826687
 30
0.0
 11
119.162394293505
 21
348.893247826687
 31
0.0
  0
LINE
  5
16C
330
1F
100
AcDbEntity
  8
3
  6
Continuous
 62
     3
100
AcDbLine
 10
84.1623942935053
 20
437.893247826687
 30
0.0
 11
84.1623942935053
 21
348.893247826687
 31
0.0
  0
LINE
  5
16D
330
1F
100
AcDbEntity
  8
3
  6
PHANTOM
 62
     6
100
AcDbLine
 10
71.1623942935053
 20
502.893247826687
 30
0.0
 11
132.162394293505
 21
502.893247826687
 31
0.0
  0
LINE
  5
16E
330
1F
100
AcDbEntity
  8
3
  6
PHANTOM
 62
     6
100
AcDbLine
 10
71.8755971714867
 20
482.893247826687
 30
0.0
 11
131.449191415524
 21
482.893247826687
 31
0.0
  0
LINE
  5
16F
330
1F
100
AcDbEntity
  8
3
  6
PHANTOM
 62
     6
100
AcDbLine
 10
133.124920632916
 20
501.893950210978
 30
0.0
 11
132.448489031233
 21
483.855774166098
 31
0.0
  0
LINE
  5
170
330
1F
100
AcDbEntity
  8
3
  6
PHANTOM
 62
     6
100
AcDbLine
 10
70.1998679540942
 20
501.893950210978
 30
0.0
 11
70.8762995557772
 21
483.855774166098
 31
0.0
  0
LINE
  5
171
330
1F
100
AcDbEntity
  8
3
  6
PHANTOM
 62
     6
100
AcDbLine
 10
132.162394293505
 20
502.893247826687
 30
0.0
 11
133.124920632916
 21
501.893950210978
 31
0.0
  0
LINE
  5
172
330
1F
100
AcDbEntity
  8
3
  6
PHANTOM
 62
     6
100
AcDbLine
 10
71.1623942935053
 20
502.893247826687
 30
0.0
 11
70.1998679540942
 21
501.893950210978
 31
0.0
  0
LINE
  5
173
330
1F
100
AcDbEntity
  8
3
  6
PHANTOM
 62
     6
100
AcDbLine
 10
131.454567465193
 20
483.849173051616
 30
0.0
 11
132.132048935215
 21
499.20541970543
 31
0.0
  0
LINE
  5
174
330
1F
100
AcDbEntity
  8
3
  6
PHANTOM
 62
     6
100
AcDbLine
 10
70.1998679540942
 20
501.893950210978
 30
0.0
 11
133.124920632916
 21
501.893950210978
 31
0.0
  0
LINE
  5
175
330
1F
100
AcDbEntity
  8
3
  6
PHANTOM
 62
     6
100
AcDbLine
 10
129.041364560999
 20
497.893247826687
 30
0.0
 11
129.041364560999
 21
485.855774166098
 31
0.0
  0
LINE
  5
176
330
1F
100
AcDbEntity
  8
3
  6
PHANTOM
 62
     6
100
AcDbLine
 10
120.33860382438
 20
497.893247826687
 30
0.0
 11
120.33860382438
 21
485.855774166098
 31
0.0
  0
LINE
  5
177
330
1F
100
AcDbEntity
  8
3
  6
PHANTOM
 62
     6
100
AcDbLine
 10
114.292150101396
 20
497.893247826687
 30
0.0
 11
114.292150101396
 21
485.855774166098
 31
0.0
  0
LINE
  5
178
330
1F
100
AcDbEntity
  8
3
  6
PHANTOM
 62
     6
100
AcDbLine
 10
99.6640572024844
 20
497.893247826687
 30
0.0
 11
99.6640572024844
 21
485.855774166098
 31
0.0
  0
LINE
  5
179
330
1F
100
AcDbEntity
  8
3
  6
PHANTOM
 62
     6
100
AcDbLine
 10
92.7882837221648
 20
497.893247826687
 30
0.0
 11
92.7882837221648
 21
485.855774166098
 31
0.0
  0
LINE
  5
17A
330
1F
100
AcDbEntity
  8
3
  6
PHANTOM
 62
     6
100
AcDbLine
 10
79.9245547145208
 20
497.893247826687
 30
0.0
 11
79.9245547145208
 21
485.855774166098
 31
0.0
  0
LINE
  5
17B
330
1F
100
AcDbEntity
  8
3
  6
PHANTOM
 62
     6
100
AcDbLine
 10
75.4367123040174
 20
497.893247826687
 30
0.0
 11
75.4367123040174
 21
485.855774166098
 31
0.0
  0
LINE
  5
17C
330
1F
100
AcDbEntity
  8
3
  6
PHANTOM
 62
     6
100
AcDbLine
 10
70.8762995557772
 20
483.855774166098
 30
0.0
 11
73.4367123040174
 21
483.855774166098
 31
0.0
  0
LINE
  5
17D
330
1F
100
AcDbEntity
  8
3
  6
PHANTOM
 62
     6
100
AcDbLine
 10
81.9245547145208
 20
483.855774166098
 30
0.0
 11
90.7882837221648
 21
483.855774166098
 31
0.0
  0
LINE
  5
17E
330
1F
100
AcDbEntity
  8
3
  6
PHANTOM
 62
     6
100
AcDbLine
 10
101.664057202484
 20
483.855774166098
 30
0.0
 11
112.292150101396
 21
483.855774166098
 31
0.0
  0
LINE
  5
17F
330
1F
100
AcDbEntity
  8
3
  6
PHANTOM
 62
     6
100
AcDbLine
 10
122.33860382438
 20
483.855774166098
 30
0.0
 11
127.041364560999
 21
483.855774166098
 31
0.0
  0
LINE
  5
180
330
1F
100
AcDbEntity
  8
3
  6
PHANTOM
 62
     6
100
AcDbLine
 10
70.2748942935052
 20
499.893247826687
 30
0.0
 11
73.4367123040174
 21
499.893247826687
 31
0.0
  0
LINE
  5
181
330
1F
100
AcDbEntity
  8
3
  6
PHANTOM
 62
     6
100
AcDbLine
 10
81.9245547145208
 20
499.893247826687
 30
0.0
 11
90.7882837221648
 21
499.893247826687
 31
0.0
  0
LINE
  5
182
330
1F
100
AcDbEntity
  8
3
  6
PHANTOM
 62
     6
100
AcDbLine
 10
101.664057202484
 20
499.893247826687
 30
0.0
 11
112.292150101396
 21
499.893247826687
 31
0.0
  0
LINE
  5
183
330
1F
100
AcDbEntity
  8
3
  6
PHANTOM
 62
     6
100
AcDbLine
 10
122.33860382438
 20
499.893247826687
 30
0.0
 11
127.041364560999
 21
499.893247826687
 31
0.0
  0
LINE
  5
184
330
1F
100
AcDbEntity
  8
3
  6
PHANTOM
 62
     6
100
AcDbLine
 10
114.362394293505
 20
482.893247826687
 30
0.0
 11
114.362394293505
 21
462.893247826687
 31
0.0
  0
LINE
  5
185
330
1F
100
AcDbEntity
  8
3
  6
PHANTOM
 62
     6
100
AcDbLine
 10
88.9623942935052
 20
482.893247826687
 30
0.0
 11
88.9623942935052
 21
462.893247826687
 31
0.0
  0
LINE
  5
186
330
1F
100
AcDbEntity
  8
3
  6
Continuous
 62
     3
100
AcDbLine
 10
70.5618643451435
 20
437.893247826687
 30
0.0
 11
132.762924241867
 21
437.893247826687
 31
0.0
  0
LINE
  5
187
330
1F
100
AcDbEntity
  8
3
  6
Continuous
 62
     3
100
AcDbLine
 10
44.1623942935053
 20
459.893247826687
 30
0.0
 11
159.162394293505
 21
459.893247826687
 31
0.0
  0
LINE
  5
188
330
1F
100
AcDbEntity
  8
3
  6
Continuous
 62
     3
100
AcDbLine
 10
44.1623942935053
 20
460.393247826687
 30
0.0
 11
159.162394293505
 21
460.393247826687
 31
0.0
  0
LINE
  5
189
330
1F
100
AcDbEntity
  8
3
  6
Continuous
 62
     3
100
AcDbLine
 10
84.1623942935053
 20
346.893247826688
 30
0.0
 11
119.162394293505
 21
346.893247826688
 31
0.0
  0
LINE
  5
18A
330
1F
100
AcDbEntity
  8
3
  6
Continuous
 62
     3
100
AcDbLine
 10
84.1623942935053
 20
348.893247826687
 30
0.0
 11
119.162394293505
 21
348.893247826687
 31
0.0
  0
LINE
  5
18B
330
1F
100
AcDbEntity
  8
3
  6
Continuous
 62
     3
100
AcDbLine
 10
93.6623942935053
 20
341.893247826688
 30
0.0
 11
109.662394293505
 21
341.893247826688
 31
0.0
  0
LINE
  5
18C
330
1F
100
AcDbEntity
  8
3
  6
Continuous
 62
     3
100
AcDbLine
 10
105.662394293505
 20
341.893247826688
 30
0.0
 11
105.662394293505
 21
341.193247826688
 31
0.0
  0
LINE
  5
18D
330
1F
100
AcDbEntity
  8
3
  6
Continuous
 62
     3
100
AcDbLine
 10
97.6623942935053
 20
341.893247826688
 30
0.0
 11
97.6623942935053
 21
341.193247826688
 31
0.0
  0
LINE
  5
18E
330
1F
100
AcDbEntity
  8
3
  6
DOT_CENTER
 62
     1
100
AcDbLine
 10
101.662394293505
 20
-972.806757797144
 30
0.0
 11
101.662394293505
 21
507.893247826687
 31
0.0
  0
LINE
  5
18F
330
1F
100
AcDbEntity
  8
1
  6
Continuous
 62
     3
100
AcDbLine
 10
153.462394293505
 20
462.893247826687
 30
0.0
 11
145.862394293505
 21
462.893247826687
 31
0.0
  0
LINE
  5
190
330
1F
100
AcDbEntity
  8
1
  6
Continuous
 62
     3
100
AcDbLine
 10
151.562394293505
 20
457.593247826687
 30
0.0
 11
151.562394293505
 21
459.893247826687
 31
0.0
  0
LINE
  5
191
330
1F
100
AcDbEntity
  8
1
  6
Continuous
 62
     3
100
AcDbLine
 10
147.762394293505
 20
457.593247826687
 30
0.0
 11
147.762394293505
 21
459.893247826687
 31
0.0
  0
LINE
  5
192
330
1F
100
AcDbEntity
  8
1
  6
Continuous
 62
     3
100
AcDbLine
 10
151.562394293505
 20
457.593247826687
 30
0.0
 11
147.762394293505
 21
457.593247826687
 31
0.0
  0
LINE
  5
193
330
1F
100
AcDbEntity
  8
1
  6
Continuous
 62
     3
100
AcDbLine
 10
151.562394293505
 20
457.593247826687
 30
0.0
 11
147.762394293505
 21
456.793247826687
 31
0.0
  0
LINE
  5
194
330
1F
100
AcDbEntity
  8
1
  6
Continuous
 62
     3
100
AcDbLine
 10
151.562394293505
 20
455.993247826687
 30
0.0
 11
147.762394293505
 21
455.193247826687
 31
0.0
  0
LINE
  5
195
330
1F
100
AcDbEntity
  8
1
  6
Continuous
 62
     3
100
AcDbLine
 10
151.562394293505
 20
454.393247826687
 30
0.0
 11
147.762394293505
 21
453.593247826687
 31
0.0
  0
LINE
  5
196
330
1F
100
AcDbEntity
  8
1
  6
Continuous
 62
     3
100
AcDbLine
 10
151.562394293505
 20
452.793247826687
 30
0.0
 11
147.762394293505
 21
451.993247826687
 31
0.0
  0
LINE
  5
197
330
1F
100
AcDbEntity
  8
1
  6
Continuous
 62
     3
100
AcDbLine
 10
151.318453101613
 20
451.141891786289
 30
0.0
 11
148.183196431268
 21
450.481837750426
 31
0.0
  0
LINE
  5
198
330
1F
100
AcDbEntity
  8
1
  6
Continuous
 62
     3
100
AcDbLine
 10
150.86410442287
 20
449.446239432869
 30
0.0
 11
148.589022354246
 21
448.967274786843
 31
0.0
  0
LINE
  5
199
330
1F
100
AcDbEntity
  8
1
  6
Continuous
 62
     3
100
AcDbLine
 10
150.409755744128
 20
447.750587079449
 30
0.0
 11
148.994848277224
 21
447.452711823259
 31
0.0
  0
LINE
  5
19A
330
1F
100
AcDbEntity
  8
1
  6
Continuous
 62
     3
100
AcDbLine
 10
151.062394293505
 20
452.118118957284
 30
0.0
 11
151.062394293505
 21
457.593247826687
 31
0.0
  0
LINE
  5
19B
330
1F
100
AcDbEntity
  8
1
  6
Continuous
 62
     3
100
AcDbLine
 10
148.262394293505
 20
452.118118957284
 30
0.0
 11
148.262394293505
 21
457.593247826687
 31
0.0
  0
LINE
  5
19C
330
1F
100
AcDbEntity
  8
1
  6
Continuous
 62
     3
100
AcDbLine
 10
148.262394293505
 20
452.118118957284
 30
0.0
 11
149.662394293505
 21
446.893247826687
 31
0.0
  0
LINE
  5
19D
330
1F
100
AcDbEntity
  8
1
  6
Continuous
 62
     3
100
AcDbLine
 10
151.062394293505
 20
452.118118957284
 30
0.0
 11
149.662394293505
 21
446.893247826687
 31
0.0
  0
LINE
  5
19E
330
1F
100
AcDbEntity
  8
1
  6
Continuous
 62
     3
100
AcDbLine
 10
149.162394293505
 20
609.984020456648
 30
0.0
 11
150.162394293505
 21
609.984020456648
 31
0.0
  0
LINE
  5
19F
330
1F
100
AcDbEntity
  8
1
  6
Continuous
 62
     3
100
AcDbLine
 10
149.162394293505
 20
605.484020456648
 30
0.0
 11
150.162394293505
 21
605.484020456648
 31
0.0
  0
LINE
  5
1A0
330
1F
100
AcDbEntity
  8
1
  6
Continuous
 62
     3
100
AcDbLine
 10
147.412394293505
 20
608.234020456648
 30
0.0
 11
147.412394293505
 21
607.234020456648
 31
0.0
  0
LINE
  5
1A1
330
1F
100
AcDbEntity
  8
1
  6
Continuous
 62
     3
100
AcDbLine
 10
151.912394293505
 20
608.234020456648
 30
0.0
 11
151.912394293505
 21
607.234020456648
 31
0.0
  0
LINE
  5
1A2
330
1F
100
AcDbEntity
  8
1
  6
Continuous
 62
     3
100
AcDbLine
 10
147.412394293505
 20
608.234020456648
 30
0.0
 11
148.162394293505
 21
608.234020456648
 31
0.0
  0
LINE
  5
1A3
330
1F
100
AcDbEntity
  8
1
  6
Continuous
 62
     3
100
AcDbLine
 10
151.162394293505
 20
608.234020456648
 30
0.0
 11
151.912394293505
 21
608.234020456648
 31
0.0
  0
LINE
  5
1A4
330
1F
100
AcDbEntity
  8
1
  6
Continuous
 62
     3
100
AcDbLine
 10
147.412394293505
 20
607.234020456648
 30
0.0
 11
148.162394293505
 21
607.234020456648
 31
0.0
  0
LINE
  5
1A5
330
1F
100
AcDbEntity
  8
1
  6
Continuous
 62
     3
100
AcDbLine
 10
151.162394293505
 20
607.234020456648
 30
0.0
 11
151.912394293505
 21
607.234020456648
 31
0.0
  0
LINE
  5
1A6
330
1F
100
AcDbEntity
  8
1
  6
Continuous
 62
     3
100
AcDbLine
 10
150.162394293505
 20
609.984020456648
 30
0.0
 11
150.162394293505
 21
609.234020456648
 31
0.0
  0
LINE
  5
1A7
330
1F
100
AcDbEntity
  8
1
  6
Continuous
 62
     3
100
AcDbLine
 10
150.162394293505
 20
606.234020456648
 30
0.0
 11
150.162394293505
 21
605.484020456648
 31
0.0
  0
LINE
  5
1A8
330
1F
100
AcDbEntity
  8
1
  6
Continuous
 62
     3
100
AcDbLine
 10
149.162394293505
 20
609.984020456648
 30
0.0
 11
149.162394293505
 21
609.234020456648
 31
0.0
  0
LINE
  5
1A9
330
1F
100
AcDbEntity
  8
1
  6
Continuous
 62
     3
100
AcDbLine
 10
149.162394293505
 20
606.234020456648
 30
0.0
 11
149.162394293505
 21
605.484020456648
 31
0.0
  0
LINE
  5
1AA
330
1F
100
AcDbEntity
  8
1
  6
Continuous
 62
     3
100
AcDbLine
 10
101.162394293504
 20
654.234020456647
 30
0.0
 11
101.162394293504
 21
653.484020456647
 31
0.0
  0
LINE
  5
1AB
330
1F
100
AcDbEntity
  8
1
  6
Continuous
 62
     3
100
AcDbLine
 10
101.162394293504
 20
657.984020456647
 30
0.0
 11
101.162394293504
 21
657.234020456647
 31
0.0
  0
LINE
  5
1AC
330
1F
100
AcDbEntity
  8
1
  6
Continuous
 62
     3
100
AcDbLine
 10
102.162394293504
 20
654.234020456647
 30
0.0
 11
102.162394293504
 21
653.484020456647
 31
0.0
  0
LINE
  5
1AD
330
1F
100
AcDbEntity
  8
1
  6
Continuous
 62
     3
100
AcDbLine
 10
102.162394293504
 20
657.984020456647
 30
0.0
 11
102.162394293504
 21
657.234020456647
 31
0.0
  0
LINE
  5
1AE
330
1F
100
AcDbEntity
  8
1
  6
Continuous
 62
     3
100
AcDbLine
 10
103.162394293504
 20
655.234020456647
 30
0.0
 11
103.912394293504
 21
655.234020456647
 31
0.0
  0
LINE
  5
1AF
330
1F
100
AcDbEntity
  8
1
  6
Continuous
 62
     3
100
AcDbLine
 10
99.4123942935043
 20
655.234020456647
 30
0.0
 11
100.162394293504
 21
655.234020456647
 31
0.0
  0
LINE
  5
1B0
330
1F
100
AcDbEntity
  8
1
  6
Continuous
 62
     3
100
AcDbLine
 10
103.162394293504
 20
656.234020456647
 30
0.0
 11
103.912394293504
 21
656.234020456647
 31
0.0
  0
LINE
  5
1B1
330
1F
100
AcDbEntity
  8
1
  6
Continuous
 62
     3
100
AcDbLine
 10
99.4123942935043
 20
656.234020456647
 30
0.0
 11
100.162394293504
 21
656.234020456647
 31
0.0
  0
LINE
  5
1B2
330
1F
100
AcDbEntity
  8
1
  6
Continuous
 62
     3
100
AcDbLine
 10
103.912394293504
 20
656.234020456647
 30
0.0
 11
103.912394293504
 21
655.234020456647
 31
0.0
  0
LINE
  5
1B3
330
1F
100
AcDbEntity
  8
1
  6
Continuous
 62
     3
100
AcDbLine
 10
99.4123942935043
 20
656.234020456647
 30
0.0
 11
99.4123942935043
 21
655.234020456647
 31
0.0
  0
LINE
  5
1B4
330
1F
100
AcDbEntity
  8
1
  6
Continuous
 62
     3
100
AcDbLine
 10
101.162394293504
 20
653.484020456647
 30
0.0
 11
102.162394293504
 21
653.484020456647
 31
0.0
  0
LINE
  5
1B5
330
1F
100
AcDbEntity
  8
1
  6
Continuous
 62
     3
100
AcDbLine
 10
101.162394293504
 20
657.984020456647
 30
0.0
 11
102.162394293504
 21
657.984020456647
 31
0.0
  0
LINE
  5
1B6
330
1F
100
AcDbEntity
  8
1
  6
Continuous
 62
     3
100
AcDbLine
 10
53.1623942935052
 20
609.984020456646
 30
0.0
 11
54.1623942935052
 21
609.984020456646
 31
0.0
  0
LINE
  5
1B7
330
1F
100
AcDbEntity
  8
1
  6
Continuous
 62
     3
100
AcDbLine
 10
53.1623942935052
 20
605.484020456646
 30
0.0
 11
54.1623942935052
 21
605.484020456646
 31
0.0
  0
LINE
  5
1B8
330
1F
100
AcDbEntity
  8
1
  6
Continuous
 62
     3
100
AcDbLine
 10
51.4123942935052
 20
608.234020456646
 30
0.0
 11
51.4123942935052
 21
607.234020456646
 31
0.0
  0
LINE
  5
1B9
330
1F
100
AcDbEntity
  8
1
  6
Continuous
 62
     3
100
AcDbLine
 10
55.9123942935052
 20
608.234020456646
 30
0.0
 11
55.9123942935052
 21
607.234020456646
 31
0.0
  0
LINE
  5
1BA
330
1F
100
AcDbEntity
  8
1
  6
Continuous
 62
     3
100
AcDbLine
 10
51.4123942935052
 20
608.234020456646
 30
0.0
 11
52.1623942935052
 21
608.234020456646
 31
0.0
  0
LINE
  5
1BB
330
1F
100
AcDbEntity
  8
1
  6
Continuous
 62
     3
100
AcDbLine
 10
55.1623942935052
 20
608.234020456646
 30
0.0
 11
55.9123942935052
 21
608.234020456646
 31
0.0
  0
LINE
  5
1BC
330
1F
100
AcDbEntity
  8
1
  6
Continuous
 62
     3
100
AcDbLine
 10
51.4123942935052
 20
607.234020456646
 30
0.0
 11
52.1623942935052
 21
607.234020456646
 31
0.0
  0
LINE
  5
1BD
330
1F
100
AcDbEntity
  8
1
  6
Continuous
 62
     3
100
AcDbLine
 10
55.1623942935052
 20
607.234020456646
 30
0.0
 11
55.9123942935052
 21
607.234020456646
 31
0.0
  0
LINE
  5
1BE
330
1F
100
AcDbEntity
  8
1
  6
Continuous
 62
     3
100
AcDbLine
 10
54.1623942935052
 20
609.984020456646
 30
0.0
 11
54.1623942935052
 21
609.234020456646
 31
0.0
  0
LINE
  5
1BF
330
1F
100
AcDbEntity
  8
1
  6
Continuous
 62
     3
100
AcDbLine
 10
54.1623942935052
 20
606.234020456646
 30
0.0
 11
54.1623942935052
 21
605.484020456646
 31
0.0
  0
LINE
  5
1C0
330
1F
100
AcDbEntity
  8
1
  6
Continuous
 62
     3
100
AcDbLine
 10
53.1623942935052
 20
609.984020456646
 30
0.0
 11
53.1623942935052
 21
609.234020456646
 31
0.0
  0
LINE
  5
1C1
330
1F
100
AcDbEntity
  8
1
  6
Continuous
 62
     3
100
AcDbLine
 10
53.1623942935052
 20
606.234020456646
 30
0.0
 11
53.1623942935052
 21
605.484020456646
 31
0.0
  0
LINE
  5
1C2
330
1F
100
AcDbEntity
  8
1
  6
Continuous
 62
     3
100
AcDbLine
 10
101.162394293506
 20
558.234020456647
 30
0.0
 11
101.162394293506
 21
557.484020456647
 31
0.0
  0
LINE
  5
1C3
330
1F
100
AcDbEntity
  8
1
  6
Continuous
 62
     3
100
AcDbLine
 10
101.162394293506
 20
561.984020456647
 30
0.0
 11
101.162394293506
 21
561.234020456647
 31
0.0
  0
LINE
  5
1C4
330
1F
100
AcDbEntity
  8
1
  6
Continuous
 62
     3
100
AcDbLine
 10
102.162394293506
 20
558.234020456647
 30
0.0
 11
102.162394293506
 21
557.484020456647
 31
0.0
  0
LINE
  5
1C5
330
1F
100
AcDbEntity
  8
1
  6
Continuous
 62
     3
100
AcDbLine
 10
102.162394293506
 20
561.984020456647
 30
0.0
 11
102.162394293506
 21
561.234020456647
 31
0.0
  0
LINE
  5
1C6
330
1F
100
AcDbEntity
  8
1
  6
Continuous
 62
     3
100
AcDbLine
 10
103.162394293506
 20
559.234020456647
 30
0.0
 11
103.912394293506
 21
559.234020456647
 31
0.0
  0
LINE
  5
1C7
330
1F
100
AcDbEntity
  8
1
  6
Continuous
 62
     3
100
AcDbLine
 10
99.4123942935062
 20
559.234020456647
 30
0.0
 11
100.162394293506
 21
559.234020456647
 31
0.0
  0
LINE
  5
1C8
330
1F
100
AcDbEntity
  8
1
  6
Continuous
 62
     3
100
AcDbLine
 10
103.162394293506
 20
560.234020456647
 30
0.0
 11
103.912394293506
 21
560.234020456647
 31
0.0
  0
LINE
  5
1C9
330
1F
100
AcDbEntity
  8
1
  6
Continuous
 62
     3
100
AcDbLine
 10
99.4123942935062
 20
560.234020456647
 30
0.0
 11
100.162394293506
 21
560.234020456647
 31
0.0
  0
LINE
  5
1CA
330
1F
100
AcDbEntity
  8
1
  6
Continuous
 62
     3
100
AcDbLine
 10
103.912394293506
 20
560.234020456647
 30
0.0
 11
103.912394293506
 21
559.234020456647
 31
0.0
  0
LINE
  5
1CB
330
1F
100
AcDbEntity
  8
1
  6
Continuous
 62
     3
100
AcDbLine
 10
99.4123942935062
 20
560.234020456647
 30
0.0
 11
99.4123942935062
 21
559.234020456647
 31
0.0
  0
LINE
  5
1CC
330
1F
100
AcDbEntity
  8
1
  6
Continuous
 62
     3
100
AcDbLine
 10
101.162394293506
 20
557.484020456647
 30
0.0
 11
102.162394293506
 21
557.484020456647
 31
0.0
  0
LINE
  5
1CD
330
1F
100
AcDbEntity
  8
1
  6
Continuous
 62
     3
100
AcDbLine
 10
101.162394293506
 20
561.984020456647
 30
0.0
 11
102.162394293506
 21
561.984020456647
 31
0.0
  0
LINE
  5
1CE
330
1F
100
AcDbEntity
  8
1
  6
Continuous
 62
     3
100
AcDbLine
 10
53.6623942935053
 20
446.893247826687
 30
0.0
 11
52.2623942935053
 21
452.118118957284
 31
0.0
  0
LINE
  5
1CF
330
1F
100
AcDbEntity
  8
1
  6
Continuous
 62
     3
100
AcDbLine
 10
53.6623942935053
 20
446.893247826687
 30
0.0
 11
55.0623942935053
 21
452.118118957284
 31
0.0
  0
LINE
  5
1D0
330
1F
100
AcDbEntity
  8
1
  6
Continuous
 62
     3
100
AcDbLine
 10
55.0623942935053
 20
457.593247826687
 30
0.0
 11
55.0623942935053
 21
452.118118957284
 31
0.0
  0
LINE
  5
1D1
330
1F
100
AcDbEntity
  8
1
  6
Continuous
 62
     3
100
AcDbLine
 10
52.2623942935053
 20
457.593247826687
 30
0.0
 11
52.2623942935053
 21
452.118118957284
 31
0.0
  0
LINE
  5
1D2
330
1F
100
AcDbEntity
  8
1
  6
Continuous
 62
     3
100
AcDbLine
 10
54.3299403097863
 20
447.452711823259
 30
0.0
 11
52.9150328428828
 21
447.750587079449
 31
0.0
  0
LINE
  5
1D3
330
1F
100
AcDbEntity
  8
1
  6
Continuous
 62
     3
100
AcDbLine
 10
54.7357662327643
 20
448.967274786843
 30
0.0
 11
52.4606841641403
 21
449.446239432869
 31
0.0
  0
LINE
  5
1D4
330
1F
100
AcDbEntity
  8
1
  6
Continuous
 62
     3
100
AcDbLine
 10
55.1415921557427
 20
450.481837750426
 30
0.0
 11
52.0063354853978
 21
451.141891786289
 31
0.0
  0
LINE
  5
1D5
330
1F
100
AcDbEntity
  8
1
  6
Continuous
 62
     3
100
AcDbLine
 10
55.5623942935053
 20
451.993247826687
 30
0.0
 11
51.7623942935053
 21
452.793247826687
 31
0.0
  0
LINE
  5
1D6
330
1F
100
AcDbEntity
  8
1
  6
Continuous
 62
     3
100
AcDbLine
 10
55.5623942935053
 20
453.593247826687
 30
0.0
 11
51.7623942935053
 21
454.393247826687
 31
0.0
  0
LINE
  5
1D7
330
1F
100
AcDbEntity
  8
1
  6
Continuous
 62
     3
100
AcDbLine
 10
55.5623942935053
 20
455.193247826687
 30
0.0
 11
51.7623942935053
 21
455.993247826687
 31
0.0
  0
LINE
  5
1D8
330
1F
100
AcDbEntity
  8
1
  6
Continuous
 62
     3
100
AcDbLine
 10
55.5623942935053
 20
456.793247826687
 30
0.0
 11
51.7623942935053
 21
457.593247826687
 31
0.0
  0
LINE
  5
1D9
330
1F
100
AcDbEntity
  8
1
  6
Continuous
 62
     3
100
AcDbLine
 10
55.5623942935053
 20
457.593247826687
 30
0.0
 11
51.7623942935053
 21
457.593247826687
 31
0.0
  0
LINE
  5
1DA
330
1F
100
AcDbEntity
  8
1
  6
Continuous
 62
     3
100
AcDbLine
 10
55.5623942935053
 20
459.893247826687
 30
0.0
 11
55.5623942935053
 21
457.593247826687
 31
0.0
  0
LINE
  5
1DB
330
1F
100
AcDbEntity
  8
1
  6
Continuous
 62
     3
100
AcDbLine
 10
51.7623942935053
 20
459.893247826687
 30
0.0
 11
51.7623942935053
 21
457.593247826687
 31
0.0
  0
LINE
  5
1DC
330
1F
100
AcDbEntity
  8
1
  6
Continuous
 62
     3
100
AcDbLine
 10
104.212394293505
 20
302.693247826688
 30
0.0
 11
103.162394293505
 21
302.693247826688
 31
0.0
  0
LINE
  5
1DD
330
1F
100
AcDbEntity
  8
1
  6
Continuous
 62
     3
100
AcDbLine
 10
104.212394293505
 20
301.693247826688
 30
0.0
 11
103.162394293505
 21
301.693247826688
 31
0.0
  0
LINE
  5
1DE
330
1F
100
AcDbEntity
  8
1
  6
Continuous
 62
     3
100
AcDbLine
 10
102.162394293505
 20
300.693247826688
 30
0.0
 11
102.162394293505
 21
299.643247826688
 31
0.0
  0
LINE
  5
1DF
330
1F
100
AcDbEntity
  8
1
  6
Continuous
 62
     3
100
AcDbLine
 10
102.162394293505
 20
304.743247826687
 30
0.0
 11
102.162394293505
 21
303.693247826688
 31
0.0
  0
LINE
  5
1E0
330
1F
100
AcDbEntity
  8
1
  6
Continuous
 62
     3
100
AcDbLine
 10
102.162394293505
 20
304.743247826687
 30
0.0
 11
101.162394293505
 21
304.743247826687
 31
0.0
  0
LINE
  5
1E1
330
1F
100
AcDbEntity
  8
1
  6
Continuous
 62
     3
100
AcDbLine
 10
102.162394293505
 20
299.643247826688
 30
0.0
 11
101.162394293505
 21
299.643247826688
 31
0.0
  0
LINE
  5
1E2
330
1F
100
AcDbEntity
  8
1
  6
Continuous
 62
     3
100
AcDbLine
 10
104.212394293505
 20
302.693247826688
 30
0.0
 11
104.212394293505
 21
301.693247826688
 31
0.0
  0
LINE
  5
1E3
330
1F
100
AcDbEntity
  8
11
  6
Continuous
 62
     3
100
AcDbLine
 10
111.162394293505
 20
297.193247826688
 30
0.0
 11
97.1623942935053
 21
297.193247826688
 31
0.0
  0
LINE
  5
1E4
330
1F
100
AcDbEntity
  8
11
  6
Continuous
 62
     3
100
AcDbLine
 10
106.662394293505
 20
323.193247826688
 30
0.0
 11
106.662394293505
 21
313.693247826688
 31
0.0
  0
LINE
  5
1E5
330
1F
100
AcDbEntity
  8
11
  6
Continuous
 62
     3
100
AcDbLine
 10
96.6623942935053
 20
323.193247826688
 30
0.0
 11
96.6623942935053
 21
313.693247826688
 31
0.0
  0
LINE
  5
1E6
330
1F
100
AcDbEntity
  8
11
  6
Continuous
 62
     3
100
AcDbLine
 10
111.662394293505
 20
323.193247826688
 30
0.0
 11
106.662394293505
 21
323.193247826688
 31
0.0
  0
LINE
  5
1E7
330
1F
100
AcDbEntity
  8
11
  6
Continuous
 62
     3
100
AcDbLine
 10
96.6623942935053
 20
323.193247826688
 30
0.0
 11
91.6623942935053
 21
323.193247826688
 31
0.0
  0
LINE
  5
1E8
330
1F
100
AcDbEntity
  8
11
  6
Continuous
 62
     3
100
AcDbLine
 10
110.440115149368
 20
319.193247826688
 30
0.0
 11
110.440115149368
 21
314.963048438019
 31
0.0
  0
LINE
  5
1E9
330
1F
100
AcDbEntity
  8
11
  6
Continuous
 62
     3
100
AcDbLine
 10
111.662394293505
 20
323.193247826688
 30
0.0
 11
110.440115149368
 21
319.193247826688
 31
0.0
  0
LINE
  5
1EA
330
1F
100
AcDbEntity
  8
11
  6
Continuous
 62
     3
100
AcDbLine
 10
92.8846734376423
 20
319.193247826688
 30
0.0
 11
92.8846734376423
 21
314.963048438019
 31
0.0
  0
LINE
  5
1EB
330
1F
100
AcDbEntity
  8
11
  6
Continuous
 62
     3
100
AcDbLine
 10
91.6623942935053
 20
323.193247826688
 30
0.0
 11
92.8846734376423
 21
319.193247826688
 31
0.0
  0
LINE
  5
1EC
330
1F
100
AcDbEntity
  8
11
  6
Continuous
 62
     3
100
AcDbLine
 10
111.662394293505
 20
323.193247826688
 30
0.0
 11
111.662394293505
 21
307.693247826688
 31
0.0
  0
LINE
  5
1ED
330
1F
100
AcDbEntity
  8
11
  6
Continuous
 62
     3
100
AcDbLine
 10
91.6623942935053
 20
323.193247826688
 30
0.0
 11
91.6623942935053
 21
307.693247826688
 31
0.0
  0
LINE
  5
1EE
330
1F
100
AcDbEntity
  8
11
  6
Continuous
 62
     3
100
AcDbLine
 10
111.662394293505
 20
297.693247826688
 30
0.0
 11
111.162394293505
 21
297.193247826688
 31
0.0
  0
LINE
  5
1EF
330
1F
100
AcDbEntity
  8
11
  6
Continuous
 62
     3
100
AcDbLine
 10
92.1623942935053
 20
297.193247826688
 30
0.0
 11
91.6623942935053
 21
297.693247826688
 31
0.0
  0
LINE
  5
1F0
330
1F
100
AcDbEntity
  8
11
  6
Continuous
 62
     3
100
AcDbLine
 10
91.6623942935053
 20
307.693247826688
 30
0.0
 11
91.6623942935053
 21
297.693247826688
 31
0.0
  0
LINE
  5
1F1
330
1F
100
AcDbEntity
  8
11
  6
Continuous
 62
     3
100
AcDbLine
 10
111.662394293505
 20
307.693247826688
 30
0.0
 11
111.662394293505
 21
297.693247826688
 31
0.0
  0
LINE
  5
1F2
330
1F
100
AcDbEntity
  8
11
  6
Continuous
 62
     3
100
AcDbLine
 10
97.1623942935053
 20
297.193247826688
 30
0.0
 11
92.1623942935053
 21
297.193247826688
 31
0.0
  0
LINE
  5
1F3
330
1F
100
AcDbEntity
  8
1
  6
Continuous
 62
     3
100
AcDbLine
 10
99.1123942935053
 20
301.693247826688
 30
0.0
 11
99.1123942935053
 21
302.693247826688
 31
0.0
  0
LINE
  5
1F4
330
1F
100
AcDbEntity
  8
1
  6
Continuous
 62
     3
100
AcDbLine
 10
101.162394293505
 20
303.693247826688
 30
0.0
 11
101.162394293505
 21
304.743247826687
 31
0.0
  0
LINE
  5
1F5
330
1F
100
AcDbEntity
  8
1
  6
Continuous
 62
     3
100
AcDbLine
 10
101.162394293505
 20
299.643247826688
 30
0.0
 11
101.162394293505
 21
300.693247826688
 31
0.0
  0
LINE
  5
1F6
330
1F
100
AcDbEntity
  8
1
  6
Continuous
 62
     3
100
AcDbLine
 10
100.162394293505
 20
301.693247826688
 30
0.0
 11
99.1123942935053
 21
301.693247826688
 31
0.0
  0
LINE
  5
1F7
330
1F
100
AcDbEntity
  8
1
  6
Continuous
 62
     3
100
AcDbLine
 10
100.162394293505
 20
302.693247826688
 30
0.0
 11
99.1123942935053
 21
302.693247826688
 31
0.0
  0
LINE
  5
1F8
330
1F
100
AcDbEntity
  8
11
  6
Continuous
 62
     3
100
AcDbLine
 10
105.912394293505
 20
324.852018643928
 30
0.0
 11
105.912394293505
 21
319.443247826688
 31
0.0
  0
LINE
  5
1F9
330
1F
100
AcDbEntity
  8
11
  6
Continuous
 62
     3
100
AcDbLine
 10
97.4123942935053
 20
324.852018643928
 30
0.0
 11
97.4123942935053
 21
319.443247826688
 31
0.0
  0
LINE
  5
1FA
330
1F
100
AcDbEntity
  8
1
  6
Continuous
 62
     3
100
AcDbLine
 10
91.6623942935053
 20
340.693247826688
 30
0.0
 11
91.6623942935053
 21
329.852018643928
 31
0.0
  0
LINE
  5
1FB
330
1F
100
AcDbEntity
  8
1
  6
Continuous
 62
     3
100
AcDbLine
 10
92.1623942935053
 20
341.193247826688
 30
0.0
 11
91.6623942935053
 21
340.693247826688
 31
0.0
  0
LINE
  5
1FC
330
1F
100
AcDbEntity
  8
1
  6
Continuous
 62
     3
100
AcDbLine
 10
92.4123942935053
 20
329.852018643928
 30
0.0
 11
91.6623942935053
 21
329.852018643928
 31
0.0
  0
LINE
  5
1FD
330
1F
100
AcDbEntity
  8
1
  6
Continuous
 62
     3
100
AcDbLine
 10
111.662394293505
 20
329.852018643928
 30
0.0
 11
110.912394293505
 21
329.852018643928
 31
0.0
  0
LINE
  5
1FE
330
1F
100
AcDbEntity
  8
1
  6
Continuous
 62
     3
100
AcDbLine
 10
111.662394293505
 20
340.693247826688
 30
0.0
 11
111.662394293505
 21
329.852018643928
 31
0.0
  0
LINE
  5
1FF
330
1F
100
AcDbEntity
  8
1
  6
Continuous
 62
     3
100
AcDbLine
 10
111.162394293505
 20
341.193247826688
 30
0.0
 11
111.662394293505
 21
340.693247826688
 31
0.0
  0
LINE
  5
200
330
1F
100
AcDbEntity
  8
1
  6
Continuous
 62
     3
100
AcDbLine
 10
92.1623942935053
 20
341.193247826688
 30
0.0
 11
111.162394293505
 21
341.193247826688
 31
0.0
  0
LINE
  5
201
330
1F
100
AcDbEntity
  8
1
  6
DOT_CENTER
 62
     1
100
AcDbLine
 10
101.66239429351
 20
329.843161625224
 30
0.0
 11
101.66239429351
 21
334.093161625224
 31
0.0
  0
LINE
  5
202
330
1F
100
AcDbEntity
  8
1
  6
Continuous
 62
     3
100
AcDbLine
 10
112.912394213605
 20
-890.306757665544
 30
0.0
 11
90.4123946742052
 21
-890.306757665544
 31
0.0
  0
LINE
  5
203
330
1F
100
AcDbEntity
  8
1
  6
Continuous
 62
     3
100
AcDbLine
 10
117.846753920241
 20
-901.306742538355
 30
0.0
 11
117.445104806047
 21
-901.306742538355
 31
0.0
  0
LINE
  5
204
330
1F
100
AcDbEntity
  8
1
  6
Continuous
 62
     3
100
AcDbLine
 10
117.846753920241
 20
-902.306742538355
 30
0.0
 11
117.445104806047
 21
-902.306742538355
 31
0.0
  0
LINE
  5
205
330
1F
100
AcDbEntity
  8
1
  6
Continuous
 62
     3
100
AcDbLine
 10
117.445104806047
 20
-901.306742538355
 30
0.0
 11
117.445104806047
 21
-902.306742538355
 31
0.0
  0
LINE
  5
206
330
1F
100
AcDbEntity
  8
1
  6
Continuous
 62
     3
100
AcDbLine
 10
115.433525153337
 20
-906.556742538355
 30
0.0
 11
114.162394208905
 21
-906.556742538355
 31
0.0
  0
LINE
  5
207
330
1F
100
AcDbEntity
  8
1
  6
Continuous
 62
     3
100
AcDbLine
 10
115.433525153337
 20
-897.056742538355
 30
0.0
 11
114.162394208905
 21
-897.056742538355
 31
0.0
  0
LINE
  5
208
330
1F
100
AcDbEntity
  8
4
  6
Continuous
 62
     3
100
AcDbLine
 10
111.662394255905
 20
-877.306757909944
 30
0.0
 11
91.6623946319053
 21
-877.306757909944
 31
0.0
  0
LINE
  5
209
330
1F
100
AcDbEntity
  8
4
  6
Continuous
 62
     3
100
AcDbLine
 10
113.662394218305
 20
-889.645319850213
 30
0.0
 11
113.662394218305
 21
-879.306757872344
 31
0.0
  0
LINE
  5
20A
330
1F
100
AcDbEntity
  8
4
  6
Continuous
 62
     3
100
AcDbLine
 10
114.162394208905
 20
-906.306757364744
 30
0.0
 11
114.162394208905
 21
-904.090257406414
 31
0.0
  0
LINE
  5
20B
330
1F
100
AcDbEntity
  8
4
  6
Continuous
 62
     3
100
AcDbLine
 10
114.162394208905
 20
-899.523257492274
 30
0.0
 11
114.162394208905
 21
-890.968195480875
 31
0.0
  0
LINE
  5
20C
330
1F
100
AcDbEntity
  8
4
  6
Continuous
 62
     3
100
AcDbLine
 10
89.6623946695051
 20
-889.645319850213
 30
0.0
 11
89.6623946695051
 21
-879.306757872344
 31
0.0
  0
LINE
  5
20D
330
1F
100
AcDbEntity
  8
4
  6
Continuous
 62
     3
100
AcDbLine
 10
89.1623946789055
 20
-906.306757364744
 30
0.0
 11
89.1623946789055
 21
-890.968195480875
 31
0.0
  0
LINE
  5
20E
330
1F
100
AcDbEntity
  8
4
  6
Continuous
 62
     3
100
AcDbLine
 10
114.162394208905
 20
-897.056757538644
 30
0.0
 11
114.162394208905
 21
-906.556757360044
 31
0.0
  0
LINE
  5
20F
330
1F
100
AcDbEntity
  8
1
  6
Continuous
 62
     3
100
AcDbLine
 10
91.6623942935053
 20
340.693247826688
 30
0.0
 11
111.662394293505
 21
340.693247826688
 31
0.0
  0
LINE
  5
210
330
1F
100
AcDbEntity
  8
1
  6
Continuous
 62
     3
100
AcDbLine
 10
111.662394293505
 20
297.693247826688
 30
0.0
 11
103.18308492608
 21
297.693247826688
 31
0.0
  0
LINE
  5
211
330
1F
100
AcDbEntity
  8
1
  6
Continuous
 62
     3
100
AcDbLine
 10
91.6623942935053
 20
297.693247826688
 30
0.0
 11
100.141703660931
 21
297.693247826688
 31
0.0
  0
LINE
  5
212
330
1F
100
AcDbEntity
  8
1
  6
Continuous
 62
     3
100
AcDbLine
 10
300.367541559976
 20
341.193247826688
 30
0.0
 11
319.367541559976
 21
341.193247826688
 31
0.0
  0
LINE
  5
213
330
1F
100
AcDbEntity
  8
3
  6
Continuous
 62
     3
100
AcDbLine
 10
305.867541559981
 20
341.893247826688
 30
0.0
 11
305.867541559981
 21
341.193247826688
 31
0.0
  0
LINE
  5
214
330
1F
100
AcDbEntity
  8
3
  6
Continuous
 62
     3
100
AcDbLine
 10
313.867541559981
 20
341.893247826688
 30
0.0
 11
313.867541559981
 21
341.193247826688
 31
0.0
  0
LINE
  5
215
330
1F
100
AcDbEntity
  8
3
  6
Continuous
 62
     3
100
AcDbLine
 10
301.867541559981
 20
341.893247826688
 30
0.0
 11
317.867541559981
 21
341.893247826688
 31
0.0
  0
LINE
  5
216
330
1F
100
AcDbEntity
  8
3
  6
Continuous
 62
     3
100
AcDbLine
 10
292.367541559981
 20
348.893247826687
 30
0.0
 11
327.367541559981
 21
348.893247826687
 31
0.0
  0
LINE
  5
217
330
1F
100
AcDbEntity
  8
3
  6
Continuous
 62
     3
100
AcDbLine
 10
292.367541559981
 20
346.893247826688
 30
0.0
 11
327.367541559981
 21
346.893247826688
 31
0.0
  0
LINE
  5
218
330
1F
100
AcDbEntity
  8
3
  6
Continuous
 62
     3
100
AcDbLine
 10
301.867541559981
 20
346.893247826688
 30
0.0
 11
301.867541559981
 21
341.893247826688
 31
0.0
  0
LINE
  5
219
330
1F
100
AcDbEntity
  8
3
  6
Continuous
 62
     3
100
AcDbLine
 10
317.867541559981
 20
346.893247826688
 30
0.0
 11
317.867541559981
 21
341.893247826688
 31
0.0
  0
LINE
  5
21A
330
1F
100
AcDbEntity
  8
3
  6
Continuous
 62
     3
100
AcDbLine
 10
327.367541559981
 20
348.893247826687
 30
0.0
 11
327.367541559981
 21
346.893247826688
 31
0.0
  0
LINE
  5
21B
330
1F
100
AcDbEntity
  8
3
  6
Continuous
 62
     3
100
AcDbLine
 10
292.367541559981
 20
348.893247826687
 30
0.0
 11
292.367541559981
 21
346.893247826688
 31
0.0
  0
LINE
  5
21C
330
1F
100
AcDbEntity
  8
3
  6
Continuous
 62
     3
100
AcDbLine
 10
327.367541559981
 20
437.893247826687
 30
0.0
 11
327.367541559981
 21
348.893247826687
 31
0.0
  0
LINE
  5
21D
330
1F
100
AcDbEntity
  8
3
  6
Continuous
 62
     3
100
AcDbLine
 10
292.367541559981
 20
437.893247826687
 30
0.0
 11
292.367541559981
 21
348.893247826687
 31
0.0
  0
LINE
  5
21E
330
1F
100
AcDbEntity
  8
1
  6
Continuous
 62
     3
100
AcDbLine
 10
311.76754155998
 20
457.593247826687
 30
0.0
 11
311.76754155998
 21
459.893247826687
 31
0.0
  0
LINE
  5
21F
330
1F
100
AcDbEntity
  8
1
  6
Continuous
 62
     3
100
AcDbLine
 10
307.967541559981
 20
457.593247826687
 30
0.0
 11
307.967541559981
 21
459.893247826687
 31
0.0
  0
LINE
  5
220
330
1F
100
AcDbEntity
  8
1
  6
Continuous
 62
     3
100
AcDbLine
 10
311.76754155998
 20
457.593247826687
 30
0.0
 11
307.967541559981
 21
457.593247826687
 31
0.0
  0
LINE
  5
221
330
1F
100
AcDbEntity
  8
1
  6
Continuous
 62
     3
100
AcDbLine
 10
311.76754155998
 20
457.593247826687
 30
0.0
 11
307.967541559981
 21
456.793247826687
 31
0.0
  0
LINE
  5
222
330
1F
100
AcDbEntity
  8
1
  6
Continuous
 62
     3
100
AcDbLine
 10
311.76754155998
 20
455.993247826687
 30
0.0
 11
307.967541559981
 21
455.193247826687
 31
0.0
  0
LINE
  5
223
330
1F
100
AcDbEntity
  8
1
  6
Continuous
 62
     3
100
AcDbLine
 10
311.76754155998
 20
454.393247826687
 30
0.0
 11
307.967541559981
 21
453.593247826687
 31
0.0
  0
LINE
  5
224
330
1F
100
AcDbEntity
  8
1
  6
Continuous
 62
     3
100
AcDbLine
 10
311.76754155998
 20
452.793247826687
 30
0.0
 11
307.967541559981
 21
451.993247826687
 31
0.0
  0
LINE
  5
225
330
1F
100
AcDbEntity
  8
1
  6
Continuous
 62
     3
100
AcDbLine
 10
311.523600368088
 20
451.141891786289
 30
0.0
 11
308.388343697743
 21
450.481837750427
 31
0.0
  0
LINE
  5
226
330
1F
100
AcDbEntity
  8
1
  6
Continuous
 62
     3
100
AcDbLine
 10
311.069251689346
 20
449.446239432869
 30
0.0
 11
308.794169620722
 21
448.967274786843
 31
0.0
  0
LINE
  5
227
330
1F
100
AcDbEntity
  8
1
  6
Continuous
 62
     3
100
AcDbLine
 10
310.614903010603
 20
447.750587079449
 30
0.0
 11
309.1999955437
 21
447.452711823259
 31
0.0
  0
LINE
  5
228
330
1F
100
AcDbEntity
  8
1
  6
Continuous
 62
     3
100
AcDbLine
 10
311.26754155998
 20
452.118118957284
 30
0.0
 11
311.26754155998
 21
457.593247826687
 31
0.0
  0
LINE
  5
229
330
1F
100
AcDbEntity
  8
1
  6
Continuous
 62
     3
100
AcDbLine
 10
308.467541559981
 20
452.118118957284
 30
0.0
 11
308.467541559981
 21
457.593247826687
 31
0.0
  0
LINE
  5
22A
330
1F
100
AcDbEntity
  8
1
  6
Continuous
 62
     3
100
AcDbLine
 10
308.467541559981
 20
452.118118957284
 30
0.0
 11
309.867541559981
 21
446.893247826687
 31
0.0
  0
LINE
  5
22B
330
1F
100
AcDbEntity
  8
1
  6
Continuous
 62
     3
100
AcDbLine
 10
311.26754155998
 20
452.118118957284
 30
0.0
 11
309.867541559981
 21
446.893247826687
 31
0.0
  0
LINE
  5
22C
330
1F
100
AcDbEntity
  8
1
  6
Continuous
 62
     3
100
AcDbLine
 10
259.967541559981
 20
459.893247826687
 30
0.0
 11
259.967541559981
 21
457.593247826687
 31
0.0
  0
LINE
  5
22D
330
1F
100
AcDbEntity
  8
1
  6
Continuous
 62
     3
100
AcDbLine
 10
263.767541559981
 20
459.893247826687
 30
0.0
 11
263.767541559981
 21
457.593247826687
 31
0.0
  0
LINE
  5
22E
330
1F
100
AcDbEntity
  8
1
  6
Continuous
 62
     3
100
AcDbLine
 10
263.767541559981
 20
457.593247826687
 30
0.0
 11
259.967541559981
 21
457.593247826687
 31
0.0
  0
LINE
  5
22F
330
1F
100
AcDbEntity
  8
1
  6
Continuous
 62
     3
100
AcDbLine
 10
263.767541559981
 20
456.793247826687
 30
0.0
 11
259.967541559981
 21
457.593247826687
 31
0.0
  0
LINE
  5
230
330
1F
100
AcDbEntity
  8
1
  6
Continuous
 62
     3
100
AcDbLine
 10
263.767541559981
 20
455.193247826687
 30
0.0
 11
259.967541559981
 21
455.993247826687
 31
0.0
  0
LINE
  5
231
330
1F
100
AcDbEntity
  8
1
  6
Continuous
 62
     3
100
AcDbLine
 10
263.767541559981
 20
453.593247826687
 30
0.0
 11
259.967541559981
 21
454.393247826687
 31
0.0
  0
LINE
  5
232
330
1F
100
AcDbEntity
  8
1
  6
Continuous
 62
     3
100
AcDbLine
 10
263.767541559981
 20
451.993247826687
 30
0.0
 11
259.967541559981
 21
452.793247826687
 31
0.0
  0
LINE
  5
233
330
1F
100
AcDbEntity
  8
1
  6
Continuous
 62
     3
100
AcDbLine
 10
263.346739422218
 20
450.481837750427
 30
0.0
 11
260.211482751873
 21
451.141891786289
 31
0.0
  0
LINE
  5
234
330
1F
100
AcDbEntity
  8
1
  6
Continuous
 62
     3
100
AcDbLine
 10
262.94091349924
 20
448.967274786843
 30
0.0
 11
260.665831430616
 21
449.446239432869
 31
0.0
  0
LINE
  5
235
330
1F
100
AcDbEntity
  8
1
  6
Continuous
 62
     3
100
AcDbLine
 10
262.535087576262
 20
447.452711823259
 30
0.0
 11
261.120180109358
 21
447.750587079449
 31
0.0
  0
LINE
  5
236
330
1F
100
AcDbEntity
  8
1
  6
Continuous
 62
     3
100
AcDbLine
 10
260.467541559981
 20
457.593247826687
 30
0.0
 11
260.467541559981
 21
452.118118957284
 31
0.0
  0
LINE
  5
237
330
1F
100
AcDbEntity
  8
1
  6
Continuous
 62
     3
100
AcDbLine
 10
263.267541559981
 20
457.593247826687
 30
0.0
 11
263.267541559981
 21
452.118118957284
 31
0.0
  0
LINE
  5
238
330
1F
100
AcDbEntity
  8
1
  6
Continuous
 62
     3
100
AcDbLine
 10
261.867541559981
 20
446.893247826687
 30
0.0
 11
263.267541559981
 21
452.118118957284
 31
0.0
  0
LINE
  5
239
330
1F
100
AcDbEntity
  8
1
  6
Continuous
 62
     3
100
AcDbLine
 10
261.867541559981
 20
446.893247826687
 30
0.0
 11
260.467541559981
 21
452.118118957284
 31
0.0
  0
LINE
  5
23A
330
1F
100
AcDbEntity
  8
1
  6
Continuous
 62
     3
100
AcDbLine
 10
359.26754155998
 20
452.118118957284
 30
0.0
 11
357.867541559981
 21
446.893247826687
 31
0.0
  0
LINE
  5
23B
330
1F
100
AcDbEntity
  8
1
  6
Continuous
 62
     3
100
AcDbLine
 10
356.467541559981
 20
452.118118957284
 30
0.0
 11
357.867541559981
 21
446.893247826687
 31
0.0
  0
LINE
  5
23C
330
1F
100
AcDbEntity
  8
1
  6
Continuous
 62
     3
100
AcDbLine
 10
356.467541559981
 20
452.118118957284
 30
0.0
 11
356.467541559981
 21
457.593247826687
 31
0.0
  0
LINE
  5
23D
330
1F
100
AcDbEntity
  8
1
  6
Continuous
 62
     3
100
AcDbLine
 10
359.26754155998
 20
452.118118957284
 30
0.0
 11
359.26754155998
 21
457.593247826687
 31
0.0
  0
LINE
  5
23E
330
1F
100
AcDbEntity
  8
1
  6
Continuous
 62
     3
100
AcDbLine
 10
358.614903010603
 20
447.750587079449
 30
0.0
 11
357.1999955437
 21
447.452711823259
 31
0.0
  0
LINE
  5
23F
330
1F
100
AcDbEntity
  8
1
  6
Continuous
 62
     3
100
AcDbLine
 10
359.069251689346
 20
449.446239432869
 30
0.0
 11
356.794169620722
 21
448.967274786843
 31
0.0
  0
LINE
  5
240
330
1F
100
AcDbEntity
  8
1
  6
Continuous
 62
     3
100
AcDbLine
 10
359.523600368088
 20
451.141891786289
 30
0.0
 11
356.388343697743
 21
450.481837750427
 31
0.0
  0
LINE
  5
241
330
1F
100
AcDbEntity
  8
1
  6
Continuous
 62
     3
100
AcDbLine
 10
359.76754155998
 20
452.793247826687
 30
0.0
 11
355.967541559981
 21
451.993247826687
 31
0.0
  0
LINE
  5
242
330
1F
100
AcDbEntity
  8
1
  6
Continuous
 62
     3
100
AcDbLine
 10
359.76754155998
 20
454.393247826687
 30
0.0
 11
355.967541559981
 21
453.593247826687
 31
0.0
  0
LINE
  5
243
330
1F
100
AcDbEntity
  8
1
  6
Continuous
 62
     3
100
AcDbLine
 10
359.76754155998
 20
455.993247826687
 30
0.0
 11
355.967541559981
 21
455.193247826687
 31
0.0
  0
LINE
  5
244
330
1F
100
AcDbEntity
  8
1
  6
Continuous
 62
     3
100
AcDbLine
 10
359.76754155998
 20
457.593247826687
 30
0.0
 11
355.967541559981
 21
456.793247826687
 31
0.0
  0
LINE
  5
245
330
1F
100
AcDbEntity
  8
1
  6
Continuous
 62
     3
100
AcDbLine
 10
359.76754155998
 20
457.593247826687
 30
0.0
 11
355.967541559981
 21
457.593247826687
 31
0.0
  0
LINE
  5
246
330
1F
100
AcDbEntity
  8
1
  6
Continuous
 62
     3
100
AcDbLine
 10
355.967541559981
 20
457.593247826687
 30
0.0
 11
355.967541559981
 21
459.893247826687
 31
0.0
  0
LINE
  5
247
330
1F
100
AcDbEntity
  8
1
  6
Continuous
 62
     3
100
AcDbLine
 10
359.76754155998
 20
457.593247826687
 30
0.0
 11
359.76754155998
 21
459.893247826687
 31
0.0
  0
LINE
  5
248
330
1F
100
AcDbEntity
  8
3
  6
Continuous
 62
     3
100
AcDbLine
 10
252.367541559981
 20
460.393247826687
 30
0.0
 11
367.367541559981
 21
460.393247826687
 31
0.0
  0
LINE
  5
249
330
1F
100
AcDbEntity
  8
3
  6
Continuous
 62
     3
100
AcDbLine
 10
252.367541559981
 20
459.893247826687
 30
0.0
 11
367.367541559981
 21
459.893247826687
 31
0.0
  0
LINE
  5
24A
330
1F
100
AcDbEntity
  8
3
  6
Continuous
 62
     3
100
AcDbLine
 10
278.767011611619
 20
437.893247826687
 30
0.0
 11
340.968071508342
 21
437.893247826687
 31
0.0
  0
LINE
  5
24B
330
1F
100
AcDbEntity
  8
3
  6
PHANTOM
 62
     6
100
AcDbLine
 10
297.167541559981
 20
482.893247826687
 30
0.0
 11
297.167541559981
 21
462.893247826687
 31
0.0
  0
LINE
  5
24C
330
1F
100
AcDbEntity
  8
3
  6
PHANTOM
 62
     6
100
AcDbLine
 10
322.567541559981
 20
482.893247826687
 30
0.0
 11
322.567541559981
 21
462.893247826687
 31
0.0
  0
LINE
  5
24D
330
1F
100
AcDbEntity
  8
3
  6
PHANTOM
 62
     6
100
AcDbLine
 10
330.543751090855
 20
499.893247826687
 30
0.0
 11
335.246511827474
 21
499.893247826687
 31
0.0
  0
LINE
  5
24E
330
1F
100
AcDbEntity
  8
3
  6
PHANTOM
 62
     6
100
AcDbLine
 10
309.86920446896
 20
499.893247826687
 30
0.0
 11
320.497297367871
 21
499.893247826687
 31
0.0
  0
LINE
  5
24F
330
1F
100
AcDbEntity
  8
3
  6
PHANTOM
 62
     6
100
AcDbLine
 10
290.129701980996
 20
499.893247826687
 30
0.0
 11
298.99343098864
 21
499.893247826687
 31
0.0
  0
LINE
  5
250
330
1F
100
AcDbEntity
  8
3
  6
PHANTOM
 62
     6
100
AcDbLine
 10
278.480041559981
 20
499.893247826687
 30
0.0
 11
281.641859570493
 21
499.893247826687
 31
0.0
  0
LINE
  5
251
330
1F
100
AcDbEntity
  8
3
  6
PHANTOM
 62
     6
100
AcDbLine
 10
330.543751090855
 20
483.855774166098
 30
0.0
 11
335.246511827474
 21
483.855774166098
 31
0.0
  0
LINE
  5
252
330
1F
100
AcDbEntity
  8
3
  6
PHANTOM
 62
     6
100
AcDbLine
 10
309.86920446896
 20
483.855774166098
 30
0.0
 11
320.497297367871
 21
483.855774166098
 31
0.0
  0
LINE
  5
253
330
1F
100
AcDbEntity
  8
3
  6
PHANTOM
 62
     6
100
AcDbLine
 10
290.129701980996
 20
483.855774166098
 30
0.0
 11
298.99343098864
 21
483.855774166098
 31
0.0
  0
LINE
  5
254
330
1F
100
AcDbEntity
  8
3
  6
PHANTOM
 62
     6
100
AcDbLine
 10
279.081446822253
 20
483.855774166098
 30
0.0
 11
281.641859570493
 21
483.855774166098
 31
0.0
  0
LINE
  5
255
330
1F
100
AcDbEntity
  8
3
  6
PHANTOM
 62
     6
100
AcDbLine
 10
283.641859570493
 20
497.893247826687
 30
0.0
 11
283.641859570493
 21
485.855774166098
 31
0.0
  0
LINE
  5
256
330
1F
100
AcDbEntity
  8
3
  6
PHANTOM
 62
     6
100
AcDbLine
 10
288.129701980996
 20
497.893247826687
 30
0.0
 11
288.129701980996
 21
485.855774166098
 31
0.0
  0
LINE
  5
257
330
1F
100
AcDbEntity
  8
3
  6
PHANTOM
 62
     6
100
AcDbLine
 10
300.99343098864
 20
497.893247826687
 30
0.0
 11
300.99343098864
 21
485.855774166098
 31
0.0
  0
LINE
  5
258
330
1F
100
AcDbEntity
  8
3
  6
PHANTOM
 62
     6
100
AcDbLine
 10
307.86920446896
 20
497.893247826687
 30
0.0
 11
307.86920446896
 21
485.855774166098
 31
0.0
  0
LINE
  5
259
330
1F
100
AcDbEntity
  8
3
  6
PHANTOM
 62
     6
100
AcDbLine
 10
322.497297367871
 20
497.893247826687
 30
0.0
 11
322.497297367871
 21
485.855774166098
 31
0.0
  0
LINE
  5
25A
330
1F
100
AcDbEntity
  8
3
  6
PHANTOM
 62
     6
100
AcDbLine
 10
328.543751090855
 20
497.893247826687
 30
0.0
 11
328.543751090855
 21
485.855774166098
 31
0.0
  0
LINE
  5
25B
330
1F
100
AcDbEntity
  8
3
  6
PHANTOM
 62
     6
100
AcDbLine
 10
337.246511827474
 20
497.893247826687
 30
0.0
 11
337.246511827474
 21
485.855774166098
 31
0.0
  0
LINE
  5
25C
330
1F
100
AcDbEntity
  8
3
  6
PHANTOM
 62
     6
100
AcDbLine
 10
278.40501522057
 20
501.893950210978
 30
0.0
 11
341.330067899392
 21
501.893950210978
 31
0.0
  0
LINE
  5
25D
330
1F
100
AcDbEntity
  8
3
  6
PHANTOM
 62
     6
100
AcDbLine
 10
339.659714731668
 20
483.849173051616
 30
0.0
 11
340.33719620169
 21
499.20541970543
 31
0.0
  0
LINE
  5
25E
330
1F
100
AcDbEntity
  8
3
  6
PHANTOM
 62
     6
100
AcDbLine
 10
279.367541559981
 20
502.893247826687
 30
0.0
 11
278.40501522057
 21
501.893950210978
 31
0.0
  0
LINE
  5
25F
330
1F
100
AcDbEntity
  8
3
  6
PHANTOM
 62
     6
100
AcDbLine
 10
340.367541559981
 20
502.893247826687
 30
0.0
 11
341.330067899392
 21
501.893950210978
 31
0.0
  0
LINE
  5
260
330
1F
100
AcDbEntity
  8
3
  6
PHANTOM
 62
     6
100
AcDbLine
 10
278.40501522057
 20
501.893950210978
 30
0.0
 11
279.081446822253
 21
483.855774166098
 31
0.0
  0
LINE
  5
261
330
1F
100
AcDbEntity
  8
3
  6
PHANTOM
 62
     6
100
AcDbLine
 10
341.330067899392
 20
501.893950210978
 30
0.0
 11
340.653636297708
 21
483.855774166098
 31
0.0
  0
LINE
  5
262
330
1F
100
AcDbEntity
  8
3
  6
PHANTOM
 62
     6
100
AcDbLine
 10
280.080744437962
 20
482.893247826687
 30
0.0
 11
339.654338681999
 21
482.893247826687
 31
0.0
  0
LINE
  5
263
330
1F
100
AcDbEntity
  8
3
  6
PHANTOM
 62
     6
100
AcDbLine
 10
279.367541559981
 20
502.893247826687
 30
0.0
 11
340.367541559981
 21
502.893247826687
 31
0.0
  0
LINE
  5
264
330
1F
100
AcDbEntity
  8
3
  6
Continuous
 62
     3
100
AcDbLine
 10
252.367541559981
 20
460.393247826687
 30
0.0
 11
252.367541559981
 21
459.893247826687
 31
0.0
  0
LINE
  5
265
330
1F
100
AcDbEntity
  8
3
  6
Continuous
 62
     3
100
AcDbLine
 10
367.367541559981
 20
460.393247826687
 30
0.0
 11
367.367541559981
 21
459.893247826687
 31
0.0
  0
LINE
  5
266
330
1F
100
AcDbEntity
  8
3
  6
Continuous
 62
     3
100
AcDbLine
 10
275.117541559981
 20
459.893247826687
 30
0.0
 11
275.768753378691
 21
440.791034477837
 31
0.0
  0
LINE
  5
267
330
1F
100
AcDbEntity
  8
3
  6
Continuous
 62
     3
100
AcDbLine
 10
344.617541559981
 20
459.893247826687
 30
0.0
 11
343.96632974127
 21
440.791034477837
 31
0.0
  0
LINE
  5
268
330
1F
100
AcDbEntity
  8
3
  6
Continuous
 62
     3
100
AcDbLine
 10
256.075640803528
 20
462.893247826687
 30
0.0
 11
363.659442316433
 21
462.893247826687
 31
0.0
  0
LINE
  5
269
330
1F
100
AcDbEntity
  8
1
  6
Continuous
 62
     3
100
AcDbLine
 10
299.867541559976
 20
299.693247826688
 30
0.0
 11
298.167541559981
 21
299.693247826688
 31
0.0
  0
LINE
  5
26A
330
1F
100
AcDbEntity
  8
1
  6
Continuous
 62
     3
100
AcDbLine
 10
299.867541559976
 20
300.126247826688
 30
0.0
 11
298.167541559981
 21
300.126247826688
 31
0.0
  0
LINE
  5
26B
330
1F
100
AcDbEntity
  8
1
  6
Continuous
 62
     3
100
AcDbLine
 10
299.867541559976
 20
304.260247826687
 30
0.0
 11
298.167541559981
 21
304.260247826687
 31
0.0
  0
LINE
  5
26C
330
1F
100
AcDbEntity
  8
1
  6
Continuous
 62
     3
100
AcDbLine
 10
299.867541559976
 20
304.693247826688
 30
0.0
 11
298.167541559981
 21
304.693247826688
 31
0.0
  0
LINE
  5
26D
330
1F
100
AcDbEntity
  8
1
  6
Continuous
 62
     3
100
AcDbLine
 10
298.167541559981
 20
299.693247826688
 30
0.0
 11
298.167541559981
 21
304.693247826688
 31
0.0
  0
LINE
  5
26E
330
1F
100
AcDbEntity
  8
1
  6
Continuous
 62
     3
100
AcDbLine
 10
297.717208350013
 20
304.433247826687
 30
0.0
 11
297.567541559981
 21
304.433247826687
 31
0.0
  0
LINE
  5
26F
330
1F
100
AcDbEntity
  8
1
  6
Continuous
 62
     3
100
AcDbLine
 10
297.717208350013
 20
299.953247826688
 30
0.0
 11
297.567541559981
 21
299.953247826688
 31
0.0
  0
LINE
  5
270
330
1F
100
AcDbEntity
  8
1
  6
Continuous
 62
     3
100
AcDbLine
 10
297.717208350013
 20
304.433247826687
 30
0.0
 11
298.167541559981
 21
304.693247826688
 31
0.0
  0
LINE
  5
271
330
1F
100
AcDbEntity
  8
1
  6
Continuous
 62
     3
100
AcDbLine
 10
297.717208350013
 20
299.953247826688
 30
0.0
 11
298.167541559981
 21
299.693247826688
 31
0.0
  0
LINE
  5
272
330
1F
100
AcDbEntity
  8
1
  6
Continuous
 62
     3
100
AcDbLine
 10
297.367541559981
 20
297.443247826688
 30
0.0
 11
297.367541559981
 21
306.943247826688
 31
0.0
  0
LINE
  5
273
330
1F
100
AcDbEntity
  8
1
  6
Continuous
 62
     3
100
AcDbLine
 10
297.367541559981
 20
306.943247826688
 30
0.0
 11
296.096410615549
 21
306.943247826688
 31
0.0
  0
LINE
  5
274
330
1F
100
AcDbEntity
  8
1
  6
Continuous
 62
     3
100
AcDbLine
 10
298.167541559981
 20
299.693247826688
 30
0.0
 11
298.167541559981
 21
304.693247826688
 31
0.0
  0
LINE
  5
275
330
1F
100
AcDbEntity
  8
1
  6
Continuous
 62
     3
100
AcDbLine
 10
294.084830962839
 20
301.693247826688
 30
0.0
 11
294.084830962839
 21
302.693247826688
 31
0.0
  0
LINE
  5
276
330
1F
100
AcDbEntity
  8
1
  6
Continuous
 62
     3
100
AcDbLine
 10
294.084830962839
 20
301.693247826688
 30
0.0
 11
293.683181848646
 21
301.693247826688
 31
0.0
  0
LINE
  5
277
330
1F
100
AcDbEntity
  8
1
  6
Continuous
 62
     3
100
AcDbLine
 10
294.084830962839
 20
302.693247826688
 30
0.0
 11
293.683181848646
 21
302.693247826688
 31
0.0
  0
LINE
  5
278
330
1F
100
AcDbEntity
  8
1
  6
Continuous
 62
     3
100
AcDbLine
 10
297.717208350013
 20
304.433247826687
 30
0.0
 11
297.567541559981
 21
304.433247826687
 31
0.0
  0
LINE
  5
279
330
1F
100
AcDbEntity
  8
1
  6
Continuous
 62
     3
100
AcDbLine
 10
297.717208350013
 20
299.953247826688
 30
0.0
 11
297.567541559981
 21
299.953247826688
 31
0.0
  0
LINE
  5
27A
330
1F
100
AcDbEntity
  8
1
  6
Continuous
 62
     3
100
AcDbLine
 10
297.717208350013
 20
304.433247826687
 30
0.0
 11
298.167541559981
 21
304.693247826688
 31
0.0
  0
LINE
  5
27B
330
1F
100
AcDbEntity
  8
1
  6
Continuous
 62
     3
100
AcDbLine
 10
297.717208350013
 20
299.953247826688
 30
0.0
 11
298.167541559981
 21
299.693247826688
 31
0.0
  0
LINE
  5
27C
330
1F
100
AcDbEntity
  8
1
  6
Continuous
 62
     3
100
AcDbLine
 10
319.867541559976
 20
340.693247826688
 30
0.0
 11
299.867541559976
 21
340.693247826688
 31
0.0
  0
LINE
  5
27D
330
1F
100
AcDbEntity
  8
1
  6
Continuous
 62
     3
100
AcDbLine
 10
299.867541559976
 20
297.693247826688
 30
0.0
 11
319.867541559976
 21
297.693247826688
 31
0.0
  0
LINE
  5
27E
330
1F
100
AcDbEntity
  8
1
  6
Continuous
 62
     3
100
AcDbLine
 10
319.367541559976
 20
297.193247826688
 30
0.0
 11
300.367541559976
 21
297.193247826688
 31
0.0
  0
LINE
  5
27F
330
1F
100
AcDbEntity
  8
1
  6
Continuous
 62
     3
100
AcDbLine
 10
319.867541559976
 20
297.693247826688
 30
0.0
 11
319.367541559976
 21
297.193247826688
 31
0.0
  0
LINE
  5
280
330
1F
100
AcDbEntity
  8
1
  6
Continuous
 62
     3
100
AcDbLine
 10
319.867541559976
 20
308.534477009447
 30
0.0
 11
319.867541559976
 21
297.693247826688
 31
0.0
  0
LINE
  5
281
330
1F
100
AcDbEntity
  8
1
  6
Continuous
 62
     3
100
AcDbLine
 10
319.117541559976
 20
308.534477009447
 30
0.0
 11
319.867541559976
 21
308.534477009447
 31
0.0
  0
LINE
  5
282
330
1F
100
AcDbEntity
  8
1
  6
Continuous
 62
     3
100
AcDbLine
 10
299.867541559976
 20
308.534477009447
 30
0.0
 11
300.617541559976
 21
308.534477009447
 31
0.0
  0
LINE
  5
283
330
1F
100
AcDbEntity
  8
1
  6
Continuous
 62
     3
100
AcDbLine
 10
299.867541559976
 20
297.693247826688
 30
0.0
 11
300.367541559976
 21
297.193247826688
 31
0.0
  0
LINE
  5
284
330
1F
100
AcDbEntity
  8
1
  6
Continuous
 62
     3
100
AcDbLine
 10
299.867541559976
 20
308.534477009447
 30
0.0
 11
299.867541559976
 21
297.693247826688
 31
0.0
  0
LINE
  5
285
330
1F
100
AcDbEntity
  8
11
  6
Continuous
 62
     3
100
AcDbLine
 10
305.617541559976
 20
318.943247826688
 30
0.0
 11
305.617541559976
 21
313.534477009447
 31
0.0
  0
LINE
  5
286
330
1F
100
AcDbEntity
  8
11
  6
Continuous
 62
     3
100
AcDbLine
 10
314.117541559976
 20
318.943247826688
 30
0.0
 11
314.117541559976
 21
313.534477009447
 31
0.0
  0
LINE
  5
287
330
1F
100
AcDbEntity
  8
11
  6
Continuous
 62
     3
100
AcDbLine
 10
319.867541559976
 20
340.693247826688
 30
0.0
 11
319.867541559976
 21
330.693247826688
 31
0.0
  0
LINE
  5
288
330
1F
100
AcDbEntity
  8
11
  6
Continuous
 62
     3
100
AcDbLine
 10
299.867541559976
 20
340.693247826688
 30
0.0
 11
299.867541559976
 21
330.693247826688
 31
0.0
  0
LINE
  5
289
330
1F
100
AcDbEntity
  8
11
  6
Continuous
 62
     3
100
AcDbLine
 10
299.867541559976
 20
340.693247826688
 30
0.0
 11
300.367541559976
 21
341.193247826688
 31
0.0
  0
LINE
  5
28A
330
1F
100
AcDbEntity
  8
11
  6
Continuous
 62
     3
100
AcDbLine
 10
319.367541559976
 20
341.193247826688
 30
0.0
 11
319.867541559976
 21
340.693247826688
 31
0.0
  0
LINE
  5
28B
330
1F
100
AcDbEntity
  8
11
  6
Continuous
 62
     3
100
AcDbLine
 10
299.867541559976
 20
330.693247826688
 30
0.0
 11
299.867541559976
 21
315.193247826688
 31
0.0
  0
LINE
  5
28C
330
1F
100
AcDbEntity
  8
11
  6
Continuous
 62
     3
100
AcDbLine
 10
319.867541559976
 20
330.693247826688
 30
0.0
 11
319.867541559976
 21
315.193247826688
 31
0.0
  0
LINE
  5
28D
330
1F
100
AcDbEntity
  8
11
  6
Continuous
 62
     3
100
AcDbLine
 10
301.089820704113
 20
319.193247826688
 30
0.0
 11
299.867541559976
 21
315.193247826688
 31
0.0
  0
LINE
  5
28E
330
1F
100
AcDbEntity
  8
11
  6
Continuous
 62
     3
100
AcDbLine
 10
301.089820704113
 20
323.423447215356
 30
0.0
 11
301.089820704113
 21
319.193247826688
 31
0.0
  0
LINE
  5
28F
330
1F
100
AcDbEntity
  8
11
  6
Continuous
 62
     3
100
AcDbLine
 10
318.645262415839
 20
319.193247826688
 30
0.0
 11
319.867541559976
 21
315.193247826688
 31
0.0
  0
LINE
  5
290
330
1F
100
AcDbEntity
  8
11
  6
Continuous
 62
     3
100
AcDbLine
 10
318.645262415839
 20
323.423447215356
 30
0.0
 11
318.645262415839
 21
319.193247826688
 31
0.0
  0
LINE
  5
291
330
1F
100
AcDbEntity
  8
11
  6
Continuous
 62
     3
100
AcDbLine
 10
299.867541559976
 20
315.193247826688
 30
0.0
 11
304.867541559976
 21
315.193247826688
 31
0.0
  0
LINE
  5
292
330
1F
100
AcDbEntity
  8
11
  6
Continuous
 62
     3
100
AcDbLine
 10
314.867541559976
 20
315.193247826688
 30
0.0
 11
319.867541559976
 21
315.193247826688
 31
0.0
  0
LINE
  5
293
330
1F
100
AcDbEntity
  8
11
  6
Continuous
 62
     3
100
AcDbLine
 10
304.867541559976
 20
324.693247826688
 30
0.0
 11
304.867541559976
 21
315.193247826688
 31
0.0
  0
LINE
  5
294
330
1F
100
AcDbEntity
  8
11
  6
Continuous
 62
     3
100
AcDbLine
 10
314.867541559976
 20
324.693247826688
 30
0.0
 11
314.867541559976
 21
315.193247826688
 31
0.0
  0
LINE
  5
295
330
1F
100
AcDbEntity
  8
11
  6
Continuous
 62
     3
100
AcDbLine
 10
300.367541559976
 20
341.193247826688
 30
0.0
 11
319.367541559976
 21
341.193247826688
 31
0.0
  0
LINE
  5
296
330
1F
100
AcDbEntity
  8
1
  6
Continuous
 62
     3
100
AcDbLine
 10
317.867541559976
 20
-844.806757900544
 30
0.0
 11
301.867541559976
 21
-844.806757900544
 31
0.0
  0
LINE
  5
297
330
1F
100
AcDbEntity
  8
1
  6
Continuous
 62
     3
100
AcDbLine
 10
301.867541559976
 20
-852.806757900544
 30
0.0
 11
309.867541559976
 21
-852.806757900544
 31
0.0
  0
LINE
  5
298
330
1F
100
AcDbEntity
  8
1
  6
Continuous
 62
     3
100
AcDbLine
 10
318.655465636874
 20
-852.806757900544
 30
0.0
 11
309.867541559976
 21
-852.806757900544
 31
0.0
  0
LINE
  5
299
330
1F
100
AcDbEntity
  8
4
  6
Continuous
 62
     3
100
AcDbLine
 10
322.367541475377
 20
-897.056757538644
 30
0.0
 11
322.367541475377
 21
-906.556757360044
 31
0.0
  0
LINE
  5
29A
330
1F
100
AcDbEntity
  8
4
  6
Continuous
 62
     3
100
AcDbLine
 10
297.367541945376
 20
-906.306757364744
 30
0.0
 11
297.367541945376
 21
-890.968195480875
 31
0.0
  0
LINE
  5
29B
330
1F
100
AcDbEntity
  8
4
  6
Continuous
 62
     3
100
AcDbLine
 10
297.867541935976
 20
-889.645319850213
 30
0.0
 11
297.867541935976
 21
-879.306757872344
 31
0.0
  0
LINE
  5
29C
330
1F
100
AcDbEntity
  8
4
  6
Continuous
 62
     3
100
AcDbLine
 10
322.367541475377
 20
-899.523257492274
 30
0.0
 11
322.367541475376
 21
-890.968195480875
 31
0.0
  0
LINE
  5
29D
330
1F
100
AcDbEntity
  8
4
  6
Continuous
 62
     3
100
AcDbLine
 10
322.367541475377
 20
-906.306757364744
 30
0.0
 11
322.367541475377
 21
-904.090257406414
 31
0.0
  0
LINE
  5
29E
330
1F
100
AcDbEntity
  8
4
  6
Continuous
 62
     3
100
AcDbLine
 10
321.867541484776
 20
-889.645319850213
 30
0.0
 11
321.867541484776
 21
-879.306757872344
 31
0.0
  0
LINE
  5
29F
330
1F
100
AcDbEntity
  8
4
  6
Continuous
 62
     3
100
AcDbLine
 10
309.867541559976
 20
-877.306757909944
 30
0.0
 11
299.867541898376
 21
-877.306757909944
 31
0.0
  0
LINE
  5
2A0
330
1F
100
AcDbEntity
  8
4
  6
Continuous
 62
     3
100
AcDbLine
 10
319.867541522376
 20
-877.306757909944
 30
0.0
 11
309.867541559976
 21
-877.306757909944
 31
0.0
  0
LINE
  5
2A1
330
1F
100
AcDbEntity
  8
4
  6
Continuous
 62
     3
100
AcDbLine
 10
320.367541512976
 20
-908.306757327144
 30
0.0
 11
299.367541907776
 21
-908.306757327144
 31
0.0
  0
LINE
  5
2A2
330
1F
100
AcDbEntity
  8
1
  6
Continuous
 62
     3
100
AcDbLine
 10
317.867541559976
 20
-852.806757900544
 30
0.0
 11
317.867541559976
 21
-844.806757900544
 31
0.0
  0
LINE
  5
2A3
330
1F
100
AcDbEntity
  8
1
  6
Continuous
 62
     3
100
AcDbLine
 10
317.867541559976
 20
-852.806757900544
 30
0.0
 11
319.367541559976
 21
-852.806757900544
 31
0.0
  0
LINE
  5
2A4
330
1F
100
AcDbEntity
  8
1
  6
Continuous
 62
     3
100
AcDbLine
 10
300.367541559976
 20
-852.806757900544
 30
0.0
 11
300.367541559976
 21
-877.306757909944
 31
0.0
  0
LINE
  5
2A5
330
1F
100
AcDbEntity
  8
1
  6
Continuous
 62
     3
100
AcDbLine
 10
319.367541559976
 20
-852.806757900544
 30
0.0
 11
319.367541559976
 21
-877.306757909944
 31
0.0
  0
LINE
  5
2A6
330
1F
100
AcDbEntity
  8
1
  6
Continuous
 62
     3
100
AcDbLine
 10
300.367541559976
 20
-852.806757900544
 30
0.0
 11
301.867541559976
 21
-852.806757900544
 31
0.0
  0
LINE
  5
2A7
330
1F
100
AcDbEntity
  8
1
  6
Continuous
 62
     3
100
AcDbLine
 10
309.867541559976
 20
-844.306757900544
 30
0.0
 11
302.367541559976
 21
-844.306757900544
 31
0.0
  0
LINE
  5
2A8
330
1F
100
AcDbEntity
  8
1
  6
Continuous
 62
     3
100
AcDbLine
 10
302.367541559976
 20
-844.306757900544
 30
0.0
 11
301.867541559976
 21
-844.806757900544
 31
0.0
  0
LINE
  5
2A9
330
1F
100
AcDbEntity
  8
1
  6
Continuous
 62
     3
100
AcDbLine
 10
317.367541559976
 20
-844.306757900544
 30
0.0
 11
309.867541559976
 21
-844.306757900544
 31
0.0
  0
LINE
  5
2AA
330
1F
100
AcDbEntity
  8
1
  6
Continuous
 62
     3
100
AcDbLine
 10
317.867541559976
 20
-844.806757900544
 30
0.0
 11
317.367541559976
 21
-844.306757900544
 31
0.0
  0
LINE
  5
2AB
330
1F
100
AcDbEntity
  8
1
  6
Continuous
 62
     3
100
AcDbLine
 10
312.417541559976
 20
-901.306757449344
 30
0.0
 11
312.417541559976
 21
-902.306757449344
 31
0.0
  0
LINE
  5
2AC
330
1F
100
AcDbEntity
  8
1
  6
Continuous
 62
     3
100
AcDbLine
 10
310.367541559976
 20
-904.356757449344
 30
0.0
 11
309.367541559976
 21
-904.356757449344
 31
0.0
  0
LINE
  5
2AD
330
1F
100
AcDbEntity
  8
1
  6
Continuous
 62
     3
100
AcDbLine
 10
307.317541559976
 20
-901.306757449344
 30
0.0
 11
307.317541559976
 21
-902.306757449344
 31
0.0
  0
LINE
  5
2AE
330
1F
100
AcDbEntity
  8
1
  6
Continuous
 62
     3
100
AcDbLine
 10
310.367541559976
 20
-899.256757449344
 30
0.0
 11
309.367541559976
 21
-899.256757449344
 31
0.0
  0
LINE
  5
2AF
330
1F
100
AcDbEntity
  8
1
  6
Continuous
 62
     3
100
AcDbLine
 10
308.367541559976
 20
-901.306757449344
 30
0.0
 11
307.317541559976
 21
-901.306757449344
 31
0.0
  0
LINE
  5
2B0
330
1F
100
AcDbEntity
  8
1
  6
Continuous
 62
     3
100
AcDbLine
 10
308.367541559976
 20
-902.306757449344
 30
0.0
 11
307.317541559976
 21
-902.306757449344
 31
0.0
  0
LINE
  5
2B1
330
1F
100
AcDbEntity
  8
1
  6
Continuous
 62
     3
100
AcDbLine
 10
310.367541559976
 20
-899.256757449344
 30
0.0
 11
310.367541559976
 21
-900.306757449344
 31
0.0
  0
LINE
  5
2B2
330
1F
100
AcDbEntity
  8
1
  6
Continuous
 62
     3
100
AcDbLine
 10
310.367541559976
 20
-903.306757449344
 30
0.0
 11
310.367541559976
 21
-904.356757449344
 31
0.0
  0
LINE
  5
2B3
330
1F
100
AcDbEntity
  8
1
  6
Continuous
 62
     3
100
AcDbLine
 10
309.367541559976
 20
-899.256757449344
 30
0.0
 11
309.367541559976
 21
-900.306757449344
 31
0.0
  0
LINE
  5
2B4
330
1F
100
AcDbEntity
  8
1
  6
Continuous
 62
     3
100
AcDbLine
 10
309.367541559976
 20
-903.306757449344
 30
0.0
 11
309.367541559976
 21
-904.356757449344
 31
0.0
  0
LINE
  5
2B5
330
1F
100
AcDbEntity
  8
1
  6
Continuous
 62
     3
100
AcDbLine
 10
312.417541559976
 20
-902.306757449344
 30
0.0
 11
311.367541559976
 21
-902.306757449344
 31
0.0
  0
LINE
  5
2B6
330
1F
100
AcDbEntity
  8
1
  6
Continuous
 62
     3
100
AcDbLine
 10
312.417541559976
 20
-901.306757449344
 30
0.0
 11
311.367541559976
 21
-901.306757449344
 31
0.0
  0
LINE
  5
2B7
330
1F
100
AcDbEntity
  8
1
  6
Continuous
 62
     3
100
AcDbLine
 10
301.867541559976
 20
-844.806757900544
 30
0.0
 11
301.867541559976
 21
-852.806757900544
 31
0.0
  0
LINE
  5
2B8
330
1F
100
AcDbEntity
  8
1
  6
Continuous
 62
     3
100
AcDbLine
 10
321.117541480077
 20
-890.306757665544
 30
0.0
 11
298.617541940676
 21
-890.306757665544
 31
0.0
  0
LINE
  5
2B9
330
1F
100
AcDbEntity
  8
1
  6
PHANTOM
 62
     6
100
AcDbLine
 10
106.162394293505
 20
-643.806752173313
 30
0.0
 11
106.162394293505
 21
-693.806752173313
 31
0.0
  0
LINE
  5
2BA
330
1F
100
AcDbEntity
  8
1
  6
PHANTOM
 62
     6
100
AcDbLine
 10
97.1623942935051
 20
-643.806752173313
 30
0.0
 11
97.1623942935051
 21
-693.806752173313
 31
0.0
  0
LINE
  5
2BB
330
1F
100
AcDbEntity
  8
1
  6
PHANTOM
 62
     6
100
AcDbLine
 10
97.1623942935051
 20
-693.806752173313
 30
0.0
 11
106.162394293505
 21
-693.806752173313
 31
0.0
  0
LINE
  5
2BC
330
1F
100
AcDbEntity
  8
2
  6
Continuous
 62
     3
100
AcDbLine
 10
315.867541559976
 20
-643.806752173313
 30
0.0
 11
315.867541559976
 21
-843.806752173313
 31
0.0
  0
LINE
  5
2BD
330
1F
100
AcDbEntity
  8
2
  6
Continuous
 62
     3
100
AcDbLine
 10
303.867541559976
 20
-643.806752173313
 30
0.0
 11
303.867541559976
 21
-843.806752173312
 31
0.0
  0
LINE
  5
2BE
330
1F
100
AcDbEntity
  8
1
  6
Continuous
 62
     3
100
AcDbLine
 10
314.367541559976
 20
-843.806752173312
 30
0.0
 11
314.367541559976
 21
-844.306752173312
 31
0.0
  0
LINE
  5
2BF
330
1F
100
AcDbEntity
  8
1
  6
Continuous
 62
     3
100
AcDbLine
 10
305.367541559976
 20
-843.806752173312
 30
0.0
 11
305.367541559976
 21
-844.306752173312
 31
0.0
  0
LINE
  5
2C0
330
1F
100
AcDbEntity
  8
1
  6
Continuous
 62
     3
100
AcDbLine
 10
303.867541559976
 20
-843.806752173312
 30
0.0
 11
315.867541559976
 21
-843.806752173313
 31
0.0
  0
LINE
  5
2C1
330
1F
100
AcDbEntity
  8
3
  6
DOT_CENTER
 62
     1
100
AcDbLine
 10
309.867541559976
 20
-972.806757797144
 30
0.0
 11
309.867541559976
 21
507.893247826687
 31
0.0
  0
LINE
  5
2C2
330
1F
100
AcDbEntity
  8
1
  6
PHANTOM
 62
     6
100
AcDbLine
 10
305.367541559976
 20
-693.806752173313
 30
0.0
 11
314.367541559976
 21
-693.806752173313
 31
0.0
  0
LINE
  5
2C3
330
1F
100
AcDbEntity
  8
1
  6
PHANTOM
 62
     6
100
AcDbLine
 10
305.367541559976
 20
-643.806752173313
 30
0.0
 11
305.367541559976
 21
-693.806752173313
 31
0.0
  0
LINE
  5
2C4
330
1F
100
AcDbEntity
  8
1
  6
PHANTOM
 62
     6
100
AcDbLine
 10
314.367541559976
 20
-643.806752173313
 30
0.0
 11
314.367541559976
 21
-693.806752173313
 31
0.0
  0
LINE
  5
2C5
330
1F
100
AcDbEntity
  8
2
  6
Continuous
 62
     3
100
AcDbLine
 10
303.867541559976
 20
-643.806752173313
 30
0.0
 11
315.867541559976
 21
-643.806752173313
 31
0.0
  0
LINE
  5
2C6
330
1F
100
AcDbEntity
  8
1
  6
Continuous
 62
     3
100
AcDbLine
 10
314.367541559976
 20
-643.806752173313
 30
0.0
 11
314.367541559976
 21
297.193247826688
 31
0.0
  0
LINE
  5
2C7
330
1F
100
AcDbEntity
  8
1
  6
Continuous
 62
     3
100
AcDbLine
 10
305.367541559976
 20
-643.806752173313
 30
0.0
 11
305.367541559976
 21
297.193247826688
 31
0.0
  0
LINE
  5
2C8
330
1F
100
AcDbEntity
  8
1
  6
PHANTOM
 62
     4
100
AcDbLine
 10
109.662394293505
 20
-895.806757327144
 30
0.0
 11
109.662394293505
 21
-895.006757342184
 31
0.0
  0
LINE
  5
2C9
330
1F
100
AcDbEntity
  8
1
  6
PHANTOM
 62
     4
100
AcDbLine
 10
93.6623942935053
 20
-895.006757342184
 30
0.0
 11
93.6623942935053
 21
-895.806757327144
 31
0.0
  0
LINE
  5
2CA
330
1F
100
AcDbEntity
  8
1
  6
PHANTOM
 62
     4
100
AcDbLine
 10
109.662394293505
 20
-895.006757342184
 30
0.0
 11
93.6623942935053
 21
-895.006757342184
 31
0.0
  0
LINE
  5
2CB
330
1F
100
AcDbEntity
  8
3
  6
PHANTOM
 62
     4
100
AcDbLine
 10
74.6623942935053
 20
-951.506757327144
 30
0.0
 11
128.662394293505
 21
-951.506757327144
 31
0.0
  0
LINE
  5
2CC
330
1F
100
AcDbEntity
  8
3
  6
PHANTOM
 62
     4
100
AcDbLine
 10
129.662394293505
 20
-949.849086546354
 30
0.0
 11
129.662394293505
 21
-950.506757327144
 31
0.0
  0
LINE
  5
2CD
330
1F
100
AcDbEntity
  8
3
  6
PHANTOM
 62
     4
100
AcDbLine
 10
73.6623942935053
 20
-949.854714627034
 30
0.0
 11
73.6623942935053
 21
-950.506757327144
 31
0.0
  0
LINE
  5
2CE
330
1F
100
AcDbEntity
  8
3
  6
PHANTOM
 62
     4
100
AcDbLine
 10
129.662394293505
 20
-950.506757327144
 30
0.0
 11
128.662394293505
 21
-951.506757327144
 31
0.0
  0
LINE
  5
2CF
330
1F
100
AcDbEntity
  8
3
  6
PHANTOM
 62
     4
100
AcDbLine
 10
74.6623942935053
 20
-951.506757327144
 30
0.0
 11
73.6623942935053
 21
-950.506757327144
 31
0.0
  0
LINE
  5
2D0
330
1F
100
AcDbEntity
  8
3
  6
PHANTOM
 62
     4
100
AcDbLine
 10
127.390001168615
 20
-946.938659045924
 30
0.0
 11
125.662394293505
 21
-946.506757327144
 31
0.0
  0
LINE
  5
2D1
330
1F
100
AcDbEntity
  8
3
  6
PHANTOM
 62
     4
100
AcDbLine
 10
75.9415675087953
 20
-946.942600490104
 30
0.0
 11
77.7023581221353
 21
-946.506757327144
 31
0.0
  0
LINE
  5
2D2
330
1F
100
AcDbEntity
  8
3
  6
PHANTOM
 62
     4
100
AcDbLine
 10
89.6623942935053
 20
-914.506757327144
 30
0.0
 11
113.662394293505
 21
-914.506757327144
 31
0.0
  0
LINE
  5
2D3
330
1F
100
AcDbEntity
  8
3
  6
PHANTOM
 62
     4
100
AcDbLine
 10
115.662394293505
 20
-916.506757327144
 30
0.0
 11
115.662394293505
 21
-926.822700970704
 31
0.0
  0
LINE
  5
2D4
330
1F
100
AcDbEntity
  8
3
  6
PHANTOM
 62
     4
100
AcDbLine
 10
122.162394293505
 20
-932.523019560124
 30
0.0
 11
119.181054409185
 21
-931.598225250524
 31
0.0
  0
LINE
  5
2D5
330
1F
100
AcDbEntity
  8
3
  6
PHANTOM
 62
     4
100
AcDbLine
 10
122.162394293505
 20
-932.523019560124
 30
0.0
 11
122.162394293505
 21
-946.506757327144
 31
0.0
  0
LINE
  5
2D6
330
1F
100
AcDbEntity
  8
3
  6
PHANTOM
 62
     4
100
AcDbLine
 10
73.6623942935053
 20
-950.506757327144
 30
0.0
 11
129.662394293505
 21
-950.506757327144
 31
0.0
  0
LINE
  5
2D7
330
1F
100
AcDbEntity
  8
3
  6
PHANTOM
 62
     4
100
AcDbLine
 10
129.662394293505
 20
-953.506757327144
 30
0.0
 11
129.662394293505
 21
-968.899821160572
 31
0.0
  0
LINE
  5
2D8
330
1F
100
AcDbEntity
  8
3
  6
PHANTOM
 62
     4
100
AcDbLine
 10
73.6623942935053
 20
-953.506757327144
 30
0.0
 11
73.6623942935053
 21
-968.589068150328
 31
0.0
  0
LINE
  5
2D9
330
1F
100
AcDbEntity
  8
3
  6
PHANTOM
 62
     4
100
AcDbLine
 10
129.662394293505
 20
-953.506757327144
 30
0.0
 11
127.662394293505
 21
-951.506757327144
 31
0.0
  0
LINE
  5
2DA
330
1F
100
AcDbEntity
  8
3
  6
PHANTOM
 62
     4
100
AcDbLine
 10
73.6623942935053
 20
-953.506757327144
 30
0.0
 11
75.6623942935053
 21
-951.506757327144
 31
0.0
  0
LINE
  5
2DB
330
1F
100
AcDbEntity
  8
3
  6
PHANTOM
 62
     4
100
AcDbLine
 10
118.982902369195
 20
-953.506757327144
 30
0.0
 11
118.982902369195
 21
-969.341129402691
 31
0.0
  0
LINE
  5
2DC
330
1F
100
AcDbEntity
  8
3
  6
PHANTOM
 62
     4
100
AcDbLine
 10
112.054699138915
 20
-953.506757327144
 30
0.0
 11
112.054699138915
 21
-967.712946881108
 31
0.0
  0
LINE
  5
2DD
330
1F
100
AcDbEntity
  8
3
  6
PHANTOM
 62
     4
100
AcDbLine
 10
91.2700894480952
 20
-953.506757327144
 30
0.0
 11
91.2700894480952
 21
-969.547285390876
 31
0.0
  0
LINE
  5
2DE
330
1F
100
AcDbEntity
  8
3
  6
PHANTOM
 62
     4
100
AcDbLine
 10
84.3418862178153
 20
-953.506757327144
 30
0.0
 11
84.3418862178153
 21
-967.178097035902
 31
0.0
  0
LINE
  5
2DF
330
1F
100
AcDbEntity
  8
3
  6
PHANTOM
 62
     4
100
AcDbLine
 10
129.375207214605
 20
-953.506757327144
 30
0.0
 11
129.375207214605
 21
-969.041659088887
 31
0.0
  0
LINE
  5
2E0
330
1F
100
AcDbEntity
  8
3
  6
PHANTOM
 62
     4
100
AcDbLine
 10
73.9495813724052
 20
-953.506757327144
 30
0.0
 11
73.9495813724052
 21
-968.374294188452
 31
0.0
  0
LINE
  5
2E1
330
1F
100
AcDbEntity
  8
3
  6
PHANTOM
 62
     4
100
AcDbLine
 10
129.375207214605
 20
-953.506757327144
 30
0.0
 11
129.662394293505
 21
-953.506757327144
 31
0.0
  0
LINE
  5
2E2
330
1F
100
AcDbEntity
  8
3
  6
PHANTOM
 62
     4
100
AcDbLine
 10
118.982902369195
 20
-953.506757327144
 30
0.0
 11
112.054699138915
 21
-953.506757327144
 31
0.0
  0
LINE
  5
2E3
330
1F
100
AcDbEntity
  8
3
  6
PHANTOM
 62
     4
100
AcDbLine
 10
91.2700894480952
 20
-953.506757327144
 30
0.0
 11
84.3418862178153
 21
-953.506757327144
 31
0.0
  0
LINE
  5
2E4
330
1F
100
AcDbEntity
  8
3
  6
PHANTOM
 62
     4
100
AcDbLine
 10
73.9495813724052
 20
-953.506757327144
 30
0.0
 11
73.6623942935053
 21
-953.506757327144
 31
0.0
  0
LINE
  5
2E5
330
1F
100
AcDbEntity
  8
3
  6
PHANTOM
 62
     4
100
AcDbLine
 10
87.6623942935053
 20
-916.506757327144
 30
0.0
 11
87.6623942935053
 21
-926.822700970704
 31
0.0
  0
LINE
  5
2E6
330
1F
100
AcDbEntity
  8
3
  6
PHANTOM
 62
     4
100
AcDbLine
 10
81.1623942935053
 20
-932.523019560124
 30
0.0
 11
84.1437341778252
 21
-931.598225250524
 31
0.0
  0
LINE
  5
2E7
330
1F
100
AcDbEntity
  8
3
  6
PHANTOM
 62
     4
100
AcDbLine
 10
81.1623942935053
 20
-932.523019560124
 30
0.0
 11
81.1623942935053
 21
-946.506757327144
 31
0.0
  0
LINE
  5
2E8
330
1F
100
AcDbEntity
  8
3
  6
PHANTOM
 62
     4
100
AcDbLine
 10
125.662394293505
 20
-946.506757327144
 30
0.0
 11
77.7023581221353
 21
-946.506757327144
 31
0.0
  0
LINE
  5
2E9
330
1F
100
AcDbEntity
  8
1
  6
PHANTOM
 62
     4
100
AcDbLine
 10
94.259016825137
 20
-907.806757101544
 30
0.0
 11
94.259016825137
 21
-895.806757327144
 31
0.0
  0
LINE
  5
2EA
330
1F
100
AcDbEntity
  8
1
  6
PHANTOM
 62
     4
100
AcDbLine
 10
109.065771761874
 20
-895.806757327144
 30
0.0
 11
109.065771761874
 21
-907.806757101544
 31
0.0
  0
LINE
  5
2EB
330
1F
100
AcDbEntity
  8
1
  6
PHANTOM
 62
     4
100
AcDbLine
 10
110.462394128065
 20
-895.806757327144
 30
0.0
 11
110.462394128065
 21
-907.806757101544
 31
0.0
  0
LINE
  5
2EC
330
1F
100
AcDbEntity
  8
1
  6
PHANTOM
 62
     4
100
AcDbLine
 10
92.8623944589455
 20
-895.806757327144
 30
0.0
 11
92.8623944589455
 21
-907.806757101544
 31
0.0
  0
LINE
  5
2ED
330
1F
100
AcDbEntity
  8
1
  6
PHANTOM
 62
     4
100
AcDbLine
 10
110.462394128065
 20
-907.806757101544
 30
0.0
 11
92.8623944589455
 21
-907.806757101544
 31
0.0
  0
LINE
  5
2EE
330
1F
100
AcDbEntity
  8
1
  6
PHANTOM
 62
     4
100
AcDbLine
 10
110.462394128065
 20
-895.806757327144
 30
0.0
 11
92.8623944589455
 21
-895.806757327144
 31
0.0
  0
LINE
  5
2EF
330
1F
100
AcDbEntity
  8
4
  6
PHANTOM
 62
     4
100
AcDbLine
 10
108.162394293505
 20
-914.506757327144
 30
0.0
 11
108.162394293506
 21
-907.806757101544
 31
0.0
  0
LINE
  5
2F0
330
1F
100
AcDbEntity
  8
4
  6
PHANTOM
 62
     4
100
AcDbLine
 10
95.162394293505
 20
-914.506757327144
 30
0.0
 11
95.1623942935054
 21
-907.806757101544
 31
0.0
  0
LINE
  5
2F1
330
1F
100
AcDbEntity
  8
4
  6
PHANTOM
 62
     4
100
AcDbLine
 10
303.367541559976
 20
-914.506757327144
 30
0.0
 11
303.367541559976
 21
-907.806757101544
 31
0.0
  0
LINE
  5
2F2
330
1F
100
AcDbEntity
  8
4
  6
PHANTOM
 62
     4
100
AcDbLine
 10
316.367541559976
 20
-914.506757327144
 30
0.0
 11
316.367541559977
 21
-907.806757101544
 31
0.0
  0
LINE
  5
2F3
330
1F
100
AcDbEntity
  8
1
  6
PHANTOM
 62
     4
100
AcDbLine
 10
318.667541394536
 20
-895.806757327144
 30
0.0
 11
301.067541725417
 21
-895.806757327144
 31
0.0
  0
LINE
  5
2F4
330
1F
100
AcDbEntity
  8
1
  6
PHANTOM
 62
     4
100
AcDbLine
 10
318.667541394536
 20
-907.806757101544
 30
0.0
 11
301.067541725417
 21
-907.806757101544
 31
0.0
  0
LINE
  5
2F5
330
1F
100
AcDbEntity
  8
1
  6
PHANTOM
 62
     4
100
AcDbLine
 10
301.067541725417
 20
-895.806757327144
 30
0.0
 11
301.067541725417
 21
-907.806757101544
 31
0.0
  0
LINE
  5
2F6
330
1F
100
AcDbEntity
  8
1
  6
PHANTOM
 62
     4
100
AcDbLine
 10
318.667541394536
 20
-895.806757327144
 30
0.0
 11
318.667541394536
 21
-907.806757101544
 31
0.0
  0
LINE
  5
2F7
330
1F
100
AcDbEntity
  8
1
  6
PHANTOM
 62
     4
100
AcDbLine
 10
317.270919028345
 20
-895.806757327144
 30
0.0
 11
317.270919028345
 21
-907.806757101544
 31
0.0
  0
LINE
  5
2F8
330
1F
100
AcDbEntity
  8
1
  6
PHANTOM
 62
     4
100
AcDbLine
 10
302.464164091608
 20
-907.806757101544
 30
0.0
 11
302.464164091608
 21
-895.806757327144
 31
0.0
  0
LINE
  5
2F9
330
1F
100
AcDbEntity
  8
3
  6
PHANTOM
 62
     4
100
AcDbLine
 10
333.867541559976
 20
-946.506757327144
 30
0.0
 11
285.907505388606
 21
-946.506757327144
 31
0.0
  0
LINE
  5
2FA
330
1F
100
AcDbEntity
  8
3
  6
PHANTOM
 62
     4
100
AcDbLine
 10
289.367541559976
 20
-932.523019560124
 30
0.0
 11
289.367541559976
 21
-946.506757327144
 31
0.0
  0
LINE
  5
2FB
330
1F
100
AcDbEntity
  8
3
  6
PHANTOM
 62
     4
100
AcDbLine
 10
289.367541559976
 20
-932.523019560124
 30
0.0
 11
292.348881444296
 21
-931.598225250524
 31
0.0
  0
LINE
  5
2FC
330
1F
100
AcDbEntity
  8
3
  6
PHANTOM
 62
     4
100
AcDbLine
 10
295.867541559976
 20
-916.506757327144
 30
0.0
 11
295.867541559976
 21
-926.822700970704
 31
0.0
  0
LINE
  5
2FD
330
1F
100
AcDbEntity
  8
3
  6
PHANTOM
 62
     4
100
AcDbLine
 10
282.154728638876
 20
-953.506757327144
 30
0.0
 11
281.867541559976
 21
-953.506757327144
 31
0.0
  0
LINE
  5
2FE
330
1F
100
AcDbEntity
  8
3
  6
PHANTOM
 62
     4
100
AcDbLine
 10
299.475236714566
 20
-953.506757327144
 30
0.0
 11
292.547033484286
 21
-953.506757327144
 31
0.0
  0
LINE
  5
2FF
330
1F
100
AcDbEntity
  8
3
  6
PHANTOM
 62
     4
100
AcDbLine
 10
327.188049635666
 20
-953.506757327144
 30
0.0
 11
320.259846405386
 21
-953.506757327144
 31
0.0
  0
LINE
  5
300
330
1F
100
AcDbEntity
  8
3
  6
PHANTOM
 62
     4
100
AcDbLine
 10
337.580354481076
 20
-953.506757327144
 30
0.0
 11
337.867541559976
 21
-953.506757327144
 31
0.0
  0
LINE
  5
301
330
1F
100
AcDbEntity
  8
3
  6
PHANTOM
 62
     4
100
AcDbLine
 10
282.154728638876
 20
-953.506757327144
 30
0.0
 11
282.154728638876
 21
-968.374294188452
 31
0.0
  0
LINE
  5
302
330
1F
100
AcDbEntity
  8
3
  6
PHANTOM
 62
     4
100
AcDbLine
 10
337.580354481076
 20
-953.506757327144
 30
0.0
 11
337.580354481076
 21
-969.041659088887
 31
0.0
  0
LINE
  5
303
330
1F
100
AcDbEntity
  8
3
  6
PHANTOM
 62
     4
100
AcDbLine
 10
292.547033484286
 20
-953.506757327144
 30
0.0
 11
292.547033484286
 21
-967.178097035902
 31
0.0
  0
LINE
  5
304
330
1F
100
AcDbEntity
  8
3
  6
PHANTOM
 62
     4
100
AcDbLine
 10
299.475236714566
 20
-953.506757327144
 30
0.0
 11
299.475236714566
 21
-969.547285390876
 31
0.0
  0
LINE
  5
305
330
1F
100
AcDbEntity
  8
3
  6
PHANTOM
 62
     4
100
AcDbLine
 10
320.259846405386
 20
-953.506757327144
 30
0.0
 11
320.259846405386
 21
-967.712946881108
 31
0.0
  0
LINE
  5
306
330
1F
100
AcDbEntity
  8
3
  6
PHANTOM
 62
     4
100
AcDbLine
 10
327.188049635666
 20
-953.506757327144
 30
0.0
 11
327.188049635666
 21
-969.341129402691
 31
0.0
  0
LINE
  5
307
330
1F
100
AcDbEntity
  8
3
  6
PHANTOM
 62
     4
100
AcDbLine
 10
281.867541559976
 20
-953.506757327144
 30
0.0
 11
283.867541559976
 21
-951.506757327144
 31
0.0
  0
LINE
  5
308
330
1F
100
AcDbEntity
  8
3
  6
PHANTOM
 62
     4
100
AcDbLine
 10
337.867541559976
 20
-953.506757327144
 30
0.0
 11
335.867541559976
 21
-951.506757327144
 31
0.0
  0
LINE
  5
309
330
1F
100
AcDbEntity
  8
3
  6
PHANTOM
 62
     4
100
AcDbLine
 10
281.867541559976
 20
-953.506757327144
 30
0.0
 11
281.867541559976
 21
-968.589068150328
 31
0.0
  0
LINE
  5
30A
330
1F
100
AcDbEntity
  8
3
  6
PHANTOM
 62
     4
100
AcDbLine
 10
337.867541559976
 20
-953.506757327144
 30
0.0
 11
337.867541559976
 21
-968.899821160572
 31
0.0
  0
LINE
  5
30B
330
1F
100
AcDbEntity
  8
3
  6
PHANTOM
 62
     4
100
AcDbLine
 10
281.867541559976
 20
-950.506757327144
 30
0.0
 11
337.867541559976
 21
-950.506757327144
 31
0.0
  0
LINE
  5
30C
330
1F
100
AcDbEntity
  8
3
  6
PHANTOM
 62
     4
100
AcDbLine
 10
330.367541559976
 20
-932.523019560124
 30
0.0
 11
330.367541559976
 21
-946.506757327144
 31
0.0
  0
LINE
  5
30D
330
1F
100
AcDbEntity
  8
3
  6
PHANTOM
 62
     4
100
AcDbLine
 10
330.367541559976
 20
-932.523019560124
 30
0.0
 11
327.386201675656
 21
-931.598225250524
 31
0.0
  0
LINE
  5
30E
330
1F
100
AcDbEntity
  8
3
  6
PHANTOM
 62
     4
100
AcDbLine
 10
323.867541559976
 20
-916.506757327144
 30
0.0
 11
323.867541559976
 21
-926.822700970704
 31
0.0
  0
LINE
  5
30F
330
1F
100
AcDbEntity
  8
3
  6
PHANTOM
 62
     4
100
AcDbLine
 10
297.867541559976
 20
-914.506757327144
 30
0.0
 11
321.867541559976
 21
-914.506757327144
 31
0.0
  0
LINE
  5
310
330
1F
100
AcDbEntity
  8
3
  6
PHANTOM
 62
     4
100
AcDbLine
 10
284.146714775266
 20
-946.942600490104
 30
0.0
 11
285.907505388606
 21
-946.506757327144
 31
0.0
  0
LINE
  5
311
330
1F
100
AcDbEntity
  8
3
  6
PHANTOM
 62
     4
100
AcDbLine
 10
335.595148435086
 20
-946.938659045924
 30
0.0
 11
333.867541559976
 21
-946.506757327144
 31
0.0
  0
LINE
  5
312
330
1F
100
AcDbEntity
  8
3
  6
PHANTOM
 62
     4
100
AcDbLine
 10
282.867541559976
 20
-951.506757327144
 30
0.0
 11
281.867541559976
 21
-950.506757327144
 31
0.0
  0
LINE
  5
313
330
1F
100
AcDbEntity
  8
3
  6
PHANTOM
 62
     4
100
AcDbLine
 10
337.867541559976
 20
-950.506757327144
 30
0.0
 11
336.867541559976
 21
-951.506757327144
 31
0.0
  0
LINE
  5
314
330
1F
100
AcDbEntity
  8
3
  6
PHANTOM
 62
     4
100
AcDbLine
 10
281.867541559976
 20
-949.854714627034
 30
0.0
 11
281.867541559976
 21
-950.506757327144
 31
0.0
  0
LINE
  5
315
330
1F
100
AcDbEntity
  8
3
  6
PHANTOM
 62
     4
100
AcDbLine
 10
337.867541559976
 20
-949.849086546354
 30
0.0
 11
337.867541559976
 21
-950.506757327144
 31
0.0
  0
LINE
  5
316
330
1F
100
AcDbEntity
  8
3
  6
PHANTOM
 62
     4
100
AcDbLine
 10
282.867541559976
 20
-951.506757327144
 30
0.0
 11
336.867541559976
 21
-951.506757327144
 31
0.0
  0
LINE
  5
317
330
1F
100
AcDbEntity
  8
1
  6
PHANTOM
 62
     4
100
AcDbLine
 10
317.867541559976
 20
-895.006757342184
 30
0.0
 11
301.867541559976
 21
-895.006757342184
 31
0.0
  0
LINE
  5
318
330
1F
100
AcDbEntity
  8
1
  6
PHANTOM
 62
     4
100
AcDbLine
 10
301.867541559976
 20
-895.006757342184
 30
0.0
 11
301.867541559976
 21
-895.806757327144
 31
0.0
  0
LINE
  5
319
330
1F
100
AcDbEntity
  8
1
  6
PHANTOM
 62
     4
100
AcDbLine
 10
317.867541559976
 20
-895.806757327144
 30
0.0
 11
317.867541559976
 21
-895.006757342184
 31
0.0
  0
LINE
  5
31A
330
1F
100
AcDbEntity
  8
1
  6
Continuous
 62
     4
100
AcDbLine
 10
145.929224865363
 20
-894.060072039507
 30
0.0
 11
145.929224865363
 21
-895.560072039507
 31
0.0
  0
LINE
  5
31B
330
1F
100
AcDbEntity
  8
1
  6
Continuous
 62
     4
100
AcDbLine
 10
145.929224865363
 20
-909.560072039507
 30
0.0
 11
142.840989571246
 21
-907.560072039507
 31
0.0
  0
LINE
  5
31C
330
1F
100
AcDbEntity
  8
1
  6
Continuous
 62
     4
100
AcDbLine
 10
139.31157780654
 20
-897.060072039507
 30
0.0
 11
143.723342512422
 21
-897.060072039507
 31
0.0
  0
LINE
  5
31D
330
1F
100
AcDbEntity
  8
1
  6
Continuous
 62
     4
100
AcDbLine
 10
143.723342512422
 20
-897.060072039507
 30
0.0
 11
143.282166041834
 21
-901.060072039507
 31
0.0
  0
LINE
  5
31E
330
1F
100
AcDbEntity
  8
1
  6
Continuous
 62
     4
100
AcDbLine
 10
143.282166041834
 20
-901.060072039507
 30
0.0
 11
141.958636630069
 21
-904.560072039507
 31
0.0
  0
LINE
  5
31F
330
1F
100
AcDbEntity
  8
1
  6
Continuous
 62
     4
100
AcDbLine
 10
141.958636630069
 20
-904.560072039507
 30
0.0
 11
139.31157780654
 21
-908.060072039507
 31
0.0
  0
LINE
  5
320
330
1F
100
AcDbEntity
  8
1
  6
Continuous
 62
     4
100
AcDbLine
 10
152.105695453599
 20
-895.560072039507
 30
0.0
 11
148.576283688893
 21
-900.560072039507
 31
0.0
  0
LINE
  5
321
330
1F
100
AcDbEntity
  8
1
  6
Continuous
 62
     4
100
AcDbLine
 10
145.929224865363
 20
-895.560072039507
 30
0.0
 11
147.693930747716
 21
-901.060072039507
 31
0.0
  0
LINE
  5
322
330
1F
100
AcDbEntity
  8
1
  6
Continuous
 62
     4
100
AcDbLine
 10
147.693930747716
 20
-901.060072039507
 30
0.0
 11
149.899813100657
 21
-905.060072039507
 31
0.0
  0
LINE
  5
323
330
1F
100
AcDbEntity
  8
1
  6
Continuous
 62
     4
100
AcDbLine
 10
149.899813100657
 20
-905.060072039507
 30
0.0
 11
152.988048394775
 21
-908.560072039507
 31
0.0
  0
LINE
  5
324
330
1F
100
AcDbEntity
  8
1
  6
Continuous
 62
     4
100
AcDbLine
 10
145.929224865363
 20
-895.560072039507
 30
0.0
 11
145.929224865363
 21
-909.560072039507
 31
0.0
  0
LINE
  5
325
330
1F
100
AcDbEntity
  8
1
  6
Continuous
 62
     4
100
AcDbLine
 10
156.958636630069
 20
-897.560072039507
 30
0.0
 11
161.370401335952
 21
-897.560072039507
 31
0.0
  0
LINE
  5
326
330
1F
100
AcDbEntity
  8
1
  6
Continuous
 62
     4
100
AcDbLine
 10
159.16451898301
 20
-894.060072039507
 30
0.0
 11
159.16451898301
 21
-909.060072039507
 31
0.0
  0
LINE
  5
327
330
1F
100
AcDbEntity
  8
1
  6
Continuous
 62
     4
100
AcDbLine
 10
159.16451898301
 20
-909.060072039507
 30
0.0
 11
156.958636630069
 21
-908.060072039507
 31
0.0
  0
LINE
  5
328
330
1F
100
AcDbEntity
  8
1
  6
Continuous
 62
     4
100
AcDbLine
 10
156.958636630069
 20
-903.560072039507
 30
0.0
 11
161.81157780654
 21
-901.560072039507
 31
0.0
  0
LINE
  5
329
330
1F
100
AcDbEntity
  8
1
  6
Continuous
 62
     4
100
AcDbLine
 10
161.370401335952
 20
-896.560072039507
 30
0.0
 11
170.193930747716
 21
-896.560072039507
 31
0.0
  0
LINE
  5
32A
330
1F
100
AcDbEntity
  8
1
  6
Continuous
 62
     4
100
AcDbLine
 10
164.458636630069
 20
-894.060072039507
 30
0.0
 11
164.017460159481
 21
-899.560072039507
 31
0.0
  0
LINE
  5
32B
330
1F
100
AcDbEntity
  8
1
  6
Continuous
 62
     4
100
AcDbLine
 10
164.017460159481
 20
-899.560072039507
 30
0.0
 11
162.693930747716
 21
-904.060072039507
 31
0.0
  0
LINE
  5
32C
330
1F
100
AcDbEntity
  8
1
  6
Continuous
 62
     4
100
AcDbLine
 10
162.693930747716
 20
-904.060072039507
 30
0.0
 11
160.488048394775
 21
-908.560072039507
 31
0.0
  0
LINE
  5
32D
330
1F
100
AcDbEntity
  8
1
  6
Continuous
 62
     4
100
AcDbLine
 10
164.017460159481
 20
-899.560072039507
 30
0.0
 11
169.752754277128
 21
-899.560072039507
 31
0.0
  0
LINE
  5
32E
330
1F
100
AcDbEntity
  8
1
  6
Continuous
 62
     4
100
AcDbLine
 10
169.752754277128
 20
-899.560072039507
 30
0.0
 11
168.429224865363
 21
-903.560072039507
 31
0.0
  0
LINE
  5
32F
330
1F
100
AcDbEntity
  8
1
  6
Continuous
 62
     4
100
AcDbLine
 10
168.429224865363
 20
-903.560072039507
 30
0.0
 11
165.782166041834
 21
-907.060072039507
 31
0.0
  0
LINE
  5
330
330
1F
100
AcDbEntity
  8
1
  6
Continuous
 62
     4
100
AcDbLine
 10
165.782166041834
 20
-907.060072039507
 30
0.0
 11
161.81157780654
 21
-908.560072039507
 31
0.0
  0
LINE
  5
331
330
1F
100
AcDbEntity
  8
1
  6
Continuous
 62
     4
100
AcDbLine
 10
164.017460159481
 20
-899.560072039507
 30
0.0
 11
165.340989571246
 21
-904.060072039507
 31
0.0
  0
LINE
  5
332
330
1F
100
AcDbEntity
  8
1
  6
Continuous
 62
     4
100
AcDbLine
 10
165.340989571246
 20
-904.060072039507
 30
0.0
 11
167.105695453599
 21
-907.060072039507
 31
0.0
  0
LINE
  5
333
330
1F
100
AcDbEntity
  8
1
  6
Continuous
 62
     4
100
AcDbLine
 10
167.105695453599
 20
-907.060072039507
 30
0.0
 11
170.193930747716
 21
-909.060072039507
 31
0.0
  0
LINE
  5
334
330
1F
100
AcDbEntity
  8
1
  6
Continuous
 62
     4
100
AcDbLine
 10
174.605695453599
 20
-897.560072039507
 30
0.0
 11
176.81157780654
 21
-897.560072039507
 31
0.0
  0
LINE
  5
335
330
1F
100
AcDbEntity
  8
1
  6
Continuous
 62
     4
100
AcDbLine
 10
176.81157780654
 20
-894.060072039507
 30
0.0
 11
176.81157780654
 21
-897.560072039507
 31
0.0
  0
LINE
  5
336
330
1F
100
AcDbEntity
  8
1
  6
Continuous
 62
     4
100
AcDbLine
 10
176.81157780654
 20
-897.560072039507
 30
0.0
 11
174.605695453599
 21
-904.060072039507
 31
0.0
  0
LINE
  5
337
330
1F
100
AcDbEntity
  8
1
  6
Continuous
 62
     4
100
AcDbLine
 10
176.81157780654
 20
-897.560072039507
 30
0.0
 11
178.576283688893
 21
-902.060072039507
 31
0.0
  0
LINE
  5
338
330
1F
100
AcDbEntity
  8
1
  6
Continuous
 62
     4
100
AcDbLine
 10
179.899813100657
 20
-894.060072039507
 30
0.0
 11
182.988048394775
 21
-894.060072039507
 31
0.0
  0
LINE
  5
339
330
1F
100
AcDbEntity
  8
1
  6
Continuous
 62
     4
100
AcDbLine
 10
178.576283688893
 20
-898.560072039507
 30
0.0
 11
182.988048394775
 21
-894.060072039507
 31
0.0
  0
LINE
  5
33A
330
1F
100
AcDbEntity
  8
1
  6
Continuous
 62
     4
100
AcDbLine
 10
182.988048394775
 20
-894.060072039507
 30
0.0
 11
187.840989571246
 21
-898.560072039507
 31
0.0
  0
LINE
  5
33B
330
1F
100
AcDbEntity
  8
1
  6
Continuous
 62
     4
100
AcDbLine
 10
179.017460159481
 20
-899.560072039507
 30
0.0
 11
182.988048394775
 21
-899.560072039507
 31
0.0
  0
LINE
  5
33C
330
1F
100
AcDbEntity
  8
1
  6
Continuous
 62
     4
100
AcDbLine
 10
179.458636630069
 20
-903.560072039507
 30
0.0
 11
186.517460159481
 21
-903.560072039507
 31
0.0
  0
LINE
  5
33D
330
1F
100
AcDbEntity
  8
1
  6
Continuous
 62
     4
100
AcDbLine
 10
178.576283688893
 20
-908.560072039507
 30
0.0
 11
182.988048394775
 21
-908.560072039507
 31
0.0
  0
LINE
  5
33E
330
1F
100
AcDbEntity
  8
1
  6
Continuous
 62
     4
100
AcDbLine
 10
182.988048394775
 20
-899.560072039507
 30
0.0
 11
182.988048394775
 21
-908.560072039507
 31
0.0
  0
LINE
  5
33F
330
1F
100
AcDbEntity
  8
1
  6
Continuous
 62
     4
100
AcDbLine
 10
182.988048394775
 20
-908.560072039507
 30
0.0
 11
187.399813100657
 21
-908.560072039507
 31
0.0
  0
LINE
  5
340
330
1F
100
AcDbEntity
  8
1
  6
Continuous
 62
     4
100
AcDbLine
 10
182.988048394775
 20
-899.560072039507
 30
0.0
 11
186.958636630069
 21
-899.560072039507
 31
0.0
  0
LINE
  5
341
330
1F
100
AcDbEntity
  8
1
  6
Continuous
 62
     4
100
AcDbLine
 10
176.81157780654
 20
-897.560072039507
 30
0.0
 11
176.81157780654
 21
-909.060072039507
 31
0.0
  0
LINE
  5
342
330
1F
100
AcDbEntity
  8
1
  6
Continuous
 62
     4
100
AcDbLine
 10
176.81157780654
 20
-897.560072039507
 30
0.0
 11
178.576283688893
 21
-897.560072039507
 31
0.0
  0
LINE
  5
343
330
1F
100
AcDbEntity
  8
1
  6
Continuous
 62
     4
100
AcDbLine
 10
193.576283688893
 20
-896.060072039507
 30
0.0
 11
192.252754277128
 21
-898.560072039507
 31
0.0
  0
LINE
  5
344
330
1F
100
AcDbEntity
  8
1
  6
Continuous
 62
     4
100
AcDbLine
 10
192.252754277128
 20
-898.560072039507
 30
0.0
 11
191.81157780654
 21
-901.560072039507
 31
0.0
  0
LINE
  5
345
330
1F
100
AcDbEntity
  8
1
  6
Continuous
 62
     4
100
AcDbLine
 10
191.81157780654
 20
-901.560072039507
 30
0.0
 11
192.252754277128
 21
-904.560072039507
 31
0.0
  0
LINE
  5
346
330
1F
100
AcDbEntity
  8
1
  6
Continuous
 62
     4
100
AcDbLine
 10
192.252754277128
 20
-904.560072039507
 30
0.0
 11
193.576283688893
 21
-907.060072039507
 31
0.0
  0
LINE
  5
347
330
1F
100
AcDbEntity
  8
1
  6
Continuous
 62
     4
100
AcDbLine
 10
205.046871924187
 20
-894.060072039507
 30
0.0
 11
205.046871924187
 21
-895.560072039507
 31
0.0
  0
LINE
  5
348
330
1F
100
AcDbEntity
  8
1
  6
Continuous
 62
     4
100
AcDbLine
 10
205.046871924187
 20
-909.560072039507
 30
0.0
 11
201.958636630069
 21
-907.560072039507
 31
0.0
  0
LINE
  5
349
330
1F
100
AcDbEntity
  8
1
  6
Continuous
 62
     4
100
AcDbLine
 10
198.429224865363
 20
-897.060072039507
 30
0.0
 11
202.840989571246
 21
-897.060072039507
 31
0.0
  0
LINE
  5
34A
330
1F
100
AcDbEntity
  8
1
  6
Continuous
 62
     4
100
AcDbLine
 10
202.840989571246
 20
-897.060072039507
 30
0.0
 11
202.399813100657
 21
-901.060072039507
 31
0.0
  0
LINE
  5
34B
330
1F
100
AcDbEntity
  8
1
  6
Continuous
 62
     4
100
AcDbLine
 10
202.399813100657
 20
-901.060072039507
 30
0.0
 11
201.076283688893
 21
-904.560072039507
 31
0.0
  0
LINE
  5
34C
330
1F
100
AcDbEntity
  8
1
  6
Continuous
 62
     4
100
AcDbLine
 10
201.076283688893
 20
-904.560072039507
 30
0.0
 11
198.429224865363
 21
-908.060072039507
 31
0.0
  0
LINE
  5
34D
330
1F
100
AcDbEntity
  8
1
  6
Continuous
 62
     4
100
AcDbLine
 10
211.223342512422
 20
-895.560072039507
 30
0.0
 11
207.693930747716
 21
-900.560072039507
 31
0.0
  0
LINE
  5
34E
330
1F
100
AcDbEntity
  8
1
  6
Continuous
 62
     4
100
AcDbLine
 10
205.046871924187
 20
-895.560072039507
 30
0.0
 11
206.81157780654
 21
-901.060072039507
 31
0.0
  0
LINE
  5
34F
330
1F
100
AcDbEntity
  8
1
  6
Continuous
 62
     4
100
AcDbLine
 10
206.81157780654
 20
-901.060072039507
 30
0.0
 11
209.017460159481
 21
-905.060072039507
 31
0.0
  0
LINE
  5
350
330
1F
100
AcDbEntity
  8
1
  6
Continuous
 62
     4
100
AcDbLine
 10
209.017460159481
 20
-905.060072039507
 30
0.0
 11
212.105695453599
 21
-908.560072039507
 31
0.0
  0
LINE
  5
351
330
1F
100
AcDbEntity
  8
1
  6
Continuous
 62
     4
100
AcDbLine
 10
205.046871924187
 20
-895.560072039507
 30
0.0
 11
205.046871924187
 21
-909.560072039507
 31
0.0
  0
LINE
  5
352
330
1F
100
AcDbEntity
  8
1
  6
Continuous
 62
     4
100
AcDbLine
 10
216.076283688893
 20
-897.560072039507
 30
0.0
 11
220.488048394775
 21
-897.560072039507
 31
0.0
  0
LINE
  5
353
330
1F
100
AcDbEntity
  8
1
  6
Continuous
 62
     4
100
AcDbLine
 10
218.282166041834
 20
-894.060072039507
 30
0.0
 11
218.282166041834
 21
-909.060072039507
 31
0.0
  0
LINE
  5
354
330
1F
100
AcDbEntity
  8
1
  6
Continuous
 62
     4
100
AcDbLine
 10
218.282166041834
 20
-909.060072039507
 30
0.0
 11
216.076283688893
 21
-908.060072039507
 31
0.0
  0
LINE
  5
355
330
1F
100
AcDbEntity
  8
1
  6
Continuous
 62
     4
100
AcDbLine
 10
216.076283688893
 20
-903.560072039507
 30
0.0
 11
220.929224865363
 21
-901.560072039507
 31
0.0
  0
LINE
  5
356
330
1F
100
AcDbEntity
  8
1
  6
Continuous
 62
     4
100
AcDbLine
 10
220.488048394775
 20
-896.560072039507
 30
0.0
 11
229.31157780654
 21
-896.560072039507
 31
0.0
  0
LINE
  5
357
330
1F
100
AcDbEntity
  8
1
  6
Continuous
 62
     4
100
AcDbLine
 10
223.576283688893
 20
-894.060072039507
 30
0.0
 11
223.135107218305
 21
-899.560072039507
 31
0.0
  0
LINE
  5
358
330
1F
100
AcDbEntity
  8
1
  6
Continuous
 62
     4
100
AcDbLine
 10
223.135107218305
 20
-899.560072039507
 30
0.0
 11
221.81157780654
 21
-904.060072039507
 31
0.0
  0
LINE
  5
359
330
1F
100
AcDbEntity
  8
1
  6
Continuous
 62
     4
100
AcDbLine
 10
221.81157780654
 20
-904.060072039507
 30
0.0
 11
219.605695453599
 21
-908.560072039507
 31
0.0
  0
LINE
  5
35A
330
1F
100
AcDbEntity
  8
1
  6
Continuous
 62
     4
100
AcDbLine
 10
223.135107218305
 20
-899.560072039507
 30
0.0
 11
228.870401335952
 21
-899.560072039507
 31
0.0
  0
LINE
  5
35B
330
1F
100
AcDbEntity
  8
1
  6
Continuous
 62
     4
100
AcDbLine
 10
228.870401335952
 20
-899.560072039507
 30
0.0
 11
227.546871924187
 21
-903.560072039507
 31
0.0
  0
LINE
  5
35C
330
1F
100
AcDbEntity
  8
1
  6
Continuous
 62
     4
100
AcDbLine
 10
227.546871924187
 20
-903.560072039507
 30
0.0
 11
224.899813100657
 21
-907.060072039507
 31
0.0
  0
LINE
  5
35D
330
1F
100
AcDbEntity
  8
1
  6
Continuous
 62
     4
100
AcDbLine
 10
224.899813100657
 20
-907.060072039507
 30
0.0
 11
220.929224865363
 21
-908.560072039507
 31
0.0
  0
LINE
  5
35E
330
1F
100
AcDbEntity
  8
1
  6
Continuous
 62
     4
100
AcDbLine
 10
223.135107218305
 20
-899.560072039507
 30
0.0
 11
224.458636630069
 21
-904.060072039507
 31
0.0
  0
LINE
  5
35F
330
1F
100
AcDbEntity
  8
1
  6
Continuous
 62
     4
100
AcDbLine
 10
224.458636630069
 20
-904.060072039507
 30
0.0
 11
226.223342512422
 21
-907.060072039507
 31
0.0
  0
LINE
  5
360
330
1F
100
AcDbEntity
  8
1
  6
Continuous
 62
     4
100
AcDbLine
 10
226.223342512422
 20
-907.060072039507
 30
0.0
 11
229.31157780654
 21
-909.060072039507
 31
0.0
  0
LINE
  5
361
330
1F
100
AcDbEntity
  8
1
  6
Continuous
 62
     4
100
AcDbLine
 10
234.16451898301
 20
-895.560072039507
 30
0.0
 11
235.488048394775
 21
-900.560072039507
 31
0.0
  0
LINE
  5
362
330
1F
100
AcDbEntity
  8
1
  6
Continuous
 62
     4
100
AcDbLine
 10
233.723342512422
 20
-906.060072039507
 30
0.0
 11
236.81157780654
 21
-901.060072039507
 31
0.0
  0
LINE
  5
363
330
1F
100
AcDbEntity
  8
1
  6
Continuous
 62
     4
100
AcDbLine
 10
236.81157780654
 20
-894.060072039507
 30
0.0
 11
236.81157780654
 21
-901.060072039507
 31
0.0
  0
LINE
  5
364
330
1F
100
AcDbEntity
  8
1
  6
Continuous
 62
     4
100
AcDbLine
 10
238.135107218305
 20
-898.060072039507
 30
0.0
 11
242.105695453599
 21
-898.060072039507
 31
0.0
  0
LINE
  5
365
330
1F
100
AcDbEntity
  8
1
  6
Continuous
 62
     4
100
AcDbLine
 10
242.105695453599
 20
-894.060072039507
 30
0.0
 11
242.105695453599
 21
-898.060072039507
 31
0.0
  0
LINE
  5
366
330
1F
100
AcDbEntity
  8
1
  6
Continuous
 62
     4
100
AcDbLine
 10
242.105695453599
 20
-898.060072039507
 30
0.0
 11
241.223342512422
 21
-902.560072039507
 31
0.0
  0
LINE
  5
367
330
1F
100
AcDbEntity
  8
1
  6
Continuous
 62
     4
100
AcDbLine
 10
241.223342512422
 20
-902.560072039507
 30
0.0
 11
239.899813100657
 21
-905.560072039507
 31
0.0
  0
LINE
  5
368
330
1F
100
AcDbEntity
  8
1
  6
Continuous
 62
     4
100
AcDbLine
 10
239.899813100657
 20
-905.560072039507
 30
0.0
 11
237.693930747716
 21
-909.060072039507
 31
0.0
  0
LINE
  5
369
330
1F
100
AcDbEntity
  8
1
  6
Continuous
 62
     4
100
AcDbLine
 10
242.105695453599
 20
-898.060072039507
 30
0.0
 11
243.429224865363
 21
-902.560072039507
 31
0.0
  0
LINE
  5
36A
330
1F
100
AcDbEntity
  8
1
  6
Continuous
 62
     4
100
AcDbLine
 10
243.429224865363
 20
-902.560072039507
 30
0.0
 11
244.752754277128
 21
-905.560072039507
 31
0.0
  0
LINE
  5
36B
330
1F
100
AcDbEntity
  8
1
  6
Continuous
 62
     4
100
AcDbLine
 10
244.752754277128
 20
-905.560072039507
 30
0.0
 11
246.958636630069
 21
-909.060072039507
 31
0.0
  0
LINE
  5
36C
330
1F
100
AcDbEntity
  8
1
  6
Continuous
 62
     4
100
AcDbLine
 10
244.31157780654
 20
-894.560072039507
 30
0.0
 11
245.635107218305
 21
-897.060072039507
 31
0.0
  0
LINE
  5
36D
330
1F
100
AcDbEntity
  8
1
  6
Continuous
 62
     4
100
AcDbLine
 10
242.105695453599
 20
-898.060072039507
 30
0.0
 11
246.517460159481
 21
-898.060072039507
 31
0.0
  0
LINE
  5
36E
330
1F
100
AcDbEntity
  8
1
  6
Continuous
 62
     4
100
AcDbLine
 10
236.81157780654
 20
-901.060072039507
 30
0.0
 11
236.81157780654
 21
-909.060072039507
 31
0.0
  0
LINE
  5
36F
330
1F
100
AcDbEntity
  8
1
  6
Continuous
 62
     4
100
AcDbLine
 10
253.576283688893
 20
-894.560072039507
 30
0.0
 11
252.252754277128
 21
-897.060072039507
 31
0.0
  0
LINE
  5
370
330
1F
100
AcDbEntity
  8
1
  6
Continuous
 62
     4
100
AcDbLine
 10
251.370401335952
 20
-897.060072039507
 30
0.0
 11
252.252754277128
 21
-897.060072039507
 31
0.0
  0
LINE
  5
371
330
1F
100
AcDbEntity
  8
1
  6
Continuous
 62
     4
100
AcDbLine
 10
252.252754277128
 20
-897.060072039507
 30
0.0
 11
257.546871924187
 21
-896.560072039507
 31
0.0
  0
LINE
  5
372
330
1F
100
AcDbEntity
  8
1
  6
Continuous
 62
     4
100
AcDbLine
 10
257.105695453599
 20
-895.060072039507
 30
0.0
 11
257.546871924187
 21
-896.560072039507
 31
0.0
  0
LINE
  5
373
330
1F
100
AcDbEntity
  8
1
  6
Continuous
 62
     4
100
AcDbLine
 10
257.546871924187
 20
-896.560072039507
 30
0.0
 11
257.546871924187
 21
-897.060072039507
 31
0.0
  0
LINE
  5
374
330
1F
100
AcDbEntity
  8
1
  6
Continuous
 62
     4
100
AcDbLine
 10
252.252754277128
 20
-904.560072039507
 30
0.0
 11
252.252754277128
 21
-902.060072039507
 31
0.0
  0
LINE
  5
375
330
1F
100
AcDbEntity
  8
1
  6
Continuous
 62
     4
100
AcDbLine
 10
252.252754277128
 20
-898.060072039507
 30
0.0
 11
257.546871924187
 21
-898.060072039507
 31
0.0
  0
LINE
  5
376
330
1F
100
AcDbEntity
  8
1
  6
Continuous
 62
     4
100
AcDbLine
 10
257.546871924187
 20
-898.060072039507
 30
0.0
 11
257.546871924187
 21
-900.060072039507
 31
0.0
  0
LINE
  5
377
330
1F
100
AcDbEntity
  8
1
  6
Continuous
 62
     4
100
AcDbLine
 10
257.546871924187
 20
-904.560072039507
 30
0.0
 11
255.782166041834
 21
-904.060072039507
 31
0.0
  0
LINE
  5
378
330
1F
100
AcDbEntity
  8
1
  6
Continuous
 62
     4
100
AcDbLine
 10
252.252754277128
 20
-900.060072039507
 30
0.0
 11
257.546871924187
 21
-900.060072039507
 31
0.0
  0
LINE
  5
379
330
1F
100
AcDbEntity
  8
1
  6
Continuous
 62
     4
100
AcDbLine
 10
252.252754277128
 20
-902.060072039507
 30
0.0
 11
257.546871924187
 21
-902.060072039507
 31
0.0
  0
LINE
  5
37A
330
1F
100
AcDbEntity
  8
1
  6
Continuous
 62
     4
100
AcDbLine
 10
263.723342512422
 20
-895.060072039507
 30
0.0
 11
259.31157780654
 21
-896.560072039507
 31
0.0
  0
LINE
  5
37B
330
1F
100
AcDbEntity
  8
1
  6
Continuous
 62
     4
100
AcDbLine
 10
259.31157780654
 20
-894.560072039507
 30
0.0
 11
259.31157780654
 21
-896.560072039507
 31
0.0
  0
LINE
  5
37C
330
1F
100
AcDbEntity
  8
1
  6
Continuous
 62
     4
100
AcDbLine
 10
259.31157780654
 20
-899.060072039507
 30
0.0
 11
264.605695453599
 21
-899.060072039507
 31
0.0
  0
LINE
  5
37D
330
1F
100
AcDbEntity
  8
1
  6
Continuous
 62
     4
100
AcDbLine
 10
264.605695453599
 20
-899.060072039507
 30
0.0
 11
264.605695453599
 21
-897.060072039507
 31
0.0
  0
LINE
  5
37E
330
1F
100
AcDbEntity
  8
1
  6
Continuous
 62
     4
100
AcDbLine
 10
263.723342512422
 20
-900.560072039507
 30
0.0
 11
259.31157780654
 21
-901.560072039507
 31
0.0
  0
LINE
  5
37F
330
1F
100
AcDbEntity
  8
1
  6
Continuous
 62
     4
100
AcDbLine
 10
259.31157780654
 20
-899.560072039507
 30
0.0
 11
259.31157780654
 21
-901.560072039507
 31
0.0
  0
LINE
  5
380
330
1F
100
AcDbEntity
  8
1
  6
Continuous
 62
     4
100
AcDbLine
 10
259.31157780654
 20
-904.560072039507
 30
0.0
 11
264.605695453599
 21
-904.560072039507
 31
0.0
  0
LINE
  5
381
330
1F
100
AcDbEntity
  8
1
  6
Continuous
 62
     4
100
AcDbLine
 10
264.605695453599
 20
-904.560072039507
 30
0.0
 11
264.605695453599
 21
-902.560072039507
 31
0.0
  0
LINE
  5
382
330
1F
100
AcDbEntity
  8
1
  6
Continuous
 62
     4
100
AcDbLine
 10
253.135107218305
 20
-905.060072039507
 30
0.0
 11
251.370401335952
 21
-908.560072039507
 31
0.0
  0
LINE
  5
383
330
1F
100
AcDbEntity
  8
1
  6
Continuous
 62
     4
100
AcDbLine
 10
255.340989571246
 20
-905.060072039507
 30
0.0
 11
255.340989571246
 21
-909.060072039507
 31
0.0
  0
LINE
  5
384
330
1F
100
AcDbEntity
  8
1
  6
Continuous
 62
     4
100
AcDbLine
 10
255.340989571246
 20
-909.060072039507
 30
0.0
 11
261.517460159481
 21
-909.060072039507
 31
0.0
  0
LINE
  5
385
330
1F
100
AcDbEntity
  8
1
  6
Continuous
 62
     4
100
AcDbLine
 10
261.517460159481
 20
-909.060072039507
 30
0.0
 11
261.517460159481
 21
-906.560072039507
 31
0.0
  0
LINE
  5
386
330
1F
100
AcDbEntity
  8
1
  6
Continuous
 62
     4
100
AcDbLine
 10
258.429224865363
 20
-905.060072039507
 30
0.0
 11
259.31157780654
 21
-907.560072039507
 31
0.0
  0
LINE
  5
387
330
1F
100
AcDbEntity
  8
1
  6
Continuous
 62
     4
100
AcDbLine
 10
261.958636630069
 20
-905.060072039507
 30
0.0
 11
264.16451898301
 21
-909.060072039507
 31
0.0
  0
LINE
  5
388
330
1F
100
AcDbEntity
  8
1
  6
Continuous
 62
     4
100
AcDbLine
 10
259.31157780654
 20
-901.560072039507
 30
0.0
 11
259.31157780654
 21
-904.560072039507
 31
0.0
  0
LINE
  5
389
330
1F
100
AcDbEntity
  8
1
  6
Continuous
 62
     4
100
AcDbLine
 10
259.31157780654
 20
-896.560072039507
 30
0.0
 11
259.31157780654
 21
-899.060072039507
 31
0.0
  0
LINE
  5
38A
330
1F
100
AcDbEntity
  8
1
  6
Continuous
 62
     4
100
AcDbLine
 10
257.546871924187
 20
-902.060072039507
 30
0.0
 11
257.546871924187
 21
-904.560072039507
 31
0.0
  0
LINE
  5
38B
330
1F
100
AcDbEntity
  8
1
  6
Continuous
 62
     4
100
AcDbLine
 10
252.252754277128
 20
-902.060072039507
 30
0.0
 11
252.252754277128
 21
-898.060072039507
 31
0.0
  0
LINE
  5
38C
330
1F
100
AcDbEntity
  8
1
  6
Continuous
 62
     4
100
AcDbLine
 10
257.546871924187
 20
-900.060072039507
 30
0.0
 11
257.546871924187
 21
-902.060072039507
 31
0.0
  0
LINE
  5
38D
330
1F
100
AcDbEntity
  8
1
  6
Continuous
 62
     4
100
AcDbLine
 10
268.576283688893
 20
-896.060072039507
 30
0.0
 11
269.899813100657
 21
-898.560072039507
 31
0.0
  0
LINE
  5
38E
330
1F
100
AcDbEntity
  8
1
  6
Continuous
 62
     4
100
AcDbLine
 10
269.899813100657
 20
-898.560072039507
 30
0.0
 11
270.340989571246
 21
-901.560072039507
 31
0.0
  0
LINE
  5
38F
330
1F
100
AcDbEntity
  8
1
  6
Continuous
 62
     4
100
AcDbLine
 10
270.340989571246
 20
-901.560072039507
 30
0.0
 11
269.899813100657
 21
-904.560072039507
 31
0.0
  0
LINE
  5
390
330
1F
100
AcDbEntity
  8
1
  6
Continuous
 62
     4
100
AcDbLine
 10
269.899813100657
 20
-904.560072039507
 30
0.0
 11
268.576283688893
 21
-907.060072039507
 31
0.0
  0
LINE
  5
391
330
1F
100
AcDbEntity
  8
1
  6
Continuous
 62
     4
100
AcDbLine
 10
269.243998837463
 20
606.959585923611
 30
0.0
 11
269.243998837463
 21
591.626252590277
 31
0.0
  0
LINE
  5
392
330
1F
100
AcDbEntity
  8
1
  6
Continuous
 62
     4
100
AcDbLine
 10
269.243998837463
 20
591.626252590277
 30
0.0
 11
269.832234131581
 21
589.626252590277
 31
0.0
  0
LINE
  5
393
330
1F
100
AcDbEntity
  8
1
  6
Continuous
 62
     4
100
AcDbLine
 10
269.832234131581
 20
589.626252590277
 30
0.0
 11
272.185175308051
 21
588.292919256944
 31
0.0
  0
LINE
  5
394
330
1F
100
AcDbEntity
  8
1
  6
Continuous
 62
     4
100
AcDbLine
 10
272.185175308051
 20
588.292919256944
 30
0.0
 11
274.538116484522
 21
587.626252590277
 31
0.0
  0
LINE
  5
395
330
1F
100
AcDbEntity
  8
1
  6
Continuous
 62
     4
100
AcDbLine
 10
274.538116484522
 20
587.626252590277
 30
0.0
 11
277.47929295511
 21
588.292919256944
 31
0.0
  0
LINE
  5
396
330
1F
100
AcDbEntity
  8
1
  6
Continuous
 62
     4
100
AcDbLine
 10
277.47929295511
 20
588.292919256944
 30
0.0
 11
279.243998837463
 21
589.626252590277
 31
0.0
  0
LINE
  5
397
330
1F
100
AcDbEntity
  8
1
  6
Continuous
 62
     4
100
AcDbLine
 10
279.243998837463
 20
589.626252590277
 30
0.0
 11
280.420469425699
 21
591.626252590277
 31
0.0
  0
LINE
  5
398
330
1F
100
AcDbEntity
  8
1
  6
Continuous
 62
     4
100
AcDbLine
 10
280.420469425699
 20
591.626252590277
 30
0.0
 11
280.420469425699
 21
606.959585923611
 31
0.0
  0
LINE
  5
399
330
1F
100
AcDbEntity
  8
1
  6
Continuous
 62
     4
100
AcDbLine
 10
286.302822366875
 20
597.626252590277
 30
0.0
 11
296.891057660993
 21
597.626252590277
 31
0.0
  0
LINE
  5
39A
330
1F
100
AcDbEntity
  8
1
  6
Continuous
 62
     4
100
AcDbLine
 10
302.773410602169
 20
588.292919256944
 30
0.0
 11
302.773410602169
 21
606.959585923611
 31
0.0
  0
LINE
  5
39B
330
1F
100
AcDbEntity
  8
1
  6
Continuous
 62
     4
100
AcDbLine
 10
302.773410602169
 20
606.959585923611
 30
0.0
 11
309.243998837463
 21
606.959585923611
 31
0.0
  0
LINE
  5
39C
330
1F
100
AcDbEntity
  8
1
  6
Continuous
 62
     4
100
AcDbLine
 10
309.243998837463
 20
606.959585923611
 30
0.0
 11
312.185175308051
 21
605.626252590277
 31
0.0
  0
LINE
  5
39D
330
1F
100
AcDbEntity
  8
1
  6
Continuous
 62
     4
100
AcDbLine
 10
312.185175308051
 20
605.626252590277
 30
0.0
 11
313.949881190404
 21
602.292919256944
 31
0.0
  0
LINE
  5
39E
330
1F
100
AcDbEntity
  8
1
  6
Continuous
 62
     4
100
AcDbLine
 10
313.949881190404
 20
602.292919256944
 30
0.0
 11
314.538116484522
 21
597.626252590277
 31
0.0
  0
LINE
  5
39F
330
1F
100
AcDbEntity
  8
1
  6
Continuous
 62
     4
100
AcDbLine
 10
314.538116484522
 20
597.626252590277
 30
0.0
 11
313.949881190404
 21
593.626252590277
 31
0.0
  0
LINE
  5
3A0
330
1F
100
AcDbEntity
  8
1
  6
Continuous
 62
     4
100
AcDbLine
 10
313.949881190404
 20
593.626252590277
 30
0.0
 11
312.185175308051
 21
589.626252590277
 31
0.0
  0
LINE
  5
3A1
330
1F
100
AcDbEntity
  8
1
  6
Continuous
 62
     4
100
AcDbLine
 10
312.185175308051
 20
589.626252590277
 30
0.0
 11
309.243998837463
 21
588.292919256944
 31
0.0
  0
LINE
  5
3A2
330
1F
100
AcDbEntity
  8
1
  6
Continuous
 62
     4
100
AcDbLine
 10
309.243998837463
 20
588.292919256944
 30
0.0
 11
302.773410602169
 21
588.292919256944
 31
0.0
  0
LINE
  5
3A3
330
1F
100
AcDbEntity
  8
1
  6
Continuous
 62
     4
100
AcDbLine
 10
331.596940013934
 20
603.626252590277
 30
0.0
 11
330.420469425699
 21
605.626252590277
 31
0.0
  0
LINE
  5
3A4
330
1F
100
AcDbEntity
  8
1
  6
Continuous
 62
     4
100
AcDbLine
 10
330.420469425699
 20
605.626252590277
 30
0.0
 11
328.067528249228
 21
606.959585923611
 31
0.0
  0
LINE
  5
3A5
330
1F
100
AcDbEntity
  8
1
  6
Continuous
 62
     4
100
AcDbLine
 10
328.067528249228
 20
606.959585923611
 30
0.0
 11
325.714587072757
 21
606.959585923611
 31
0.0
  0
LINE
  5
3A6
330
1F
100
AcDbEntity
  8
1
  6
Continuous
 62
     4
100
AcDbLine
 10
325.714587072757
 20
606.959585923611
 30
0.0
 11
323.949881190404
 21
606.959585923611
 31
0.0
  0
LINE
  5
3A7
330
1F
100
AcDbEntity
  8
1
  6
Continuous
 62
     4
100
AcDbLine
 10
323.949881190404
 20
606.959585923611
 30
0.0
 11
322.773410602169
 21
606.292919256944
 31
0.0
  0
LINE
  5
3A8
330
1F
100
AcDbEntity
  8
1
  6
Continuous
 62
     4
100
AcDbLine
 10
322.773410602169
 20
606.292919256944
 30
0.0
 11
321.008704719816
 21
604.959585923611
 31
0.0
  0
LINE
  5
3A9
330
1F
100
AcDbEntity
  8
1
  6
Continuous
 62
     4
100
AcDbLine
 10
321.008704719816
 20
604.959585923611
 30
0.0
 11
320.420469425699
 21
602.959585923611
 31
0.0
  0
LINE
  5
3AA
330
1F
100
AcDbEntity
  8
1
  6
Continuous
 62
     4
100
AcDbLine
 10
320.420469425699
 20
602.959585923611
 30
0.0
 11
321.008704719816
 21
600.292919256944
 31
0.0
  0
LINE
  5
3AB
330
1F
100
AcDbEntity
  8
1
  6
Continuous
 62
     4
100
AcDbLine
 10
321.008704719816
 20
600.292919256944
 30
0.0
 11
322.185175308051
 21
598.959585923611
 31
0.0
  0
LINE
  5
3AC
330
1F
100
AcDbEntity
  8
1
  6
Continuous
 62
     4
100
AcDbLine
 10
322.185175308051
 20
598.959585923611
 30
0.0
 11
323.361645896287
 21
598.292919256944
 31
0.0
  0
LINE
  5
3AD
330
1F
100
AcDbEntity
  8
1
  6
Continuous
 62
     4
100
AcDbLine
 10
323.361645896287
 20
598.292919256944
 30
0.0
 11
325.714587072757
 21
597.626252590277
 31
0.0
  0
LINE
  5
3AE
330
1F
100
AcDbEntity
  8
1
  6
Continuous
 62
     4
100
AcDbLine
 10
325.714587072757
 20
597.626252590277
 30
0.0
 11
328.067528249228
 21
597.626252590277
 31
0.0
  0
LINE
  5
3AF
330
1F
100
AcDbEntity
  8
1
  6
Continuous
 62
     4
100
AcDbLine
 10
328.067528249228
 20
597.626252590277
 30
0.0
 11
329.832234131581
 21
596.959585923611
 31
0.0
  0
LINE
  5
3B0
330
1F
100
AcDbEntity
  8
1
  6
Continuous
 62
     4
100
AcDbLine
 10
329.832234131581
 20
596.959585923611
 30
0.0
 11
331.596940013934
 21
594.959585923611
 31
0.0
  0
LINE
  5
3B1
330
1F
100
AcDbEntity
  8
1
  6
Continuous
 62
     4
100
AcDbLine
 10
331.596940013934
 20
594.959585923611
 30
0.0
 11
332.185175308051
 21
592.292919256944
 31
0.0
  0
LINE
  5
3B2
330
1F
100
AcDbEntity
  8
1
  6
Continuous
 62
     4
100
AcDbLine
 10
332.185175308051
 20
592.292919256944
 30
0.0
 11
331.596940013934
 21
589.626252590277
 31
0.0
  0
LINE
  5
3B3
330
1F
100
AcDbEntity
  8
1
  6
Continuous
 62
     4
100
AcDbLine
 10
331.596940013934
 20
589.626252590277
 30
0.0
 11
329.832234131581
 21
588.292919256944
 31
0.0
  0
LINE
  5
3B4
330
1F
100
AcDbEntity
  8
1
  6
Continuous
 62
     4
100
AcDbLine
 10
329.832234131581
 20
588.292919256944
 30
0.0
 11
328.067528249228
 21
587.626252590277
 31
0.0
  0
LINE
  5
3B5
330
1F
100
AcDbEntity
  8
1
  6
Continuous
 62
     4
100
AcDbLine
 10
328.067528249228
 20
587.626252590277
 30
0.0
 11
325.714587072757
 21
587.626252590277
 31
0.0
  0
LINE
  5
3B6
330
1F
100
AcDbEntity
  8
1
  6
Continuous
 62
     4
100
AcDbLine
 10
325.714587072757
 20
587.626252590277
 30
0.0
 11
323.361645896287
 21
588.292919256944
 31
0.0
  0
LINE
  5
3B7
330
1F
100
AcDbEntity
  8
1
  6
Continuous
 62
     4
100
AcDbLine
 10
323.361645896287
 20
588.292919256944
 30
0.0
 11
321.596940013934
 21
589.626252590277
 31
0.0
  0
LINE
  5
3B8
330
1F
100
AcDbEntity
  8
1
  6
Continuous
 62
     4
100
AcDbLine
 10
321.596940013934
 20
589.626252590277
 30
0.0
 11
320.420469425699
 21
592.292919256944
 31
0.0
  0
LINE
  5
3B9
330
1F
100
AcDbEntity
  8
1
  6
Continuous
 62
     4
100
AcDbLine
 10
338.655763543345
 20
604.292919256944
 30
0.0
 11
341.008704719816
 21
606.959585923611
 31
0.0
  0
LINE
  5
3BA
330
1F
100
AcDbEntity
  8
1
  6
Continuous
 62
     4
100
AcDbLine
 10
341.008704719816
 20
606.959585923611
 30
0.0
 11
344.538116484522
 21
607.626252590277
 31
0.0
  0
LINE
  5
3BB
330
1F
100
AcDbEntity
  8
1
  6
Continuous
 62
     4
100
AcDbLine
 10
344.538116484522
 20
607.626252590277
 30
0.0
 11
348.067528249228
 21
606.959585923611
 31
0.0
  0
LINE
  5
3BC
330
1F
100
AcDbEntity
  8
1
  6
Continuous
 62
     4
100
AcDbLine
 10
348.067528249228
 20
606.959585923611
 30
0.0
 11
349.832234131581
 21
604.292919256944
 31
0.0
  0
LINE
  5
3BD
330
1F
100
AcDbEntity
  8
1
  6
Continuous
 62
     4
100
AcDbLine
 10
349.832234131581
 20
604.292919256944
 30
0.0
 11
350.420469425699
 21
602.292919256944
 31
0.0
  0
LINE
  5
3BE
330
1F
100
AcDbEntity
  8
1
  6
Continuous
 62
     4
100
AcDbLine
 10
350.420469425699
 20
602.292919256944
 30
0.0
 11
349.243998837463
 21
599.626252590277
 31
0.0
  0
LINE
  5
3BF
330
1F
100
AcDbEntity
  8
1
  6
Continuous
 62
     4
100
AcDbLine
 10
349.243998837463
 20
599.626252590277
 30
0.0
 11
346.891057660993
 21
598.292919256944
 31
0.0
  0
LINE
  5
3C0
330
1F
100
AcDbEntity
  8
1
  6
Continuous
 62
     4
100
AcDbLine
 10
346.891057660993
 20
598.292919256944
 30
0.0
 11
343.949881190404
 21
598.292919256944
 31
0.0
  0
LINE
  5
3C1
330
1F
100
AcDbEntity
  8
1
  6
Continuous
 62
     4
100
AcDbLine
 10
343.949881190404
 20
598.292919256944
 30
0.0
 11
346.891057660993
 21
598.292919256944
 31
0.0
  0
LINE
  5
3C2
330
1F
100
AcDbEntity
  8
1
  6
Continuous
 62
     4
100
AcDbLine
 10
346.891057660993
 20
598.292919256944
 30
0.0
 11
349.832234131581
 21
596.292919256944
 31
0.0
  0
LINE
  5
3C3
330
1F
100
AcDbEntity
  8
1
  6
Continuous
 62
     4
100
AcDbLine
 10
349.832234131581
 20
596.292919256944
 30
0.0
 11
351.008704719816
 21
592.959585923611
 31
0.0
  0
LINE
  5
3C4
330
1F
100
AcDbEntity
  8
1
  6
Continuous
 62
     4
100
AcDbLine
 10
351.008704719816
 20
592.959585923611
 30
0.0
 11
349.832234131581
 21
589.626252590277
 31
0.0
  0
LINE
  5
3C5
330
1F
100
AcDbEntity
  8
1
  6
Continuous
 62
     4
100
AcDbLine
 10
349.832234131581
 20
589.626252590277
 30
0.0
 11
348.067528249228
 21
588.292919256944
 31
0.0
  0
LINE
  5
3C6
330
1F
100
AcDbEntity
  8
1
  6
Continuous
 62
     4
100
AcDbLine
 10
348.067528249228
 20
588.292919256944
 30
0.0
 11
344.538116484522
 21
587.626252590277
 31
0.0
  0
LINE
  5
3C7
330
1F
100
AcDbEntity
  8
1
  6
Continuous
 62
     4
100
AcDbLine
 10
344.538116484522
 20
587.626252590277
 30
0.0
 11
341.596940013934
 21
588.292919256944
 31
0.0
  0
LINE
  5
3C8
330
1F
100
AcDbEntity
  8
1
  6
Continuous
 62
     4
100
AcDbLine
 10
341.596940013934
 20
588.292919256944
 30
0.0
 11
339.243998837463
 21
589.626252590277
 31
0.0
  0
LINE
  5
3C9
330
1F
100
AcDbEntity
  8
1
  6
Continuous
 62
     4
100
AcDbLine
 10
339.243998837463
 20
589.626252590277
 30
0.0
 11
338.067528249228
 21
590.959585923611
 31
0.0
  0
LINE
  5
3CA
330
1F
100
AcDbEntity
  8
1
  6
Continuous
 62
     4
100
AcDbLine
 10
368.067528249228
 20
607.626252590277
 30
0.0
 11
358.067528249228
 21
607.626252590277
 31
0.0
  0
LINE
  5
3CB
330
1F
100
AcDbEntity
  8
1
  6
Continuous
 62
     4
100
AcDbLine
 10
358.067528249228
 20
607.626252590277
 30
0.0
 11
357.47929295511
 21
597.626252590277
 31
0.0
  0
LINE
  5
3CC
330
1F
100
AcDbEntity
  8
1
  6
Continuous
 62
     4
100
AcDbLine
 10
357.47929295511
 20
597.626252590277
 30
0.0
 11
360.420469425699
 21
599.626252590277
 31
0.0
  0
LINE
  5
3CD
330
1F
100
AcDbEntity
  8
1
  6
Continuous
 62
     4
100
AcDbLine
 10
360.420469425699
 20
599.626252590277
 30
0.0
 11
362.773410602169
 21
600.292919256944
 31
0.0
  0
LINE
  5
3CE
330
1F
100
AcDbEntity
  8
1
  6
Continuous
 62
     4
100
AcDbLine
 10
362.773410602169
 20
600.292919256944
 30
0.0
 11
365.12635177864
 21
599.626252590277
 31
0.0
  0
LINE
  5
3CF
330
1F
100
AcDbEntity
  8
1
  6
Continuous
 62
     4
100
AcDbLine
 10
365.12635177864
 20
599.626252590277
 30
0.0
 11
366.891057660993
 21
598.292919256944
 31
0.0
  0
LINE
  5
3D0
330
1F
100
AcDbEntity
  8
1
  6
Continuous
 62
     4
100
AcDbLine
 10
366.891057660993
 20
598.292919256944
 30
0.0
 11
368.067528249228
 21
596.959585923611
 31
0.0
  0
LINE
  5
3D1
330
1F
100
AcDbEntity
  8
1
  6
Continuous
 62
     4
100
AcDbLine
 10
368.067528249228
 20
596.959585923611
 30
0.0
 11
368.655763543345
 21
593.626252590277
 31
0.0
  0
LINE
  5
3D2
330
1F
100
AcDbEntity
  8
1
  6
Continuous
 62
     4
100
AcDbLine
 10
368.655763543345
 20
593.626252590277
 30
0.0
 11
368.067528249228
 21
590.292919256944
 31
0.0
  0
LINE
  5
3D3
330
1F
100
AcDbEntity
  8
1
  6
Continuous
 62
     4
100
AcDbLine
 10
368.067528249228
 20
590.292919256944
 30
0.0
 11
366.891057660993
 21
588.959585923611
 31
0.0
  0
LINE
  5
3D4
330
1F
100
AcDbEntity
  8
1
  6
Continuous
 62
     4
100
AcDbLine
 10
366.891057660993
 20
588.959585923611
 30
0.0
 11
365.12635177864
 21
587.626252590277
 31
0.0
  0
LINE
  5
3D5
330
1F
100
AcDbEntity
  8
1
  6
Continuous
 62
     4
100
AcDbLine
 10
365.12635177864
 20
587.626252590277
 30
0.0
 11
363.361645896287
 21
587.626252590277
 31
0.0
  0
LINE
  5
3D6
330
1F
100
AcDbEntity
  8
1
  6
Continuous
 62
     4
100
AcDbLine
 10
363.361645896287
 20
587.626252590277
 30
0.0
 11
361.008704719816
 21
587.626252590277
 31
0.0
  0
LINE
  5
3D7
330
1F
100
AcDbEntity
  8
1
  6
Continuous
 62
     4
100
AcDbLine
 10
361.008704719816
 20
587.626252590277
 30
0.0
 11
358.655763543345
 21
588.959585923611
 31
0.0
  0
LINE
  5
3D8
330
1F
100
AcDbEntity
  8
1
  6
Continuous
 62
     4
100
AcDbLine
 10
358.655763543345
 20
588.959585923611
 30
0.0
 11
356.891057660993
 21
590.292919256944
 31
0.0
  0
LINE
  5
3D9
330
1F
100
AcDbEntity
  8
1
  6
Continuous
 62
     4
100
AcDbLine
 10
72.6138490572611
 20
-996.715262441736
 30
0.0
 11
72.6138490572611
 21
-1012.04859577507
 31
0.0
  0
LINE
  5
3DA
330
1F
100
AcDbEntity
  8
1
  6
Continuous
 62
     4
100
AcDbLine
 10
72.6138490572611
 20
-1012.04859577507
 30
0.0
 11
73.2020843513788
 21
-1014.04859577507
 31
0.0
  0
LINE
  5
3DB
330
1F
100
AcDbEntity
  8
1
  6
Continuous
 62
     4
100
AcDbLine
 10
73.2020843513788
 20
-1014.04859577507
 30
0.0
 11
75.5550255278494
 21
-1015.3819291084
 31
0.0
  0
LINE
  5
3DC
330
1F
100
AcDbEntity
  8
1
  6
Continuous
 62
     4
100
AcDbLine
 10
75.5550255278494
 20
-1015.3819291084
 30
0.0
 11
77.90796670432
 21
-1016.04859577507
 31
0.0
  0
LINE
  5
3DD
330
1F
100
AcDbEntity
  8
1
  6
Continuous
 62
     4
100
AcDbLine
 10
77.90796670432
 20
-1016.04859577507
 30
0.0
 11
80.8491431749082
 21
-1015.3819291084
 31
0.0
  0
LINE
  5
3DE
330
1F
100
AcDbEntity
  8
1
  6
Continuous
 62
     4
100
AcDbLine
 10
80.8491431749082
 20
-1015.3819291084
 30
0.0
 11
82.6138490572611
 21
-1014.04859577507
 31
0.0
  0
LINE
  5
3DF
330
1F
100
AcDbEntity
  8
1
  6
Continuous
 62
     4
100
AcDbLine
 10
82.6138490572611
 20
-1014.04859577507
 30
0.0
 11
83.7903196454964
 21
-1012.04859577507
 31
0.0
  0
LINE
  5
3E0
330
1F
100
AcDbEntity
  8
1
  6
Continuous
 62
     4
100
AcDbLine
 10
83.7903196454964
 20
-1012.04859577507
 30
0.0
 11
83.7903196454964
 21
-996.715262441736
 31
0.0
  0
LINE
  5
3E1
330
1F
100
AcDbEntity
  8
1
  6
Continuous
 62
     4
100
AcDbLine
 10
89.6726725866729
 20
-1006.04859577507
 30
0.0
 11
100.260907880791
 21
-1006.04859577507
 31
0.0
  0
LINE
  5
3E2
330
1F
100
AcDbEntity
  8
1
  6
Continuous
 62
     4
100
AcDbLine
 10
106.143260821967
 20
-1015.3819291084
 30
0.0
 11
106.143260821967
 21
-996.715262441736
 31
0.0
  0
LINE
  5
3E3
330
1F
100
AcDbEntity
  8
1
  6
Continuous
 62
     4
100
AcDbLine
 10
106.143260821967
 20
-996.715262441736
 30
0.0
 11
112.613849057261
 21
-996.715262441736
 31
0.0
  0
LINE
  5
3E4
330
1F
100
AcDbEntity
  8
1
  6
Continuous
 62
     4
100
AcDbLine
 10
112.613849057261
 20
-996.715262441736
 30
0.0
 11
115.555025527849
 21
-998.048595775069
 31
0.0
  0
LINE
  5
3E5
330
1F
100
AcDbEntity
  8
1
  6
Continuous
 62
     4
100
AcDbLine
 10
115.555025527849
 20
-998.048595775069
 30
0.0
 11
117.319731410202
 21
-1001.3819291084
 31
0.0
  0
LINE
  5
3E6
330
1F
100
AcDbEntity
  8
1
  6
Continuous
 62
     4
100
AcDbLine
 10
117.319731410202
 20
-1001.3819291084
 30
0.0
 11
117.90796670432
 21
-1006.04859577507
 31
0.0
  0
LINE
  5
3E7
330
1F
100
AcDbEntity
  8
1
  6
Continuous
 62
     4
100
AcDbLine
 10
117.90796670432
 20
-1006.04859577507
 30
0.0
 11
117.319731410202
 21
-1010.04859577507
 31
0.0
  0
LINE
  5
3E8
330
1F
100
AcDbEntity
  8
1
  6
Continuous
 62
     4
100
AcDbLine
 10
117.319731410202
 20
-1010.04859577507
 30
0.0
 11
115.555025527849
 21
-1014.04859577507
 31
0.0
  0
LINE
  5
3E9
330
1F
100
AcDbEntity
  8
1
  6
Continuous
 62
     4
100
AcDbLine
 10
115.555025527849
 20
-1014.04859577507
 30
0.0
 11
112.613849057261
 21
-1015.3819291084
 31
0.0
  0
LINE
  5
3EA
330
1F
100
AcDbEntity
  8
1
  6
Continuous
 62
     4
100
AcDbLine
 10
112.613849057261
 20
-1015.3819291084
 30
0.0
 11
106.143260821967
 21
-1015.3819291084
 31
0.0
  0
LINE
  5
3EB
330
1F
100
AcDbEntity
  8
1
  6
Continuous
 62
     4
100
AcDbLine
 10
134.966790233732
 20
-1000.04859577507
 30
0.0
 11
133.790319645497
 21
-998.048595775069
 31
0.0
  0
LINE
  5
3EC
330
1F
100
AcDbEntity
  8
1
  6
Continuous
 62
     4
100
AcDbLine
 10
133.790319645497
 20
-998.048595775069
 30
0.0
 11
131.437378469026
 21
-996.715262441736
 31
0.0
  0
LINE
  5
3ED
330
1F
100
AcDbEntity
  8
1
  6
Continuous
 62
     4
100
AcDbLine
 10
131.437378469026
 20
-996.715262441736
 30
0.0
 11
129.084437292555
 21
-996.715262441736
 31
0.0
  0
LINE
  5
3EE
330
1F
100
AcDbEntity
  8
1
  6
Continuous
 62
     4
100
AcDbLine
 10
129.084437292555
 20
-996.715262441736
 30
0.0
 11
127.319731410202
 21
-996.715262441736
 31
0.0
  0
LINE
  5
3EF
330
1F
100
AcDbEntity
  8
1
  6
Continuous
 62
     4
100
AcDbLine
 10
127.319731410202
 20
-996.715262441736
 30
0.0
 11
126.143260821967
 21
-997.381929108402
 31
0.0
  0
LINE
  5
3F0
330
1F
100
AcDbEntity
  8
1
  6
Continuous
 62
     4
100
AcDbLine
 10
126.143260821967
 20
-997.381929108402
 30
0.0
 11
124.378554939614
 21
-998.715262441736
 31
0.0
  0
LINE
  5
3F1
330
1F
100
AcDbEntity
  8
1
  6
Continuous
 62
     4
100
AcDbLine
 10
124.378554939614
 20
-998.715262441736
 30
0.0
 11
123.790319645497
 21
-1000.71526244174
 31
0.0
  0
LINE
  5
3F2
330
1F
100
AcDbEntity
  8
1
  6
Continuous
 62
     4
100
AcDbLine
 10
123.790319645497
 20
-1000.71526244174
 30
0.0
 11
124.378554939614
 21
-1003.3819291084
 31
0.0
  0
LINE
  5
3F3
330
1F
100
AcDbEntity
  8
1
  6
Continuous
 62
     4
100
AcDbLine
 10
124.378554939614
 20
-1003.3819291084
 30
0.0
 11
125.555025527849
 21
-1004.71526244174
 31
0.0
  0
LINE
  5
3F4
330
1F
100
AcDbEntity
  8
1
  6
Continuous
 62
     4
100
AcDbLine
 10
125.555025527849
 20
-1004.71526244174
 30
0.0
 11
126.731496116085
 21
-1005.3819291084
 31
0.0
  0
LINE
  5
3F5
330
1F
100
AcDbEntity
  8
1
  6
Continuous
 62
     4
100
AcDbLine
 10
126.731496116085
 20
-1005.3819291084
 30
0.0
 11
129.084437292555
 21
-1006.04859577507
 31
0.0
  0
LINE
  5
3F6
330
1F
100
AcDbEntity
  8
1
  6
Continuous
 62
     4
100
AcDbLine
 10
129.084437292555
 20
-1006.04859577507
 30
0.0
 11
131.437378469026
 21
-1006.04859577507
 31
0.0
  0
LINE
  5
3F7
330
1F
100
AcDbEntity
  8
1
  6
Continuous
 62
     4
100
AcDbLine
 10
131.437378469026
 20
-1006.04859577507
 30
0.0
 11
133.202084351379
 21
-1006.71526244174
 31
0.0
  0
LINE
  5
3F8
330
1F
100
AcDbEntity
  8
1
  6
Continuous
 62
     4
100
AcDbLine
 10
133.202084351379
 20
-1006.71526244174
 30
0.0
 11
134.966790233732
 21
-1008.71526244174
 31
0.0
  0
LINE
  5
3F9
330
1F
100
AcDbEntity
  8
1
  6
Continuous
 62
     4
100
AcDbLine
 10
134.966790233732
 20
-1008.71526244174
 30
0.0
 11
135.555025527849
 21
-1011.3819291084
 31
0.0
  0
LINE
  5
3FA
330
1F
100
AcDbEntity
  8
1
  6
Continuous
 62
     4
100
AcDbLine
 10
135.555025527849
 20
-1011.3819291084
 30
0.0
 11
134.966790233732
 21
-1014.04859577507
 31
0.0
  0
LINE
  5
3FB
330
1F
100
AcDbEntity
  8
1
  6
Continuous
 62
     4
100
AcDbLine
 10
134.966790233732
 20
-1014.04859577507
 30
0.0
 11
133.202084351379
 21
-1015.3819291084
 31
0.0
  0
LINE
  5
3FC
330
1F
100
AcDbEntity
  8
1
  6
Continuous
 62
     4
100
AcDbLine
 10
133.202084351379
 20
-1015.3819291084
 30
0.0
 11
131.437378469026
 21
-1016.04859577507
 31
0.0
  0
LINE
  5
3FD
330
1F
100
AcDbEntity
  8
1
  6
Continuous
 62
     4
100
AcDbLine
 10
131.437378469026
 20
-1016.04859577507
 30
0.0
 11
129.084437292555
 21
-1016.04859577507
 31
0.0
  0
LINE
  5
3FE
330
1F
100
AcDbEntity
  8
1
  6
Continuous
 62
     4
100
AcDbLine
 10
129.084437292555
 20
-1016.04859577507
 30
0.0
 11
126.731496116085
 21
-1015.3819291084
 31
0.0
  0
LINE
  5
3FF
330
1F
100
AcDbEntity
  8
1
  6
Continuous
 62
     4
100
AcDbLine
 10
126.731496116085
 20
-1015.3819291084
 30
0.0
 11
124.966790233732
 21
-1014.04859577507
 31
0.0
  0
LINE
  5
400
330
1F
100
AcDbEntity
  8
1
  6
Continuous
 62
     4
100
AcDbLine
 10
124.966790233732
 20
-1014.04859577507
 30
0.0
 11
123.790319645497
 21
-1011.3819291084
 31
0.0
  0
LINE
  5
401
330
1F
100
AcDbEntity
  8
1
  6
Continuous
 62
     4
100
AcDbLine
 10
142.025613763144
 20
-999.381929108402
 30
0.0
 11
144.378554939614
 21
-996.715262441736
 31
0.0
  0
LINE
  5
402
330
1F
100
AcDbEntity
  8
1
  6
Continuous
 62
     4
100
AcDbLine
 10
144.378554939614
 20
-996.715262441736
 30
0.0
 11
147.90796670432
 21
-996.048595775069
 31
0.0
  0
LINE
  5
403
330
1F
100
AcDbEntity
  8
1
  6
Continuous
 62
     4
100
AcDbLine
 10
147.90796670432
 20
-996.048595775069
 30
0.0
 11
151.437378469026
 21
-996.715262441736
 31
0.0
  0
LINE
  5
404
330
1F
100
AcDbEntity
  8
1
  6
Continuous
 62
     4
100
AcDbLine
 10
151.437378469026
 20
-996.715262441736
 30
0.0
 11
153.202084351379
 21
-999.381929108402
 31
0.0
  0
LINE
  5
405
330
1F
100
AcDbEntity
  8
1
  6
Continuous
 62
     4
100
AcDbLine
 10
153.202084351379
 20
-999.381929108402
 30
0.0
 11
153.790319645497
 21
-1001.3819291084
 31
0.0
  0
LINE
  5
406
330
1F
100
AcDbEntity
  8
1
  6
Continuous
 62
     4
100
AcDbLine
 10
153.790319645497
 20
-1001.3819291084
 30
0.0
 11
152.613849057261
 21
-1004.04859577507
 31
0.0
  0
LINE
  5
407
330
1F
100
AcDbEntity
  8
1
  6
Continuous
 62
     4
100
AcDbLine
 10
152.613849057261
 20
-1004.04859577507
 30
0.0
 11
150.260907880791
 21
-1005.3819291084
 31
0.0
  0
LINE
  5
408
330
1F
100
AcDbEntity
  8
1
  6
Continuous
 62
     4
100
AcDbLine
 10
150.260907880791
 20
-1005.3819291084
 30
0.0
 11
147.319731410202
 21
-1005.3819291084
 31
0.0
  0
LINE
  5
409
330
1F
100
AcDbEntity
  8
1
  6
Continuous
 62
     4
100
AcDbLine
 10
147.319731410202
 20
-1005.3819291084
 30
0.0
 11
150.260907880791
 21
-1005.3819291084
 31
0.0
  0
LINE
  5
40A
330
1F
100
AcDbEntity
  8
1
  6
Continuous
 62
     4
100
AcDbLine
 10
150.260907880791
 20
-1005.3819291084
 30
0.0
 11
153.202084351379
 21
-1007.3819291084
 31
0.0
  0
LINE
  5
40B
330
1F
100
AcDbEntity
  8
1
  6
Continuous
 62
     4
100
AcDbLine
 10
153.202084351379
 20
-1007.3819291084
 30
0.0
 11
154.378554939614
 21
-1010.71526244174
 31
0.0
  0
LINE
  5
40C
330
1F
100
AcDbEntity
  8
1
  6
Continuous
 62
     4
100
AcDbLine
 10
154.378554939614
 20
-1010.71526244174
 30
0.0
 11
153.202084351379
 21
-1014.04859577507
 31
0.0
  0
LINE
  5
40D
330
1F
100
AcDbEntity
  8
1
  6
Continuous
 62
     4
100
AcDbLine
 10
153.202084351379
 20
-1014.04859577507
 30
0.0
 11
151.437378469026
 21
-1015.3819291084
 31
0.0
  0
LINE
  5
40E
330
1F
100
AcDbEntity
  8
1
  6
Continuous
 62
     4
100
AcDbLine
 10
151.437378469026
 20
-1015.3819291084
 30
0.0
 11
147.90796670432
 21
-1016.04859577507
 31
0.0
  0
LINE
  5
40F
330
1F
100
AcDbEntity
  8
1
  6
Continuous
 62
     4
100
AcDbLine
 10
147.90796670432
 20
-1016.04859577507
 30
0.0
 11
144.966790233732
 21
-1015.3819291084
 31
0.0
  0
LINE
  5
410
330
1F
100
AcDbEntity
  8
1
  6
Continuous
 62
     4
100
AcDbLine
 10
144.966790233732
 20
-1015.3819291084
 30
0.0
 11
142.613849057261
 21
-1014.04859577507
 31
0.0
  0
LINE
  5
411
330
1F
100
AcDbEntity
  8
1
  6
Continuous
 62
     4
100
AcDbLine
 10
142.613849057261
 20
-1014.04859577507
 30
0.0
 11
141.437378469026
 21
-1012.71526244174
 31
0.0
  0
LINE
  5
412
330
1F
100
AcDbEntity
  8
1
  6
Continuous
 62
     4
100
AcDbLine
 10
171.437378469026
 20
-996.048595775069
 30
0.0
 11
161.437378469026
 21
-996.048595775069
 31
0.0
  0
LINE
  5
413
330
1F
100
AcDbEntity
  8
1
  6
Continuous
 62
     4
100
AcDbLine
 10
161.437378469026
 20
-996.048595775069
 30
0.0
 11
160.849143174908
 21
-1006.04859577507
 31
0.0
  0
LINE
  5
414
330
1F
100
AcDbEntity
  8
1
  6
Continuous
 62
     4
100
AcDbLine
 10
160.849143174908
 20
-1006.04859577507
 30
0.0
 11
163.790319645497
 21
-1004.04859577507
 31
0.0
  0
LINE
  5
415
330
1F
100
AcDbEntity
  8
1
  6
Continuous
 62
     4
100
AcDbLine
 10
163.790319645497
 20
-1004.04859577507
 30
0.0
 11
166.143260821967
 21
-1003.3819291084
 31
0.0
  0
LINE
  5
416
330
1F
100
AcDbEntity
  8
1
  6
Continuous
 62
     4
100
AcDbLine
 10
166.143260821967
 20
-1003.3819291084
 30
0.0
 11
168.496201998438
 21
-1004.04859577507
 31
0.0
  0
LINE
  5
417
330
1F
100
AcDbEntity
  8
1
  6
Continuous
 62
     4
100
AcDbLine
 10
168.496201998438
 20
-1004.04859577507
 30
0.0
 11
170.260907880791
 21
-1005.3819291084
 31
0.0
  0
LINE
  5
418
330
1F
100
AcDbEntity
  8
1
  6
Continuous
 62
     4
100
AcDbLine
 10
170.260907880791
 20
-1005.3819291084
 30
0.0
 11
171.437378469026
 21
-1006.71526244174
 31
0.0
  0
LINE
  5
419
330
1F
100
AcDbEntity
  8
1
  6
Continuous
 62
     4
100
AcDbLine
 10
171.437378469026
 20
-1006.71526244174
 30
0.0
 11
172.025613763144
 21
-1010.04859577507
 31
0.0
  0
LINE
  5
41A
330
1F
100
AcDbEntity
  8
1
  6
Continuous
 62
     4
100
AcDbLine
 10
172.025613763144
 20
-1010.04859577507
 30
0.0
 11
171.437378469026
 21
-1013.3819291084
 31
0.0
  0
LINE
  5
41B
330
1F
100
AcDbEntity
  8
1
  6
Continuous
 62
     4
100
AcDbLine
 10
171.437378469026
 20
-1013.3819291084
 30
0.0
 11
170.260907880791
 21
-1014.71526244174
 31
0.0
  0
LINE
  5
41C
330
1F
100
AcDbEntity
  8
1
  6
Continuous
 62
     4
100
AcDbLine
 10
170.260907880791
 20
-1014.71526244174
 30
0.0
 11
168.496201998438
 21
-1016.04859577507
 31
0.0
  0
LINE
  5
41D
330
1F
100
AcDbEntity
  8
1
  6
Continuous
 62
     4
100
AcDbLine
 10
168.496201998438
 20
-1016.04859577507
 30
0.0
 11
166.731496116085
 21
-1016.04859577507
 31
0.0
  0
LINE
  5
41E
330
1F
100
AcDbEntity
  8
1
  6
Continuous
 62
     4
100
AcDbLine
 10
166.731496116085
 20
-1016.04859577507
 30
0.0
 11
164.378554939614
 21
-1016.04859577507
 31
0.0
  0
LINE
  5
41F
330
1F
100
AcDbEntity
  8
1
  6
Continuous
 62
     4
100
AcDbLine
 10
164.378554939614
 20
-1016.04859577507
 30
0.0
 11
162.025613763144
 21
-1014.71526244174
 31
0.0
  0
LINE
  5
420
330
1F
100
AcDbEntity
  8
1
  6
Continuous
 62
     4
100
AcDbLine
 10
162.025613763144
 20
-1014.71526244174
 30
0.0
 11
160.260907880791
 21
-1013.3819291084
 31
0.0
  0
LINE
  5
421
330
1F
100
AcDbEntity
  8
1
  6
Continuous
 62
     4
100
AcDbLine
 10
177.90796670432
 20
-1016.04859577507
 30
0.0
 11
196.731496116085
 21
-1016.04859577507
 31
0.0
  0
LINE
  5
422
330
1F
100
AcDbEntity
  8
1
  6
Continuous
 62
     4
100
AcDbLine
 10
209.084437292555
 20
-996.048595775069
 30
0.0
 11
205.555025527849
 21
-997.381929108402
 31
0.0
  0
LINE
  5
423
330
1F
100
AcDbEntity
  8
1
  6
Continuous
 62
     4
100
AcDbLine
 10
205.555025527849
 20
-997.381929108402
 30
0.0
 11
203.790319645497
 21
-1000.71526244174
 31
0.0
  0
LINE
  5
424
330
1F
100
AcDbEntity
  8
1
  6
Continuous
 62
     4
100
AcDbLine
 10
203.790319645497
 20
-1000.71526244174
 30
0.0
 11
202.613849057261
 21
-1006.04859577507
 31
0.0
  0
LINE
  5
425
330
1F
100
AcDbEntity
  8
1
  6
Continuous
 62
     4
100
AcDbLine
 10
202.613849057261
 20
-1006.04859577507
 30
0.0
 11
203.790319645497
 21
-1011.3819291084
 31
0.0
  0
LINE
  5
426
330
1F
100
AcDbEntity
  8
1
  6
Continuous
 62
     4
100
AcDbLine
 10
203.790319645497
 20
-1011.3819291084
 30
0.0
 11
205.555025527849
 21
-1014.71526244174
 31
0.0
  0
LINE
  5
427
330
1F
100
AcDbEntity
  8
1
  6
Continuous
 62
     4
100
AcDbLine
 10
205.555025527849
 20
-1014.71526244174
 30
0.0
 11
209.084437292555
 21
-1016.04859577507
 31
0.0
  0
LINE
  5
428
330
1F
100
AcDbEntity
  8
1
  6
Continuous
 62
     4
100
AcDbLine
 10
209.084437292555
 20
-1016.04859577507
 30
0.0
 11
212.613849057261
 21
-1014.71526244174
 31
0.0
  0
LINE
  5
429
330
1F
100
AcDbEntity
  8
1
  6
Continuous
 62
     4
100
AcDbLine
 10
212.613849057261
 20
-1014.71526244174
 30
0.0
 11
214.966790233732
 21
-1011.3819291084
 31
0.0
  0
LINE
  5
42A
330
1F
100
AcDbEntity
  8
1
  6
Continuous
 62
     4
100
AcDbLine
 10
214.966790233732
 20
-1011.3819291084
 30
0.0
 11
215.555025527849
 21
-1006.04859577507
 31
0.0
  0
LINE
  5
42B
330
1F
100
AcDbEntity
  8
1
  6
Continuous
 62
     4
100
AcDbLine
 10
215.555025527849
 20
-1006.04859577507
 30
0.0
 11
214.966790233732
 21
-1000.71526244174
 31
0.0
  0
LINE
  5
42C
330
1F
100
AcDbEntity
  8
1
  6
Continuous
 62
     4
100
AcDbLine
 10
214.966790233732
 20
-1000.71526244174
 30
0.0
 11
212.613849057261
 21
-997.381929108402
 31
0.0
  0
LINE
  5
42D
330
1F
100
AcDbEntity
  8
1
  6
Continuous
 62
     4
100
AcDbLine
 10
212.613849057261
 20
-997.381929108402
 30
0.0
 11
209.084437292555
 21
-996.048595775069
 31
0.0
  0
LINE
  5
42E
330
1F
100
AcDbEntity
  8
1
  6
Continuous
 62
     4
100
AcDbLine
 10
227.90796670432
 20
-996.048595775069
 30
0.0
 11
224.378554939614
 21
-997.381929108402
 31
0.0
  0
LINE
  5
42F
330
1F
100
AcDbEntity
  8
1
  6
Continuous
 62
     4
100
AcDbLine
 10
224.378554939614
 20
-997.381929108402
 30
0.0
 11
222.613849057261
 21
-1000.71526244174
 31
0.0
  0
LINE
  5
430
330
1F
100
AcDbEntity
  8
1
  6
Continuous
 62
     4
100
AcDbLine
 10
222.613849057261
 20
-1000.71526244174
 30
0.0
 11
221.437378469026
 21
-1006.04859577507
 31
0.0
  0
LINE
  5
431
330
1F
100
AcDbEntity
  8
1
  6
Continuous
 62
     4
100
AcDbLine
 10
221.437378469026
 20
-1006.04859577507
 30
0.0
 11
222.613849057261
 21
-1011.3819291084
 31
0.0
  0
LINE
  5
432
330
1F
100
AcDbEntity
  8
1
  6
Continuous
 62
     4
100
AcDbLine
 10
222.613849057261
 20
-1011.3819291084
 30
0.0
 11
224.378554939614
 21
-1014.71526244174
 31
0.0
  0
LINE
  5
433
330
1F
100
AcDbEntity
  8
1
  6
Continuous
 62
     4
100
AcDbLine
 10
224.378554939614
 20
-1014.71526244174
 30
0.0
 11
227.90796670432
 21
-1016.04859577507
 31
0.0
  0
LINE
  5
434
330
1F
100
AcDbEntity
  8
1
  6
Continuous
 62
     4
100
AcDbLine
 10
227.90796670432
 20
-1016.04859577507
 30
0.0
 11
231.437378469026
 21
-1014.71526244174
 31
0.0
  0
LINE
  5
435
330
1F
100
AcDbEntity
  8
1
  6
Continuous
 62
     4
100
AcDbLine
 10
231.437378469026
 20
-1014.71526244174
 30
0.0
 11
233.790319645497
 21
-1011.3819291084
 31
0.0
  0
LINE
  5
436
330
1F
100
AcDbEntity
  8
1
  6
Continuous
 62
     4
100
AcDbLine
 10
233.790319645497
 20
-1011.3819291084
 30
0.0
 11
234.378554939614
 21
-1006.04859577507
 31
0.0
  0
LINE
  5
437
330
1F
100
AcDbEntity
  8
1
  6
Continuous
 62
     4
100
AcDbLine
 10
234.378554939614
 20
-1006.04859577507
 30
0.0
 11
233.790319645497
 21
-1000.71526244174
 31
0.0
  0
LINE
  5
438
330
1F
100
AcDbEntity
  8
1
  6
Continuous
 62
     4
100
AcDbLine
 10
233.790319645497
 20
-1000.71526244174
 30
0.0
 11
231.437378469026
 21
-997.381929108402
 31
0.0
  0
LINE
  5
439
330
1F
100
AcDbEntity
  8
1
  6
Continuous
 62
     4
100
AcDbLine
 10
231.437378469026
 20
-997.381929108402
 30
0.0
 11
227.90796670432
 21
-996.048595775069
 31
0.0
  0
LINE
  5
43A
330
1F
100
AcDbEntity
  8
1
  6
Continuous
 62
     4
100
AcDbLine
 10
250.849143174908
 20
-1016.04859577507
 30
0.0
 11
250.849143174908
 21
-996.048595775069
 31
0.0
  0
LINE
  5
43B
330
1F
100
AcDbEntity
  8
1
  6
Continuous
 62
     4
100
AcDbLine
 10
250.849143174908
 20
-996.048595775069
 30
0.0
 11
240.260907880791
 21
-1011.3819291084
 31
0.0
  0
LINE
  5
43C
330
1F
100
AcDbEntity
  8
1
  6
Continuous
 62
     4
100
AcDbLine
 10
240.260907880791
 20
-1011.3819291084
 30
0.0
 11
254.378554939614
 21
-1011.3819291084
 31
0.0
  0
LINE
  5
43D
330
1F
100
AcDbEntity
  8
1
  6
Continuous
 62
     4
100
AcDbLine
 10
271.437378469026
 20
-1002.04859577507
 30
0.0
 11
270.849143174908
 21
-998.715262441736
 31
0.0
  0
LINE
  5
43E
330
1F
100
AcDbEntity
  8
1
  6
Continuous
 62
     4
100
AcDbLine
 10
270.849143174908
 20
-998.715262441736
 30
0.0
 11
269.084437292555
 21
-996.715262441736
 31
0.0
  0
LINE
  5
43F
330
1F
100
AcDbEntity
  8
1
  6
Continuous
 62
     4
100
AcDbLine
 10
269.084437292555
 20
-996.715262441736
 30
0.0
 11
266.143260821967
 21
-996.048595775069
 31
0.0
  0
LINE
  5
440
330
1F
100
AcDbEntity
  8
1
  6
Continuous
 62
     4
100
AcDbLine
 10
266.143260821967
 20
-996.048595775069
 30
0.0
 11
263.202084351379
 21
-996.715262441736
 31
0.0
  0
LINE
  5
441
330
1F
100
AcDbEntity
  8
1
  6
Continuous
 62
     4
100
AcDbLine
 10
263.202084351379
 20
-996.715262441736
 30
0.0
 11
261.437378469026
 21
-998.715262441736
 31
0.0
  0
LINE
  5
442
330
1F
100
AcDbEntity
  8
1
  6
Continuous
 62
     4
100
AcDbLine
 10
261.437378469026
 20
-998.715262441736
 30
0.0
 11
260.260907880791
 21
-1002.04859577507
 31
0.0
  0
LINE
  5
443
330
1F
100
AcDbEntity
  8
1
  6
Continuous
 62
     4
100
AcDbLine
 10
260.260907880791
 20
-1002.04859577507
 30
0.0
 11
260.849143174908
 21
-1004.71526244174
 31
0.0
  0
LINE
  5
444
330
1F
100
AcDbEntity
  8
1
  6
Continuous
 62
     4
100
AcDbLine
 10
260.849143174908
 20
-1004.71526244174
 30
0.0
 11
261.437378469026
 21
-1006.04859577507
 31
0.0
  0
LINE
  5
445
330
1F
100
AcDbEntity
  8
1
  6
Continuous
 62
     4
100
AcDbLine
 10
261.437378469026
 20
-1006.04859577507
 30
0.0
 11
263.790319645496
 21
-1008.04859577507
 31
0.0
  0
LINE
  5
446
330
1F
100
AcDbEntity
  8
1
  6
Continuous
 62
     4
100
AcDbLine
 10
263.790319645496
 20
-1008.04859577507
 30
0.0
 11
266.143260821967
 21
-1008.71526244174
 31
0.0
  0
LINE
  5
447
330
1F
100
AcDbEntity
  8
1
  6
Continuous
 62
     4
100
AcDbLine
 10
266.143260821967
 20
-1008.71526244174
 30
0.0
 11
268.496201998438
 21
-1008.04859577507
 31
0.0
  0
LINE
  5
448
330
1F
100
AcDbEntity
  8
1
  6
Continuous
 62
     4
100
AcDbLine
 10
268.496201998438
 20
-1008.04859577507
 30
0.0
 11
270.260907880791
 21
-1006.04859577507
 31
0.0
  0
LINE
  5
449
330
1F
100
AcDbEntity
  8
1
  6
Continuous
 62
     4
100
AcDbLine
 10
270.260907880791
 20
-1006.04859577507
 30
0.0
 11
271.437378469026
 21
-1002.04859577507
 31
0.0
  0
LINE
  5
44A
330
1F
100
AcDbEntity
  8
1
  6
Continuous
 62
     4
100
AcDbLine
 10
271.437378469026
 20
-1002.04859577507
 30
0.0
 11
271.437378469026
 21
-1010.04859577507
 31
0.0
  0
LINE
  5
44B
330
1F
100
AcDbEntity
  8
1
  6
Continuous
 62
     4
100
AcDbLine
 10
271.437378469026
 20
-1010.04859577507
 30
0.0
 11
270.849143174908
 21
-1012.71526244174
 31
0.0
  0
LINE
  5
44C
330
1F
100
AcDbEntity
  8
1
  6
Continuous
 62
     4
100
AcDbLine
 10
270.849143174908
 20
-1012.71526244174
 30
0.0
 11
269.084437292555
 21
-1014.71526244174
 31
0.0
  0
LINE
  5
44D
330
1F
100
AcDbEntity
  8
1
  6
Continuous
 62
     4
100
AcDbLine
 10
269.084437292555
 20
-1014.71526244174
 30
0.0
 11
266.143260821967
 21
-1016.04859577507
 31
0.0
  0
LINE
  5
44E
330
1F
100
AcDbEntity
  8
1
  6
Continuous
 62
     4
100
AcDbLine
 10
266.143260821967
 20
-1016.04859577507
 30
0.0
 11
262.025613763144
 21
-1014.71526244174
 31
0.0
  0
LINE
  5
44F
330
1F
100
AcDbEntity
  8
1
  6
Continuous
 62
     4
100
AcDbLine
 10
262.025613763144
 20
-1014.71526244174
 30
0.0
 11
260.260907880791
 21
-1012.71526244174
 31
0.0
  0
LINE
  5
450
330
1F
100
AcDbEntity
  8
1
  6
Continuous
 62
     4
100
AcDbLine
 10
288.496201998438
 20
-1000.04859577507
 30
0.0
 11
287.319731410202
 21
-998.048595775069
 31
0.0
  0
LINE
  5
451
330
1F
100
AcDbEntity
  8
1
  6
Continuous
 62
     4
100
AcDbLine
 10
287.319731410202
 20
-998.048595775069
 30
0.0
 11
284.966790233732
 21
-996.715262441736
 31
0.0
  0
LINE
  5
452
330
1F
100
AcDbEntity
  8
1
  6
Continuous
 62
     4
100
AcDbLine
 10
284.966790233732
 20
-996.715262441736
 30
0.0
 11
282.613849057261
 21
-996.715262441736
 31
0.0
  0
LINE
  5
453
330
1F
100
AcDbEntity
  8
1
  6
Continuous
 62
     4
100
AcDbLine
 10
282.613849057261
 20
-996.715262441736
 30
0.0
 11
280.849143174908
 21
-996.715262441736
 31
0.0
  0
LINE
  5
454
330
1F
100
AcDbEntity
  8
1
  6
Continuous
 62
     4
100
AcDbLine
 10
280.849143174908
 20
-996.715262441736
 30
0.0
 11
279.672672586673
 21
-997.381929108402
 31
0.0
  0
LINE
  5
455
330
1F
100
AcDbEntity
  8
1
  6
Continuous
 62
     4
100
AcDbLine
 10
279.672672586673
 20
-997.381929108402
 30
0.0
 11
277.90796670432
 21
-998.715262441736
 31
0.0
  0
LINE
  5
456
330
1F
100
AcDbEntity
  8
1
  6
Continuous
 62
     4
100
AcDbLine
 10
277.90796670432
 20
-998.715262441736
 30
0.0
 11
277.319731410202
 21
-1000.71526244174
 31
0.0
  0
LINE
  5
457
330
1F
100
AcDbEntity
  8
1
  6
Continuous
 62
     4
100
AcDbLine
 10
277.319731410202
 20
-1000.71526244174
 30
0.0
 11
277.90796670432
 21
-1003.3819291084
 31
0.0
  0
LINE
  5
458
330
1F
100
AcDbEntity
  8
1
  6
Continuous
 62
     4
100
AcDbLine
 10
277.90796670432
 20
-1003.3819291084
 30
0.0
 11
279.084437292555
 21
-1004.71526244174
 31
0.0
  0
LINE
  5
459
330
1F
100
AcDbEntity
  8
1
  6
Continuous
 62
     4
100
AcDbLine
 10
279.084437292555
 20
-1004.71526244174
 30
0.0
 11
280.260907880791
 21
-1005.3819291084
 31
0.0
  0
LINE
  5
45A
330
1F
100
AcDbEntity
  8
1
  6
Continuous
 62
     4
100
AcDbLine
 10
280.260907880791
 20
-1005.3819291084
 30
0.0
 11
282.613849057261
 21
-1006.04859577507
 31
0.0
  0
LINE
  5
45B
330
1F
100
AcDbEntity
  8
1
  6
Continuous
 62
     4
100
AcDbLine
 10
282.613849057261
 20
-1006.04859577507
 30
0.0
 11
284.966790233732
 21
-1006.04859577507
 31
0.0
  0
LINE
  5
45C
330
1F
100
AcDbEntity
  8
1
  6
Continuous
 62
     4
100
AcDbLine
 10
284.966790233732
 20
-1006.04859577507
 30
0.0
 11
286.731496116085
 21
-1006.71526244174
 31
0.0
  0
LINE
  5
45D
330
1F
100
AcDbEntity
  8
1
  6
Continuous
 62
     4
100
AcDbLine
 10
286.731496116085
 20
-1006.71526244174
 30
0.0
 11
288.496201998438
 21
-1008.71526244174
 31
0.0
  0
LINE
  5
45E
330
1F
100
AcDbEntity
  8
1
  6
Continuous
 62
     4
100
AcDbLine
 10
288.496201998438
 20
-1008.71526244174
 30
0.0
 11
289.084437292555
 21
-1011.3819291084
 31
0.0
  0
LINE
  5
45F
330
1F
100
AcDbEntity
  8
1
  6
Continuous
 62
     4
100
AcDbLine
 10
289.084437292555
 20
-1011.3819291084
 30
0.0
 11
288.496201998438
 21
-1014.04859577507
 31
0.0
  0
LINE
  5
460
330
1F
100
AcDbEntity
  8
1
  6
Continuous
 62
     4
100
AcDbLine
 10
288.496201998438
 20
-1014.04859577507
 30
0.0
 11
286.731496116085
 21
-1015.3819291084
 31
0.0
  0
LINE
  5
461
330
1F
100
AcDbEntity
  8
1
  6
Continuous
 62
     4
100
AcDbLine
 10
286.731496116085
 20
-1015.3819291084
 30
0.0
 11
284.966790233732
 21
-1016.04859577507
 31
0.0
  0
LINE
  5
462
330
1F
100
AcDbEntity
  8
1
  6
Continuous
 62
     4
100
AcDbLine
 10
284.966790233732
 20
-1016.04859577507
 30
0.0
 11
282.613849057261
 21
-1016.04859577507
 31
0.0
  0
LINE
  5
463
330
1F
100
AcDbEntity
  8
1
  6
Continuous
 62
     4
100
AcDbLine
 10
282.613849057261
 20
-1016.04859577507
 30
0.0
 11
280.260907880791
 21
-1015.3819291084
 31
0.0
  0
LINE
  5
464
330
1F
100
AcDbEntity
  8
1
  6
Continuous
 62
     4
100
AcDbLine
 10
280.260907880791
 20
-1015.3819291084
 30
0.0
 11
278.496201998438
 21
-1014.04859577507
 31
0.0
  0
LINE
  5
465
330
1F
100
AcDbEntity
  8
1
  6
Continuous
 62
     4
100
AcDbLine
 10
278.496201998438
 20
-1014.04859577507
 30
0.0
 11
277.319731410202
 21
-1011.3819291084
 31
0.0
  0
LINE
  5
466
330
1F
100
AcDbEntity
  8
1
  6
Continuous
 62
     4
100
AcDbLine
 10
306.143260821967
 20
-996.048595775069
 30
0.0
 11
294.966790233732
 21
-996.048595775069
 31
0.0
  0
LINE
  5
467
330
1F
100
AcDbEntity
  8
1
  6
Continuous
 62
     4
100
AcDbLine
 10
294.966790233732
 20
-996.048595775069
 30
0.0
 11
294.966790233732
 21
-1006.04859577507
 31
0.0
  0
LINE
  5
468
330
1F
100
AcDbEntity
  8
1
  6
Continuous
 62
     4
100
AcDbLine
 10
294.966790233732
 20
-1006.04859577507
 30
0.0
 11
304.966790233732
 21
-1006.04859577507
 31
0.0
  0
LINE
  5
469
330
1F
100
AcDbEntity
  8
1
  6
Continuous
 62
     4
100
AcDbLine
 10
294.966790233732
 20
-1006.04859577507
 30
0.0
 11
294.966790233732
 21
-1016.04859577507
 31
0.0
  0
LINE
  5
46A
330
1F
100
AcDbEntity
  8
1
  6
Continuous
 62
     4
100
AcDbLine
 10
318.496201998438
 20
-996.048595775069
 30
0.0
 11
314.966790233732
 21
-997.381929108402
 31
0.0
  0
LINE
  5
46B
330
1F
100
AcDbEntity
  8
1
  6
Continuous
 62
     4
100
AcDbLine
 10
314.966790233732
 20
-997.381929108402
 30
0.0
 11
313.202084351379
 21
-1000.71526244174
 31
0.0
  0
LINE
  5
46C
330
1F
100
AcDbEntity
  8
1
  6
Continuous
 62
     4
100
AcDbLine
 10
313.202084351379
 20
-1000.71526244174
 30
0.0
 11
312.025613763144
 21
-1006.04859577507
 31
0.0
  0
LINE
  5
46D
330
1F
100
AcDbEntity
  8
1
  6
Continuous
 62
     4
100
AcDbLine
 10
312.025613763144
 20
-1006.04859577507
 30
0.0
 11
313.202084351379
 21
-1011.3819291084
 31
0.0
  0
LINE
  5
46E
330
1F
100
AcDbEntity
  8
1
  6
Continuous
 62
     4
100
AcDbLine
 10
313.202084351379
 20
-1011.3819291084
 30
0.0
 11
314.966790233732
 21
-1014.71526244174
 31
0.0
  0
LINE
  5
46F
330
1F
100
AcDbEntity
  8
1
  6
Continuous
 62
     4
100
AcDbLine
 10
314.966790233732
 20
-1014.71526244174
 30
0.0
 11
318.496201998438
 21
-1016.04859577507
 31
0.0
  0
LINE
  5
470
330
1F
100
AcDbEntity
  8
1
  6
Continuous
 62
     4
100
AcDbLine
 10
318.496201998438
 20
-1016.04859577507
 30
0.0
 11
322.025613763144
 21
-1014.71526244174
 31
0.0
  0
LINE
  5
471
330
1F
100
AcDbEntity
  8
1
  6
Continuous
 62
     4
100
AcDbLine
 10
322.025613763144
 20
-1014.71526244174
 30
0.0
 11
324.378554939614
 21
-1011.3819291084
 31
0.0
  0
LINE
  5
472
330
1F
100
AcDbEntity
  8
1
  6
Continuous
 62
     4
100
AcDbLine
 10
324.378554939614
 20
-1011.3819291084
 30
0.0
 11
324.966790233732
 21
-1006.04859577507
 31
0.0
  0
LINE
  5
473
330
1F
100
AcDbEntity
  8
1
  6
Continuous
 62
     4
100
AcDbLine
 10
324.966790233732
 20
-1006.04859577507
 30
0.0
 11
324.378554939614
 21
-1000.71526244174
 31
0.0
  0
LINE
  5
474
330
1F
100
AcDbEntity
  8
1
  6
Continuous
 62
     4
100
AcDbLine
 10
324.378554939614
 20
-1000.71526244174
 30
0.0
 11
322.025613763144
 21
-997.381929108402
 31
0.0
  0
LINE
  5
475
330
1F
100
AcDbEntity
  8
1
  6
Continuous
 62
     4
100
AcDbLine
 10
322.025613763144
 20
-997.381929108402
 30
0.0
 11
318.496201998438
 21
-996.048595775069
 31
0.0
  0
LINE
  5
476
330
1F
100
AcDbEntity
  8
1
  6
Continuous
 62
     4
100
AcDbLine
 10
330.849143174908
 20
-998.048595775069
 30
0.0
 11
333.790319645496
 21
-996.048595775069
 31
0.0
  0
LINE
  5
477
330
1F
100
AcDbEntity
  8
1
  6
Continuous
 62
     4
100
AcDbLine
 10
333.790319645496
 20
-996.048595775069
 30
0.0
 11
333.790319645496
 21
-1016.04859577507
 31
0.0
  0
LINE
  5
478
330
1F
100
AcDbEntity
  8
1
  6
Continuous
 62
     4
100
AcDbLine
 10
339.672672586673
 20
-1006.04859577507
 30
0.0
 11
350.260907880791
 21
-1006.04859577507
 31
0.0
  0
LINE
  5
479
330
1F
100
AcDbEntity
  8
1
  6
Continuous
 62
     4
100
AcDbLine
 10
356.143260821967
 20
-998.048595775069
 30
0.0
 11
359.084437292555
 21
-996.048595775069
 31
0.0
  0
LINE
  5
47A
330
1F
100
AcDbEntity
  8
1
  6
Continuous
 62
     4
100
AcDbLine
 10
359.084437292555
 20
-996.048595775069
 30
0.0
 11
359.084437292555
 21
-1016.04859577507
 31
0.0
  0
ARC
  5
559
330
1F
100
AcDbEntity
  8
3
  6
Continuous
 62
     3
100
AcDbCircle
 10
112.964794002731
 20
587.353819158221
 30
0.0
 40
0.2499999999987779
100
AcDbArc
 50
214.9999999997002
 51
320.0000000003245
  0
ARC
  5
55A
330
1F
100
AcDbEntity
  8
3
  6
Continuous
 62
     3
100
AcDbCircle
 10
111.411859274101
 20
589.571639795515
 30
0.0
 40
0.2500000000016074
100
AcDbArc
 50
110.0000000000081
 51
214.9999999996983
  0
ARC
  5
55B
330
1F
100
AcDbEntity
  8
3
  6
Continuous
 62
     3
100
AcDbCircle
 10
116.326836288645
 20
591.360545130911
 30
0.0
 40
0.2499999999983817
100
AcDbArc
 50
320.000000000178
 51
109.9999999999991
  0
ARC
  5
55C
330
1F
100
AcDbEntity
  8
3
  6
Continuous
 62
     3
100
AcDbCircle
 10
91.9129293129093
 20
589.571639795515
 30
0.0
 40
0.2500000000003378
100
AcDbArc
 50
325.0000000005502
 51
70.00000000001337
  0
ARC
  5
55D
330
1F
100
AcDbEntity
  8
3
  6
Continuous
 62
     3
100
AcDbCircle
 10
90.3599945842794
 20
587.353819158221
 30
0.0
 40
0.2499999999993071
100
AcDbArc
 50
219.9999999996441
 51
325.0000000002736
  0
ARC
  5
55E
330
1F
100
AcDbEntity
  8
3
  6
Continuous
 62
     3
100
AcDbCircle
 10
86.9979522983652
 20
591.360545130911
 30
0.0
 40
0.2499999999998934
100
AcDbArc
 50
69.9999999997762
 51
219.9999999999832
  0
ARC
  5
55F
330
1F
100
AcDbEntity
  8
3
  6
Continuous
 62
     3
100
AcDbCircle
 10
101.662394293505
 20
607.734020456647
 30
0.0
 40
21.5
100
AcDbArc
 50
242.1638865002456
 51
297.8361134997547
  0
ARC
  5
560
330
1F
100
AcDbEntity
  8
3
  6
Continuous
 62
     3
100
AcDbCircle
 10
101.662394293505
 20
607.734020456647
 30
0.0
 40
22.50000000000026
100
AcDbArc
 50
241.8439325308821
 51
298.1560674691187
  0
ARC
  5
561
330
1F
100
AcDbEntity
  8
3
  6
Continuous
 62
     3
100
AcDbCircle
 10
132.762924241867
 20
440.893247826687
 30
0.0
 40
3.0
100
AcDbArc
 50
270.0
 51
358.0474909505962
  0
ARC
  5
562
330
1F
100
AcDbEntity
  8
3
  6
Continuous
 62
     3
100
AcDbCircle
 10
70.5618643451435
 20
440.893247826687
 30
0.0
 40
3.000000000000123
100
AcDbArc
 50
181.9525090494034
 51
270.0
  0
ARC
  5
563
330
1F
100
AcDbEntity
  8
3
  6
Continuous
 62
     3
100
AcDbCircle
 10
155.454295049958
 20
458.893247826687
 30
0.0
 40
3.999999999999226
100
AcDbArc
 50
22.02431283704665
 51
90.0
  0
ARC
  5
564
330
1F
100
AcDbEntity
  8
3
  6
Continuous
 62
     3
100
AcDbCircle
 10
47.870493537053
 20
458.893247826687
 30
0.0
 40
4.0
100
AcDbArc
 50
90.0
 51
157.9756871629571
  0
ARC
  5
565
330
1F
100
AcDbEntity
  8
3
  6
PHANTOM
 62
     6
100
AcDbCircle
 10
131.449191415524
 20
483.893247826687
 30
0.0
 40
1.0
100
AcDbArc
 50
270.0
 51
357.8524145717064
  0
ARC
  5
566
330
1F
100
AcDbEntity
  8
3
  6
PHANTOM
 62
     6
100
AcDbCircle
 10
71.8755971714867
 20
483.893247826687
 30
0.0
 40
1.000000000000324
100
AcDbArc
 50
182.1475854282924
 51
270.0
  0
ARC
  5
567
330
1F
100
AcDbEntity
  8
3
  6
PHANTOM
 62
     6
100
AcDbCircle
 10
132.085683965034
 20
500.866382480295
 30
0.0
 40
0.9999999999997948
100
AcDbArc
 50
301.5133087095682
 51
357.8524145717086
  0
ARC
  5
568
330
1F
100
AcDbEntity
  8
3
  6
PHANTOM
 62
     6
100
AcDbCircle
 10
130.455539230256
 20
483.893247826687
 30
0.0
 40
1.0
100
AcDbArc
 50
270.0
 51
357.4738830883656
  0
ARC
  5
569
330
1F
100
AcDbEntity
  8
3
  6
PHANTOM
 62
     6
100
AcDbCircle
 10
133.131077170152
 20
499.161344930359
 30
0.0
 40
0.9999999999998432
100
AcDbArc
 50
121.5133087095665
 51
177.4738830883655
  0
ARC
  5
56A
330
1F
100
AcDbEntity
  8
3
  6
PHANTOM
 62
     6
100
AcDbCircle
 10
127.041364560999
 20
497.893247826687
 30
0.0
 40
2.0
100
AcDbArc
 50
0.0
 51
90.0
  0
ARC
  5
56B
330
1F
100
AcDbEntity
  8
3
  6
PHANTOM
 62
     6
100
AcDbCircle
 10
122.33860382438
 20
497.893247826687
 30
0.0
 40
2.0
100
AcDbArc
 50
90.0
 51
180.0
  0
ARC
  5
56C
330
1F
100
AcDbEntity
  8
3
  6
PHANTOM
 62
     6
100
AcDbCircle
 10
122.33860382438
 20
485.855774166098
 30
0.0
 40
2.0
100
AcDbArc
 50
180.0
 51
270.0
  0
ARC
  5
56D
330
1F
100
AcDbEntity
  8
3
  6
PHANTOM
 62
     6
100
AcDbCircle
 10
127.041364560999
 20
485.855774166098
 30
0.0
 40
2.0
100
AcDbArc
 50
270.0
 51
0.0
  0
ARC
  5
56E
330
1F
100
AcDbEntity
  8
3
  6
PHANTOM
 62
     6
100
AcDbCircle
 10
112.292150101396
 20
485.855774166098
 30
0.0
 40
2.0
100
AcDbArc
 50
270.0
 51
0.0
  0
ARC
  5
56F
330
1F
100
AcDbEntity
  8
3
  6
PHANTOM
 62
     6
100
AcDbCircle
 10
101.664057202484
 20
485.855774166098
 30
0.0
 40
1.999999999999602
100
AcDbArc
 50
180.0
 51
270.0
  0
ARC
  5
570
330
1F
100
AcDbEntity
  8
3
  6
PHANTOM
 62
     6
100
AcDbCircle
 10
101.664057202484
 20
497.893247826687
 30
0.0
 40
2.0
100
AcDbArc
 50
90.0
 51
180.0
  0
ARC
  5
571
330
1F
100
AcDbEntity
  8
3
  6
PHANTOM
 62
     6
100
AcDbCircle
 10
112.292150101396
 20
497.893247826687
 30
0.0
 40
2.0
100
AcDbArc
 50
0.0
 51
90.0
  0
ARC
  5
572
330
1F
100
AcDbEntity
  8
3
  6
PHANTOM
 62
     6
100
AcDbCircle
 10
90.7882837221648
 20
497.893247826687
 30
0.0
 40
2.0
100
AcDbArc
 50
0.0
 51
90.0
  0
ARC
  5
573
330
1F
100
AcDbEntity
  8
3
  6
PHANTOM
 62
     6
100
AcDbCircle
 10
90.7882837221648
 20
485.855774166098
 30
0.0
 40
2.0
100
AcDbArc
 50
270.0
 51
0.0
  0
ARC
  5
574
330
1F
100
AcDbEntity
  8
3
  6
PHANTOM
 62
     6
100
AcDbCircle
 10
81.9245547145208
 20
485.855774166098
 30
0.0
 40
2.0
100
AcDbArc
 50
180.0
 51
270.0
  0
ARC
  5
575
330
1F
100
AcDbEntity
  8
3
  6
PHANTOM
 62
     6
100
AcDbCircle
 10
81.9245547145208
 20
497.893247826687
 30
0.0
 40
2.0
100
AcDbArc
 50
90.0
 51
180.0
  0
ARC
  5
576
330
1F
100
AcDbEntity
  8
3
  6
PHANTOM
 62
     6
100
AcDbCircle
 10
73.4367123040174
 20
497.893247826687
 30
0.0
 40
2.0
100
AcDbArc
 50
0.0
 51
90.0
  0
ARC
  5
577
330
1F
100
AcDbEntity
  8
3
  6
PHANTOM
 62
     6
100
AcDbCircle
 10
73.4367123040174
 20
485.855774166098
 30
0.0
 40
2.0
100
AcDbArc
 50
270.0
 51
0.0
  0
ARC
  5
578
330
1F
100
AcDbEntity
  8
1
  6
Continuous
 62
     3
100
AcDbCircle
 10
151.162394293505
 20
609.234020456648
 30
0.0
 40
1.0
100
AcDbArc
 50
180.0
 51
270.0
  0
ARC
  5
579
330
1F
100
AcDbEntity
  8
1
  6
Continuous
 62
     3
100
AcDbCircle
 10
148.162394293505
 20
609.234020456648
 30
0.0
 40
1.0
100
AcDbArc
 50
270.0
 51
0.0
  0
ARC
  5
57A
330
1F
100
AcDbEntity
  8
1
  6
Continuous
 62
     3
100
AcDbCircle
 10
148.162394293505
 20
606.234020456648
 30
0.0
 40
1.0
100
AcDbArc
 50
0.0
 51
90.0
  0
ARC
  5
57B
330
1F
100
AcDbEntity
  8
1
  6
Continuous
 62
     3
100
AcDbCircle
 10
151.162394293505
 20
606.234020456648
 30
0.0
 40
1.0
100
AcDbArc
 50
90.0
 51
180.0
  0
ARC
  5
57C
330
1F
100
AcDbEntity
  8
1
  6
Continuous
 62
     3
100
AcDbCircle
 10
103.162394293504
 20
654.234020456647
 30
0.0
 40
1.0
100
AcDbArc
 50
90.0
 51
180.0
  0
ARC
  5
57D
330
1F
100
AcDbEntity
  8
1
  6
Continuous
 62
     3
100
AcDbCircle
 10
100.162394293504
 20
654.234020456647
 30
0.0
 40
1.0
100
AcDbArc
 50
0.0
 51
90.0
  0
ARC
  5
57E
330
1F
100
AcDbEntity
  8
1
  6
Continuous
 62
     3
100
AcDbCircle
 10
100.162394293504
 20
657.234020456647
 30
0.0
 40
1.0
100
AcDbArc
 50
270.0
 51
0.0
  0
ARC
  5
57F
330
1F
100
AcDbEntity
  8
1
  6
Continuous
 62
     3
100
AcDbCircle
 10
103.162394293504
 20
657.234020456647
 30
0.0
 40
1.0
100
AcDbArc
 50
180.0
 51
270.0
  0
ARC
  5
580
330
1F
100
AcDbEntity
  8
1
  6
Continuous
 62
     3
100
AcDbCircle
 10
55.1623942935052
 20
609.234020456646
 30
0.0
 40
1.0
100
AcDbArc
 50
180.0
 51
270.0
  0
ARC
  5
581
330
1F
100
AcDbEntity
  8
1
  6
Continuous
 62
     3
100
AcDbCircle
 10
52.1623942935052
 20
609.234020456646
 30
0.0
 40
1.0
100
AcDbArc
 50
270.0
 51
0.0
  0
ARC
  5
582
330
1F
100
AcDbEntity
  8
1
  6
Continuous
 62
     3
100
AcDbCircle
 10
52.1623942935052
 20
606.234020456646
 30
0.0
 40
1.0
100
AcDbArc
 50
0.0
 51
90.0
  0
ARC
  5
583
330
1F
100
AcDbEntity
  8
1
  6
Continuous
 62
     3
100
AcDbCircle
 10
55.1623942935052
 20
606.234020456646
 30
0.0
 40
1.0
100
AcDbArc
 50
90.0
 51
180.0
  0
ARC
  5
584
330
1F
100
AcDbEntity
  8
1
  6
Continuous
 62
     3
100
AcDbCircle
 10
103.162394293506
 20
558.234020456647
 30
0.0
 40
1.0
100
AcDbArc
 50
90.0
 51
180.0
  0
ARC
  5
585
330
1F
100
AcDbEntity
  8
1
  6
Continuous
 62
     3
100
AcDbCircle
 10
100.162394293506
 20
558.234020456647
 30
0.0
 40
1.0
100
AcDbArc
 50
0.0
 51
90.0
  0
ARC
  5
586
330
1F
100
AcDbEntity
  8
1
  6
Continuous
 62
     3
100
AcDbCircle
 10
100.162394293506
 20
561.234020456647
 30
0.0
 40
1.0
100
AcDbArc
 50
270.0
 51
0.0
  0
ARC
  5
587
330
1F
100
AcDbEntity
  8
1
  6
Continuous
 62
     3
100
AcDbCircle
 10
103.162394293506
 20
561.234020456647
 30
0.0
 40
1.0
100
AcDbArc
 50
180.0
 51
270.0
  0
ARC
  5
588
330
1F
100
AcDbEntity
  8
1
  6
Continuous
 62
     3
100
AcDbCircle
 10
101.662394293505
 20
302.193247826688
 30
0.0
 40
4.75
100
AcDbArc
 50
270.0
 51
0.0
  0
ARC
  5
589
330
1F
100
AcDbEntity
  8
1
  6
Continuous
 62
     3
100
AcDbCircle
 10
101.662394293505
 20
302.193247826688
 30
0.0
 40
4.75
100
AcDbArc
 50
0.0
 51
90.0
  0
ARC
  5
58A
330
1F
100
AcDbEntity
  8
1
  6
Continuous
 62
     3
100
AcDbCircle
 10
103.162394293505
 20
300.693247826688
 30
0.0
 40
1.0
100
AcDbArc
 50
90.0
 51
180.0
  0
ARC
  5
58B
330
1F
100
AcDbEntity
  8
1
  6
Continuous
 62
     3
100
AcDbCircle
 10
103.162394293505
 20
303.693247826688
 30
0.0
 40
1.0
100
AcDbArc
 50
180.0
 51
270.0
  0
ARC
  5
58C
330
1F
100
AcDbEntity
  8
11
  6
Continuous
 62
     3
100
AcDbCircle
 10
101.662394293505
 20
319.443247826688
 30
0.0
 40
4.249999999999702
100
AcDbArc
 50
180.0
 51
0.0
  0
ARC
  5
58D
330
1F
100
AcDbEntity
  8
11
  6
Continuous
 62
     3
100
AcDbCircle
 10
101.662394293505
 20
313.693247826688
 30
0.0
 40
4.999999999999702
100
AcDbArc
 50
180.0
 51
0.0
  0
ARC
  5
58E
330
1F
100
AcDbEntity
  8
11
  6
Continuous
 62
     3
100
AcDbCircle
 10
101.662394293505
 20
317.972552731457
 30
0.0
 40
9.279304904768928
100
AcDbArc
 50
198.9246444160475
 51
341.0753555839531
  0
ARC
  5
58F
330
1F
100
AcDbEntity
  8
1
  6
Continuous
 62
     3
100
AcDbCircle
 10
101.662394293505
 20
319.193247826688
 30
0.0
 40
4.849999999999966
100
AcDbArc
 50
270.0
 51
28.80214310591408
  0
ARC
  5
590
330
1F
100
AcDbEntity
  8
1
  6
Continuous
 62
     3
100
AcDbCircle
 10
101.662394293505
 20
319.193247826688
 30
0.0
 40
4.849999999999469
100
AcDbArc
 50
151.1978568940842
 51
270.0
  0
ARC
  5
591
330
1F
100
AcDbEntity
  8
1
  6
Continuous
 62
     3
100
AcDbCircle
 10
101.662394293505
 20
302.193247826688
 30
0.0
 40
4.75
100
AcDbArc
 50
90.0
 51
270.0
  0
ARC
  5
592
330
1F
100
AcDbEntity
  8
1
  6
Continuous
 62
     3
100
AcDbCircle
 10
100.162394293505
 20
303.693247826688
 30
0.0
 40
1.0
100
AcDbArc
 50
270.0
 51
0.0
  0
ARC
  5
593
330
1F
100
AcDbEntity
  8
1
  6
Continuous
 62
     3
100
AcDbCircle
 10
100.162394293505
 20
300.693247826688
 30
0.0
 40
1.0
100
AcDbArc
 50
0.0
 51
90.0
  0
ARC
  5
594
330
1F
100
AcDbEntity
  8
11
  6
Continuous
 62
     3
100
AcDbCircle
 10
110.912394293505
 20
324.852018643928
 30
0.0
 40
5.0
100
AcDbArc
 50
90.0
 51
180.0
  0
ARC
  5
595
330
1F
100
AcDbEntity
  8
11
  6
Continuous
 62
     3
100
AcDbCircle
 10
92.4123942935053
 20
324.852018643928
 30
0.0
 40
5.0
100
AcDbArc
 50
0.0
 51
90.0
  0
ARC
  5
596
330
1F
100
AcDbEntity
  8
1
  6
Continuous
 62
     3
100
AcDbCircle
 10
115.433525153337
 20
-904.956742538355
 30
0.0
 40
1.600000000000023
100
AcDbArc
 50
270.0
 51
330.5155387162833
  0
ARC
  5
597
330
1F
100
AcDbEntity
  8
1
  6
Continuous
 62
     3
100
AcDbCircle
 10
115.433525153337
 20
-898.656742538355
 30
0.0
 40
1.599999999999288
100
AcDbArc
 50
29.48446128371672
 51
90.0
  0
ARC
  5
598
330
1F
100
AcDbEntity
  8
1
  6
Continuous
 62
     3
100
AcDbCircle
 10
109.862394208905
 20
-901.806742538355
 30
0.0
 40
7.999999999999885
100
AcDbArc
 50
330.5155387162982
 51
356.4166783015282
  0
ARC
  5
599
330
1F
100
AcDbEntity
  8
1
  6
Continuous
 62
     3
100
AcDbCircle
 10
109.862394208905
 20
-901.806742538355
 30
0.0
 40
8.000000000000341
100
AcDbArc
 50
3.58332169847182
 51
29.48446128370183
  0
ARC
  5
59A
330
1F
100
AcDbEntity
  8
4
  6
Continuous
 62
     3
100
AcDbCircle
 10
111.662394255905
 20
-879.306757872344
 30
0.0
 40
1.999999962399997
100
AcDbArc
 50
0.0
 51
90.0
  0
ARC
  5
59B
330
1F
100
AcDbEntity
  8
4
  6
Continuous
 62
     3
100
AcDbCircle
 10
112.162394246505
 20
-906.306757364744
 30
0.0
 40
1.999999962400011
100
AcDbArc
 50
270.0
 51
0.0
  0
ARC
  5
59C
330
1F
100
AcDbEntity
  8
4
  6
Continuous
 62
     3
100
AcDbCircle
 10
91.1623946413054
 20
-906.306757364744
 30
0.0
 40
1.999999962399897
100
AcDbArc
 50
180.0
 51
270.0
  0
ARC
  5
59D
330
1F
100
AcDbEntity
  8
4
  6
Continuous
 62
     3
100
AcDbCircle
 10
91.6623946319053
 20
-879.306757872344
 30
0.0
 40
1.999999962399897
100
AcDbArc
 50
90.0
 51
180.0
  0
ARC
  5
59E
330
1F
100
AcDbEntity
  8
4
  6
Continuous
 62
     3
100
AcDbCircle
 10
114.662394199505
 20
-889.645319850213
 30
0.0
 40
0.9999999812000055
100
AcDbArc
 50
180.0
 51
221.4096221092632
  0
ARC
  5
59F
330
1F
100
AcDbEntity
  8
4
  6
Continuous
 62
     3
100
AcDbCircle
 10
113.162394227705
 20
-890.968195480875
 30
0.0
 40
0.9999999812000055
100
AcDbArc
 50
0.0
 51
41.40962210926808
  0
ARC
  5
5A0
330
1F
100
AcDbEntity
  8
4
  6
Continuous
 62
     3
100
AcDbCircle
 10
88.6623946883051
 20
-889.645319850213
 30
0.0
 40
0.9999999811999621
100
AcDbArc
 50
318.5903778907406
 51
0.0
  0
ARC
  5
5A1
330
1F
100
AcDbEntity
  8
4
  6
Continuous
 62
     3
100
AcDbCircle
 10
90.1623946601053
 20
-890.968195480875
 30
0.0
 40
0.9999999812000373
100
AcDbArc
 50
138.5903778907357
 51
180.0
  0
ARC
  5
5A2
330
1F
100
AcDbEntity
  8
3
  6
PHANTOM
 62
     6
100
AcDbCircle
 10
281.641859570493
 20
485.855774166098
 30
0.0
 40
2.0
100
AcDbArc
 50
270.0
 51
0.0
  0
ARC
  5
5A3
330
1F
100
AcDbEntity
  8
3
  6
PHANTOM
 62
     6
100
AcDbCircle
 10
281.641859570493
 20
497.893247826687
 30
0.0
 40
2.0
100
AcDbArc
 50
0.0
 51
90.0
  0
ARC
  5
5A4
330
1F
100
AcDbEntity
  8
3
  6
PHANTOM
 62
     6
100
AcDbCircle
 10
290.129701980996
 20
497.893247826687
 30
0.0
 40
2.0
100
AcDbArc
 50
90.0
 51
180.0
  0
ARC
  5
5A5
330
1F
100
AcDbEntity
  8
3
  6
PHANTOM
 62
     6
100
AcDbCircle
 10
290.129701980996
 20
485.855774166098
 30
0.0
 40
2.0
100
AcDbArc
 50
180.0
 51
270.0
  0
ARC
  5
5A6
330
1F
100
AcDbEntity
  8
3
  6
PHANTOM
 62
     6
100
AcDbCircle
 10
298.99343098864
 20
485.855774166098
 30
0.0
 40
2.0
100
AcDbArc
 50
270.0
 51
0.0
  0
ARC
  5
5A7
330
1F
100
AcDbEntity
  8
3
  6
PHANTOM
 62
     6
100
AcDbCircle
 10
298.99343098864
 20
497.893247826687
 30
0.0
 40
2.0
100
AcDbArc
 50
0.0
 51
90.0
  0
ARC
  5
5A8
330
1F
100
AcDbEntity
  8
3
  6
PHANTOM
 62
     6
100
AcDbCircle
 10
320.497297367871
 20
497.893247826687
 30
0.0
 40
2.0
100
AcDbArc
 50
0.0
 51
90.0
  0
ARC
  5
5A9
330
1F
100
AcDbEntity
  8
3
  6
PHANTOM
 62
     6
100
AcDbCircle
 10
309.86920446896
 20
497.893247826687
 30
0.0
 40
2.0
100
AcDbArc
 50
90.0
 51
180.0
  0
ARC
  5
5AA
330
1F
100
AcDbEntity
  8
3
  6
PHANTOM
 62
     6
100
AcDbCircle
 10
309.86920446896
 20
485.855774166098
 30
0.0
 40
2.0
100
AcDbArc
 50
180.0
 51
270.0
  0
ARC
  5
5AB
330
1F
100
AcDbEntity
  8
3
  6
PHANTOM
 62
     6
100
AcDbCircle
 10
320.497297367871
 20
485.855774166098
 30
0.0
 40
2.0
100
AcDbArc
 50
270.0
 51
0.0
  0
ARC
  5
5AC
330
1F
100
AcDbEntity
  8
3
  6
PHANTOM
 62
     6
100
AcDbCircle
 10
335.246511827474
 20
485.855774166098
 30
0.0
 40
2.0
100
AcDbArc
 50
270.0
 51
0.0
  0
ARC
  5
5AD
330
1F
100
AcDbEntity
  8
3
  6
PHANTOM
 62
     6
100
AcDbCircle
 10
330.543751090855
 20
485.855774166098
 30
0.0
 40
2.0
100
AcDbArc
 50
180.0
 51
270.0
  0
ARC
  5
5AE
330
1F
100
AcDbEntity
  8
3
  6
PHANTOM
 62
     6
100
AcDbCircle
 10
330.543751090855
 20
497.893247826687
 30
0.0
 40
2.0
100
AcDbArc
 50
90.0
 51
180.0
  0
ARC
  5
5AF
330
1F
100
AcDbEntity
  8
3
  6
PHANTOM
 62
     6
100
AcDbCircle
 10
335.246511827474
 20
497.893247826687
 30
0.0
 40
2.0
100
AcDbArc
 50
0.0
 51
90.0
  0
ARC
  5
5B0
330
1F
100
AcDbEntity
  8
3
  6
PHANTOM
 62
     6
100
AcDbCircle
 10
341.336224436627
 20
499.161344930359
 30
0.0
 40
0.9999999999993084
100
AcDbArc
 50
121.5133087095165
 51
177.4738830883655
  0
ARC
  5
5B1
330
1F
100
AcDbEntity
  8
3
  6
PHANTOM
 62
     6
100
AcDbCircle
 10
338.660686496731
 20
483.893247826687
 30
0.0
 40
1.0
100
AcDbArc
 50
270.0
 51
357.4738830883655
  0
ARC
  5
5B2
330
1F
100
AcDbEntity
  8
3
  6
PHANTOM
 62
     6
100
AcDbCircle
 10
340.29083123151
 20
500.866382480295
 30
0.0
 40
0.9999999999997948
100
AcDbArc
 50
301.5133087095682
 51
357.8524145717064
  0
ARC
  5
5B3
330
1F
100
AcDbEntity
  8
3
  6
PHANTOM
 62
     6
100
AcDbCircle
 10
280.080744437962
 20
483.893247826687
 30
0.0
 40
0.9999999999998129
100
AcDbArc
 50
182.1475854282935
 51
270.0
  0
ARC
  5
5B4
330
1F
100
AcDbEntity
  8
3
  6
PHANTOM
 62
     6
100
AcDbCircle
 10
339.654338681999
 20
483.893247826687
 30
0.0
 40
1.0
100
AcDbArc
 50
270.0
 51
357.8524145717064
  0
ARC
  5
5B5
330
1F
100
AcDbEntity
  8
3
  6
Continuous
 62
     3
100
AcDbCircle
 10
256.075640803528
 20
458.893247826687
 30
0.0
 40
4.0
100
AcDbArc
 50
90.0
 51
157.9756871629535
  0
ARC
  5
5B6
330
1F
100
AcDbEntity
  8
3
  6
Continuous
 62
     3
100
AcDbCircle
 10
363.659442316433
 20
458.893247826687
 30
0.0
 40
4.000000000000174
100
AcDbArc
 50
22.02431283704115
 51
90.0
  0
ARC
  5
5B7
330
1F
100
AcDbEntity
  8
3
  6
Continuous
 62
     3
100
AcDbCircle
 10
278.767011611619
 20
440.893247826687
 30
0.0
 40
3.000000000000648
100
AcDbArc
 50
181.9525090494031
 51
270.0
  0
ARC
  5
5B8
330
1F
100
AcDbEntity
  8
3
  6
Continuous
 62
     3
100
AcDbCircle
 10
340.968071508342
 20
440.893247826687
 30
0.0
 40
3.0
100
AcDbArc
 50
270.0
 51
358.0474909505969
  0
ARC
  5
5B9
330
1F
100
AcDbEntity
  8
1
  6
Continuous
 62
     3
100
AcDbCircle
 10
297.567541559981
 20
304.633247826688
 30
0.0
 40
0.1999999999999886
100
AcDbArc
 50
180.0
 51
270.0
  0
ARC
  5
5BA
330
1F
100
AcDbEntity
  8
1
  6
Continuous
 62
     3
100
AcDbCircle
 10
297.567541559981
 20
299.753247826688
 30
0.0
 40
0.2000000000000455
100
AcDbArc
 50
90.0
 51
180.0
  0
ARC
  5
5BB
330
1F
100
AcDbEntity
  8
1
  6
Continuous
 62
     3
100
AcDbCircle
 10
301.667541559981
 20
302.193247826688
 30
0.0
 40
7.999999999999847
100
AcDbArc
 50
150.515538716298
 51
176.4166783015278
  0
ARC
  5
5BC
330
1F
100
AcDbEntity
  8
1
  6
Continuous
 62
     3
100
AcDbCircle
 10
301.667541559981
 20
302.193247826688
 30
0.0
 40
7.999999999999348
100
AcDbArc
 50
183.5833216984723
 51
209.484461283702
  0
ARC
  5
5BD
330
1F
100
AcDbEntity
  8
1
  6
Continuous
 62
     3
100
AcDbCircle
 10
296.096410615549
 20
305.343247826688
 30
0.0
 40
1.599999999999966
100
AcDbArc
 50
90.0
 51
150.5155387162851
  0
ARC
  5
5BE
330
1F
100
AcDbEntity
  8
1
  6
Continuous
 62
     3
100
AcDbCircle
 10
296.096410615549
 20
299.043247826687
 30
0.0
 40
1.599999999998784
100
AcDbArc
 50
209.4844612836849
 51
270.0
  0
ARC
  5
5BF
330
1F
100
AcDbEntity
  8
1
  6
Continuous
 62
     3
100
AcDbCircle
 10
297.567541559981
 20
304.633247826688
 30
0.0
 40
0.1999999999999886
100
AcDbArc
 50
180.0
 51
270.0
  0
ARC
  5
5C0
330
1F
100
AcDbEntity
  8
1
  6
Continuous
 62
     3
100
AcDbCircle
 10
297.567541559981
 20
299.753247826688
 30
0.0
 40
0.2000000000000455
100
AcDbArc
 50
90.0
 51
180.0
  0
ARC
  5
5C1
330
1F
100
AcDbEntity
  8
11
  6
Continuous
 62
     3
100
AcDbCircle
 10
300.617541559976
 20
313.534477009447
 30
0.0
 40
5.0
100
AcDbArc
 50
270.0
 51
0.0
  0
ARC
  5
5C2
330
1F
100
AcDbEntity
  8
11
  6
Continuous
 62
     3
100
AcDbCircle
 10
319.117541559976
 20
313.534477009447
 30
0.0
 40
5.0
100
AcDbArc
 50
180.0
 51
270.0
  0
ARC
  5
5C3
330
1F
100
AcDbEntity
  8
1
  6
Continuous
 62
     3
100
AcDbCircle
 10
309.867541559976
 20
319.193247826688
 30
0.0
 40
4.849999999999
100
AcDbArc
 50
90.0
 51
208.8021431059241
  0
ARC
  5
5C4
330
1F
100
AcDbEntity
  8
1
  6
Continuous
 62
     3
100
AcDbCircle
 10
309.867541559976
 20
319.193247826688
 30
0.0
 40
4.850000000000195
100
AcDbArc
 50
331.1978568940759
 51
90.0
  0
ARC
  5
5C5
330
1F
100
AcDbEntity
  8
11
  6
Continuous
 62
     3
100
AcDbCircle
 10
309.867541559976
 20
320.413942921918
 30
0.0
 40
9.279304904769198
100
AcDbArc
 50
18.92464441604693
 51
161.0753555839532
  0
ARC
  5
5C6
330
1F
100
AcDbEntity
  8
11
  6
Continuous
 62
     3
100
AcDbCircle
 10
309.867541559976
 20
324.693247826688
 30
0.0
 40
5.0
100
AcDbArc
 50
0.0
 51
180.0
  0
ARC
  5
5C7
330
1F
100
AcDbEntity
  8
11
  6
Continuous
 62
     3
100
AcDbCircle
 10
309.867541559976
 20
318.943247826688
 30
0.0
 40
4.25
100
AcDbArc
 50
0.0
 51
180.0
  0
ARC
  5
5C8
330
1F
100
AcDbEntity
  8
4
  6
Continuous
 62
     3
100
AcDbCircle
 10
298.367541926576
 20
-890.968195480875
 30
0.0
 40
0.999999981199952
100
AcDbArc
 50
138.5903778907314
 51
180.0
  0
ARC
  5
5C9
330
1F
100
AcDbEntity
  8
4
  6
Continuous
 62
     3
100
AcDbCircle
 10
296.867541954776
 20
-889.645319850213
 30
0.0
 40
0.9999999811998769
100
AcDbArc
 50
318.5903778907363
 51
0.0
  0
ARC
  5
5CA
330
1F
100
AcDbEntity
  8
4
  6
Continuous
 62
     3
100
AcDbCircle
 10
321.367541494177
 20
-890.968195480875
 30
0.0
 40
0.9999999811990392
100
AcDbArc
 50
0.0
 51
41.40962210930524
  0
ARC
  5
5CB
330
1F
100
AcDbEntity
  8
4
  6
Continuous
 62
     3
100
AcDbCircle
 10
322.867541465976
 20
-889.645319850213
 30
0.0
 40
0.9999999812000055
100
AcDbArc
 50
180.0
 51
221.4096221092637
  0
ARC
  5
5CC
330
1F
100
AcDbEntity
  8
4
  6
Continuous
 62
     3
100
AcDbCircle
 10
299.867541898376
 20
-879.306757872344
 30
0.0
 40
1.999999962399897
100
AcDbArc
 50
90.0
 51
180.0
  0
ARC
  5
5CD
330
1F
100
AcDbEntity
  8
4
  6
Continuous
 62
     3
100
AcDbCircle
 10
299.367541907776
 20
-906.306757364744
 30
0.0
 40
1.999999962400011
100
AcDbArc
 50
180.0
 51
270.0
  0
ARC
  5
5CE
330
1F
100
AcDbEntity
  8
4
  6
Continuous
 62
     3
100
AcDbCircle
 10
320.367541512976
 20
-906.306757364744
 30
0.0
 40
1.999999962400011
100
AcDbArc
 50
270.0
 51
0.0
  0
ARC
  5
5CF
330
1F
100
AcDbEntity
  8
4
  6
Continuous
 62
     3
100
AcDbCircle
 10
319.867541522376
 20
-879.306757872344
 30
0.0
 40
1.999999962400011
100
AcDbArc
 50
0.0
 51
90.0
  0
ARC
  5
5D0
330
1F
100
AcDbEntity
  8
1
  6
Continuous
 62
     3
100
AcDbCircle
 10
311.367541559976
 20
-900.306757449344
 30
0.0
 40
1.0
100
AcDbArc
 50
180.0
 51
270.0
  0
ARC
  5
5D1
330
1F
100
AcDbEntity
  8
1
  6
Continuous
 62
     3
100
AcDbCircle
 10
308.367541559976
 20
-900.306757449344
 30
0.0
 40
1.0
100
AcDbArc
 50
270.0
 51
0.0
  0
ARC
  5
5D2
330
1F
100
AcDbEntity
  8
1
  6
Continuous
 62
     3
100
AcDbCircle
 10
308.367541559976
 20
-903.306757449344
 30
0.0
 40
1.0
100
AcDbArc
 50
0.0
 51
90.0
  0
ARC
  5
5D3
330
1F
100
AcDbEntity
  8
1
  6
Continuous
 62
     3
100
AcDbCircle
 10
311.367541559976
 20
-903.306757449344
 30
0.0
 40
1.0
100
AcDbArc
 50
90.0
 51
180.0
  0
ARC
  5
5D4
330
1F
100
AcDbEntity
  8
1
  6
Continuous
 62
     3
100
AcDbCircle
 10
309.867541559976
 20
-901.806757449344
 30
0.0
 40
4.75
100
AcDbArc
 50
0.0
 51
180.0
  0
ARC
  5
5D5
330
1F
100
AcDbEntity
  8
1
  6
Continuous
 62
     3
100
AcDbCircle
 10
309.867541559976
 20
-901.806757449344
 30
0.0
 40
4.75
100
AcDbArc
 50
180.0
 51
0.0
  0
ARC
  5
5D6
330
1F
100
AcDbEntity
  8
3
  6
PHANTOM
 62
     4
100
AcDbCircle
 10
126.662394293505
 20
-949.849086546354
 30
0.0
 40
3.0
100
AcDbArc
 50
0.0
 51
75.9637565320269
  0
ARC
  5
5D7
330
1F
100
AcDbEntity
  8
3
  6
PHANTOM
 62
     4
100
AcDbCircle
 10
76.6623942935053
 20
-949.854714627034
 30
0.0
 40
3.000000000010459
100
AcDbArc
 50
103.9028067616439
 51
180.0
  0
ARC
  5
5D8
330
1F
100
AcDbEntity
  8
3
  6
PHANTOM
 62
     4
100
AcDbCircle
 10
113.662394293505
 20
-916.506757327144
 30
0.0
 40
2.0
100
AcDbArc
 50
0.0
 51
90.0
  0
ARC
  5
5D9
330
1F
100
AcDbEntity
  8
3
  6
PHANTOM
 62
     4
100
AcDbCircle
 10
89.6623942935053
 20
-916.506757327144
 30
0.0
 40
2.0
100
AcDbArc
 50
90.0
 51
180.0
  0
ARC
  5
5DA
330
1F
100
AcDbEntity
  8
3
  6
PHANTOM
 62
     4
100
AcDbCircle
 10
120.662394293505
 20
-926.822700970704
 30
0.0
 40
5.0
100
AcDbArc
 50
180.0
 51
252.7664136049901
  0
ARC
  5
5DB
330
1F
100
AcDbEntity
  8
3
  6
PHANTOM
 62
     4
100
AcDbCircle
 10
111.912394293505
 20
-986.414535952684
 30
0.0
 40
53.89151639255004
100
AcDbArc
 50
79.03572402326084
 51
100.9642759767392
  0
ARC
  5
5DC
330
1F
100
AcDbEntity
  8
3
  6
PHANTOM
 62
     4
100
AcDbCircle
 10
124.179054791905
 20
-959.256757327144
 30
0.0
 40
7.74999999999556
100
AcDbArc
 50
47.89655112929049
 51
132.1034488707643
  0
ARC
  5
5DD
330
1F
100
AcDbEntity
  8
3
  6
PHANTOM
 62
     4
100
AcDbCircle
 10
79.1457337951051
 20
-959.256757327144
 30
0.0
 40
7.750000000002392
100
AcDbArc
 50
47.8965511292346
 51
132.1034488707089
  0
ARC
  5
5DE
330
1F
100
AcDbEntity
  8
3
  6
PHANTOM
 62
     4
100
AcDbCircle
 10
101.662394293505
 20
-979.506757327144
 30
0.0
 40
27.99999999999878
100
AcDbArc
 50
68.2132107017444
 51
111.7867892982552
  0
ARC
  5
5DF
330
1F
100
AcDbEntity
  8
3
  6
PHANTOM
 62
     4
100
AcDbCircle
 10
82.6623942935053
 20
-926.822700970704
 30
0.0
 40
5.000000000002766
100
AcDbArc
 50
287.2335863950086
 51
0.0
  0
ARC
  5
5E0
330
1F
100
AcDbEntity
  8
3
  6
PHANTOM
 62
     4
100
AcDbCircle
 10
91.4123942935053
 20
-986.414535952684
 30
0.0
 40
53.89151639255036
100
AcDbArc
 50
79.03572402325906
 51
100.9642759767392
  0
ARC
  5
5E1
330
1F
100
AcDbEntity
  8
3
  6
PHANTOM
 62
     4
100
AcDbCircle
 10
299.617541559976
 20
-986.414535952684
 30
0.0
 40
53.89151639255041
100
AcDbArc
 50
79.03572402325878
 51
100.9642759767392
  0
ARC
  5
5E2
330
1F
100
AcDbEntity
  8
3
  6
PHANTOM
 62
     4
100
AcDbCircle
 10
290.867541559976
 20
-926.822700970704
 30
0.0
 40
5.000000000002795
100
AcDbArc
 50
287.2335863950097
 51
0.0
  0
ARC
  5
5E3
330
1F
100
AcDbEntity
  8
3
  6
PHANTOM
 62
     4
100
AcDbCircle
 10
309.867541559976
 20
-979.506757327144
 30
0.0
 40
27.99999999999877
100
AcDbArc
 50
68.21321070174446
 51
111.7867892982557
  0
ARC
  5
5E4
330
1F
100
AcDbEntity
  8
3
  6
PHANTOM
 62
     4
100
AcDbCircle
 10
287.350881061576
 20
-959.256757327144
 30
0.0
 40
7.750000000002249
100
AcDbArc
 50
47.89655112923577
 51
132.1034488707094
  0
ARC
  5
5E5
330
1F
100
AcDbEntity
  8
3
  6
PHANTOM
 62
     4
100
AcDbCircle
 10
332.384202058376
 20
-959.256757327144
 30
0.0
 40
7.749999999995541
100
AcDbArc
 50
47.89655112929064
 51
132.1034488707643
  0
ARC
  5
5E6
330
1F
100
AcDbEntity
  8
3
  6
PHANTOM
 62
     4
100
AcDbCircle
 10
320.117541559976
 20
-986.414535952684
 30
0.0
 40
53.89151639255003
100
AcDbArc
 50
79.03572402326085
 51
100.9642759767392
  0
ARC
  5
5E7
330
1F
100
AcDbEntity
  8
3
  6
PHANTOM
 62
     4
100
AcDbCircle
 10
328.867541559976
 20
-926.822700970704
 30
0.0
 40
5.0
100
AcDbArc
 50
180.0
 51
252.7664136049903
  0
ARC
  5
5E8
330
1F
100
AcDbEntity
  8
3
  6
PHANTOM
 62
     4
100
AcDbCircle
 10
297.867541559976
 20
-916.506757327144
 30
0.0
 40
2.0
100
AcDbArc
 50
90.0
 51
180.0
  0
ARC
  5
5E9
330
1F
100
AcDbEntity
  8
3
  6
PHANTOM
 62
     4
100
AcDbCircle
 10
321.867541559976
 20
-916.506757327144
 30
0.0
 40
2.0
100
AcDbArc
 50
0.0
 51
90.0
  0
ARC
  5
5EA
330
1F
100
AcDbEntity
  8
3
  6
PHANTOM
 62
     4
100
AcDbCircle
 10
284.867541559976
 20
-949.854714627034
 30
0.0
 40
3.000000000010465
100
AcDbArc
 50
103.9028067616444
 51
180.0
  0
ARC
  5
5EB
330
1F
100
AcDbEntity
  8
3
  6
PHANTOM
 62
     4
100
AcDbCircle
 10
334.867541559976
 20
-949.849086546354
 30
0.0
 40
3.0
100
AcDbArc
 50
0.0
 51
75.96375653202718
  0
CIRCLE
  5
5EC
330
1F
100
AcDbEntity
  8
5
  6
Continuous
 62
     3
100
AcDbCircle
 10
101.662394293505
 20
-834.306752173312
 30
0.0
 40
1.5
  0
CIRCLE
  5
5ED
330
1F
100
AcDbEntity
  8
5
  6
Continuous
 62
     3
100
AcDbCircle
 10
101.662394293505
 20
-834.306752173312
 30
0.0
 40
1.0
  0
CIRCLE
  5
5EE
330
1F
100
AcDbEntity
  8
5
  6
Continuous
 62
     3
100
AcDbCircle
 10
101.662394293505
 20
-849.306752173312
 30
0.0
 40
1.0
  0
CIRCLE
  5
5EF
330
1F
100
AcDbEntity
  8
5
  6
Continuous
 62
     3
100
AcDbCircle
 10
101.662394293505
 20
-849.306752173312
 30
0.0
 40
1.5
  0
CIRCLE
  5
5F0
330
1F
100
AcDbEntity
  8
3
  6
Continuous
 62
     3
100
AcDbCircle
 10
101.662394293505
 20
607.734020456647
 30
0.0
 40
30.5
  0
CIRCLE
  5
5F1
330
1F
100
AcDbEntity
  8
3
  6
Continuous
 62
     3
100
AcDbCircle
 10
101.662394293505
 20
607.734020456647
 30
0.0
 40
31.5
  0
CIRCLE
  5
5F2
330
1F
100
AcDbEntity
  8
3
  6
Continuous
 62
     3
100
AcDbCircle
 10
101.662394293505
 20
607.734020456647
 30
0.0
 40
11.14999999999999
  0
CIRCLE
  5
5F3
330
1F
100
AcDbEntity
  8
3
  6
Continuous
 62
     3
100
AcDbCircle
 10
101.662394293505
 20
607.734020456647
 30
0.0
 40
11.64999999999999
  0
CIRCLE
  5
5F4
330
1F
100
AcDbEntity
  8
3
  6
Continuous
 62
     3
100
AcDbCircle
 10
101.662394293505
 20
607.734020456647
 30
0.0
 40
16.0
  0
CIRCLE
  5
5F5
330
1F
100
AcDbEntity
  8
2
  6
Continuous
 62
     3
100
AcDbCircle
 10
149.662394293505
 20
607.734020456648
 30
0.0
 40
4.0
  0
CIRCLE
  5
5F6
330
1F
100
AcDbEntity
  8
2
  6
Continuous
 62
     3
100
AcDbCircle
 10
101.662394293505
 20
607.734020456647
 30
0.0
 40
57.5
  0
CIRCLE
  5
5F7
330
1F
100
AcDbEntity
  8
2
  6
Continuous
 62
     3
100
AcDbCircle
 10
101.662394293504
 20
655.734020456647
 30
0.0
 40
4.0
  0
CIRCLE
  5
5F8
330
1F
100
AcDbEntity
  8
2
  6
Continuous
 62
     3
100
AcDbCircle
 10
53.6623942935052
 20
607.734020456646
 30
0.0
 40
4.0
  0
CIRCLE
  5
5F9
330
1F
100
AcDbEntity
  8
2
  6
Continuous
 62
     3
100
AcDbCircle
 10
101.662394293506
 20
559.734020456647
 30
0.0
 40
4.0
  0
CIRCLE
  5
5FA
330
1F
100
AcDbEntity
  8
1
  6
Continuous
 62
     3
100
AcDbCircle
 10
149.662394293505
 20
607.734020456648
 30
0.0
 40
3.800000000000011
  0
CIRCLE
  5
5FB
330
1F
100
AcDbEntity
  8
1
  6
Continuous
 62
     3
100
AcDbCircle
 10
101.662394293504
 20
655.734020456647
 30
0.0
 40
3.800000000000011
  0
CIRCLE
  5
5FC
330
1F
100
AcDbEntity
  8
1
  6
Continuous
 62
     3
100
AcDbCircle
 10
53.6623942935052
 20
607.734020456646
 30
0.0
 40
3.800000000000097
  0
CIRCLE
  5
5FD
330
1F
100
AcDbEntity
  8
1
  6
Continuous
 62
     3
100
AcDbCircle
 10
101.662394293506
 20
559.734020456647
 30
0.0
 40
3.799999999999997
  0
CIRCLE
  5
5FE
330
1F
100
AcDbEntity
  8
11
  6
Continuous
 62
     3
100
AcDbCircle
 10
101.662394293505
 20
319.193247826688
 30
0.0
 40
2.25
  0
CIRCLE
  5
5FF
330
1F
100
AcDbEntity
  8
11
  6
Continuous
 62
     3
100
AcDbCircle
 10
101.662394293505
 20
319.193247826688
 30
0.0
 40
1.75
  0
CIRCLE
  5
600
330
1F
100
AcDbEntity
  8
1
  6
Continuous
 62
     3
100
AcDbCircle
 10
101.662394293505
 20
-693.806752173313
 30
0.0
 40
1.5
  0
CIRCLE
  5
601
330
1F
100
AcDbEntity
  8
1
  6
Continuous
 62
     3
100
AcDbCircle
 10
309.867541559981
 20
336.193247826688
 30
0.0
 40
1.5
  0
CIRCLE
  5
602
330
1F
100
AcDbEntity
  8
1
  6
Continuous
 62
     3
100
AcDbCircle
 10
309.867541559981
 20
336.193247826688
 30
0.0
 40
1.0
  0
CIRCLE
  5
603
330
1F
100
AcDbEntity
  8
11
  6
Continuous
 62
     3
100
AcDbCircle
 10
309.867541559976
 20
319.193247826688
 30
0.0
 40
1.75
  0
CIRCLE
  5
604
330
1F
100
AcDbEntity
  8
11
  6
Continuous
 62
     3
100
AcDbCircle
 10
309.867541559976
 20
319.193247826688
 30
0.0
 40
2.25
  0
SPLINE
  5
605
330
1F
100
AcDbEntity
  8
1
  6
PHANTOM
 62
     4
100
AcDbSpline
210
0.0
220
0.0
230
1.0
 70
     8
 71
     3
 72
    15
 73
    11
 74
     9
 42
0.0000000001
 43
0.0000000001
 44
0.00000001
 40
0.0
 40
0.0
 40
0.0
 40
0.0
 40
11.16284809572702
 40
22.33487603636163
 40
25.68093501137218
 40
29.13161316931814
 40
32.6176641951518
 40
36.00627888998098
 40
46.48438947911391
 40
56.96217294748723
 40
56.96217294748723
 40
56.96217294748723
 40
56.96217294748723
 10
73.6623942935053
 20
-968.589068150328
 30
0.0
 10
77.40343071708608
 20
-967.6274550819637
 30
0.0
 10
84.88858003128078
 20
-965.7034381561148
 30
0.0
 10
92.87524217935201
 20
-970.8475545527469
 30
0.0
 10
98.90910070572643
 20
-969.9572933707901
 30
0.0
 10
102.1956185881475
 20
-969.0101813540805
 30
0.0
 10
105.4815454625028
 20
-968.0086520658799
 30
0.0
 10
111.2465237848643
 20
-966.9156658104432
 30
0.0
 10
119.141743442897
 20
-970.3889632248552
 30
0.0
 10
126.1555471717111
 20
-969.3961966829829
 30
0.0
 10
129.662394293505
 20
-968.899821160572
 30
0.0
 11
73.6623942935053
 21
-968.589068150328
 31
0.0
 11
84.75083999047978
 21
-967.3023865138986
 31
0.0
 11
95.52230591878782
 21
-970.2671344056457
 31
0.0
 11
98.84731107185796
 21
-969.892365948721
 31
0.0
 11
102.181953522462
 21
-969.0050444306933
 31
0.0
 11
105.5372721427578
 21
-968.0593231657258
 31
0.0
 11
108.884685359279
 21
-967.5325079154986
 31
0.0
 11
119.1962394661346
 21
-969.3933285461583
 31
0.0
 11
129.662394293505
 21
-968.899821160572
 31
0.0
  0
SPLINE
  5
606
330
1F
100
AcDbEntity
  8
1
  6
PHANTOM
 62
     4
100
AcDbSpline
210
0.0
220
0.0
230
1.0
 70
     8
 71
     3
 72
    15
 73
    11
 74
     9
 42
0.0000000001
 43
0.0000000001
 44
0.00000001
 40
0.0
 40
0.0
 40
0.0
 40
0.0
 40
11.16284809572752
 40
22.33487603636184
 40
25.68093501137219
 40
29.13161316931799
 40
32.61766419515172
 40
36.00627888998086
 40
46.48438947911403
 40
56.96217294748731
 40
56.96217294748731
 40
56.96217294748731
 40
56.96217294748731
 10
281.867541559976
 20
-968.589068150328
 30
0.0
 10
285.608577983557
 20
-967.627455081964
 30
0.0
 10
293.0937272977517
 20
-965.7034381561152
 30
0.0
 10
301.0803894458232
 20
-970.8475545527455
 30
0.0
 10
307.1142479721975
 20
-969.9572933707893
 30
0.0
 10
310.4007658546186
 20
-969.0101813540807
 30
0.0
 10
313.6866927289739
 20
-968.0086520658797
 30
0.0
 10
319.4516710513353
 20
-966.9156658104425
 30
0.0
 10
327.346890709368
 20
-970.388963224856
 30
0.0
 10
334.3606944381821
 20
-969.3961966829831
 30
0.0
 10
337.867541559976
 20
-968.899821160572
 30
0.0
 11
281.867541559976
 21
-968.589068150328
 31
0.0
 11
292.955987256951
 21
-967.3023865138987
 31
0.0
 11
303.727453185259
 21
-970.2671344056448
 31
0.0
 11
307.052458338329
 21
-969.8923659487206
 31
0.0
 11
310.3871007889329
 21
-969.005044430693
 31
0.0
 11
313.7424194092288
 21
-968.0593231657255
 31
0.0
 11
317.0898326257499
 21
-967.5325079154983
 31
0.0
 11
327.4013867326057
 21
-969.3933285461586
 31
0.0
 11
337.867541559976
 21
-968.899821160572
 31
0.0
  0
XLINE
  5
607
330
1F
100
AcDbEntity
  8
1
  6
DOT_CENTER
 62
     3
 60
     1
100
AcDbXline
 10
1105.15814047343
 20
163.003322691688
 30
0.0
 11
0.0
 21
1.0
 31
0.0
  0
XLINE
  5
608
330
1F
100
AcDbEntity
  8
1
  6
DOT_CENTER
 62
     3
 60
     1
100
AcDbXline
 10
1622.29021798638
 20
346.666872485818
 30
0.0
 11
0.0
 21
1.0
 31
0.0
  0
XLINE
  5
609
330
1F
100
AcDbEntity
  8
1
  6
DOT_CENTER
 62
     3
 60
     1
100
AcDbXline
 10
627.023700319733
 20
101.777931685252
 30
0.0
 11
0.0
 21
1.0
 31
0.0
  0
XLINE
  5
60A
330
1F
100
AcDbEntity
  8
1
  6
DOT_CENTER
 62
     3
 60
     1
100
AcDbXline
 10
1144.15577783268
 20
285.441481479382
 30
0.0
 11
0.0
 21
1.0
 31
0.0
  0
LWPOLYLINE
  5
60B
330
1F
100
AcDbEntity
  8
2
  6
Continuous
 62
     3
100
AcDbPolyline
 90
       51
 70
     1
 43
0.0
 10
84.4316728581696
 20
596.509403529244
 10
84.4316728581696
 20
596.509403529244
 10
84.7976530903802
 20
596.347932753148
 42
-0.41142220119985
 10
84.9006650548636
 20
596.085968307535
 42
0.00737853688629
 10
84.66698212610721
 20
595.5194327185438
 42
0.25661444883712
 10
84.69117309295984
 20
595.3283497853331
 10
86.0164295428401
 20
593.504288467967
 42
-0.41421356237225
 10
85.9721830269353
 20
593.224928045162
 10
85.6485760882245
 20
592.989814138261
 42
-0.4142135623738
 10
85.3692156654187
 20
593.034060654166
 10
84.412083214175
 20
594.351442116498
 42
0.61242919291116
 10
84.23610929964786
 20
594.3236681655499
 42
0.00470163634885
 10
84.11852822077371
 20
593.9512743429841
 42
0.23539688369068
 10
84.13326490318738
 20
593.8632846838739
 10
84.9545940550387
 20
592.732820663228
 42
-0.41421356237267
 10
84.9103475391341
 20
592.453460240423
 10
84.5867406004232
 20
592.218346333522
 42
-0.41421356237393
 10
84.3073801776175
 20
592.262592849427
 10
83.95855125589
 20
592.742715275965
 42
0.64059376002835
 10
83.78038268277452
 20
592.707156664449
 42
0.0110509441021
 10
83.58705230335646
 20
591.8099556943783
 42
-0.35063872594942
 10
83.3969926945662
 20
591.647854482678
 10
82.9345625609827
 20
591.633197067776
 42
-0.34379115593128
 10
82.7359024917678
 20
591.778219564217
 42
0.1700783536502
 10
80.89222711003687
 20
594.3888718271062
 42
0.5307461163679
 10
80.03508872093022
 20
594.114378800557
 42
0.26738799801831
 10
81.82520326040202
 20
591.0553438071923
 42
-0.3986728860202
 10
81.9047629179175
 20
590.791896750279
 10
81.7248637049193
 20
590.433702711252
 42
-0.42797691071511
 10
81.4481196181187
 20
590.349131715663
 42
-0.27907356532067
 10
79.2443725463008
 20
594.249459833507
 42
-0.54619989987449
 10
81.3636433405966
 20
595.035273281704
 42
-0.10416224467394
 10
82.9339707371407
 20
593.324633310437
 42
0.66605253807845
 10
83.11672935742547
 20
593.350283813325
 42
-0.00481646391516
 10
83.2258777012772
 20
593.751155181575
 10
81.7137788448259
 20
595.832383333554
 42
-0.41421356237354
 10
81.7580253607312
 20
596.111743756361
 10
82.0816322994422
 20
596.346857663262
 42
-0.41421356237179
 10
82.3609927222479
 20
596.302611147357
 10
83.4065427322507
 20
594.863533202262
 42
0.60709405270319
 10
83.58202284028059
 20
594.889831973108
 42
-0.00437798912104
 10
83.7078031175326
 20
595.245913894312
 42
0.2491268756193
 10
83.69470973090286
 20
595.3388232539806
 10
82.7756143326275
 20
596.603851138294
 42
-0.41421356237209
 10
82.8198608485324
 20
596.883211561099
 10
83.1434677872432
 20
597.118325468
 42
-0.41421356237402
 10
83.422828210049
 20
597.074078952095
 10
83.9678123567293
 20
596.323971679932
 42
0.58264609865411
 10
84.14070183074988
 20
596.343529552243
 42
-0.00078070403823
 10
84.1672114637157
 20
596.405436960814
 42
-0.41695802847616
 10
84.4316728581696
 20
596.509403529244
  0
LWPOLYLINE
  5
60C
330
1F
100
AcDbEntity
  8
2
  6
Continuous
 62
     3
100
AcDbPolyline
 90
       42
 70
     1
 43
0.0
 10
81.9034845289361
 20
603.824325106744
 10
81.9034845289361
 20
603.824325106744
 42
0.4142135623724
 10
81.65146980159467
 20
603.9527329616561
 10
80.9560116156134
 20
603.726764748188
 42
-0.41421375065677
 10
80.7039968485421
 20
603.855172725376
 10
80.5794246969983
 20
604.238566967898
 42
0.41421356237213
 10
80.32741005220336
 20
604.3669749848158
 10
79.9469873904903
 20
604.243368356939
 42
0.41421356237261
 10
79.81857937357171
 20
603.9913537121438
 10
79.9431517634946
 20
603.607958735965
 42
-0.41421337408919
 10
79.8147438688533
 20
603.3559441309
 10
77.9525704234134
 20
602.750886896525
 42
-0.3396929509345
 10
77.7229397081076
 20
602.832313977433
 42
-0.02694859892628
 10
77.4636454794543
 20
603.283903604281
 42
0.40262200500231
 10
77.2021539714179
 20
603.375794950191
 10
76.837901667659
 20
603.209799478735
 42
0.42503690738483
 10
76.7420213575172
 20
602.9382277470175
 42
0.01403642569062
 10
76.89156311680351
 20
602.6595318870109
 42
-0.47604027537252
 10
76.7798574197283
 20
602.369849089084
 10
75.3744975939318
 20
601.913219696382
 42
0.41421356237325
 10
75.24608973901975
 20
601.6612049690399
 10
75.3696966114492
 20
601.280782386787
 42
0.4142135623726
 10
75.62171133879056
 20
601.1523745318751
 10
77.3986434917493
 20
601.72973517289
 42
-0.29506057873688
 10
77.6085069756746
 20
601.673979161585
 42
0.02499945034282
 10
78.00740123289408
 20
601.2765738298931
 42
0.42503690671459
 10
78.29469100838594
 20
601.2967932279229
 10
78.5515637076833
 20
601.603795983313
 42
0.40262200566152
 10
78.53250940376529
 20
601.8803077586715
 42
-0.00348403605426
 10
78.4829141495454
 20
601.925905972582
 42
-0.57157664698755
 10
78.5202057347428
 20
602.094153079604
 10
80.061956880055
 20
602.595098728013
 42
-0.41421375065856
 10
80.3139716471264
 20
602.466690750825
 10
80.3709472144125
 20
602.291337718938
 42
0.41421356237449
 10
80.62296185920775
 20
602.1629297020199
 10
81.003384520921
 20
602.286536329897
 42
0.41421356237382
 10
81.13179253783841
 20
602.5385509746918
 10
81.0748167321724
 20
602.713904740236
 42
-0.41421337408886
 10
81.203224626815
 20
602.965919345302
 10
81.8986835464535
 20
603.191887797149
 42
0.41421356237302
 10
82.02709140136467
 20
603.4439025244899
 10
81.9034845289361
 20
603.824325106744
  0
LWPOLYLINE
  5
60D
330
1F
100
AcDbEntity
  8
2
  6
Continuous
 62
     3
100
AcDbPolyline
 90
       48
 70
     1
 43
0.0
 10
80.8257526513876
 20
601.538795697813
 10
80.8257526513876
 20
601.538795697813
 10
81.2061752003152
 20
601.662402672808
 42
-0.4142135623744
 10
81.4581899622768
 20
601.533994885842
 10
81.639738732967
 20
600.975246108894
 42
0.39050705797468
 10
81.87604151728283
 20
600.8424331204199
 42
0.01764094340645
 10
82.5984099116601
 20
601.0406648188307
 42
-0.40880907094282
 10
82.8478535112886
 20
600.912997311916
 10
82.9743051299537
 20
600.533441358994
 42
-0.41944497308845
 10
82.8443811298008
 20
600.279382461322
 42
-0.01569399558032
 10
82.1541474831178
 20
600.086586327512
 42
0.43580972297733
 10
82.01166956180901
 20
599.8305625346991
 10
82.4499422307005
 20
598.481700095249
 42
-0.41421356237398
 10
82.3215344437339
 20
598.229685333287
 10
81.9411118948064
 20
598.106078358292
 42
-0.41421356237355
 10
81.6890971328451
 20
598.234486145259
 10
81.2041391263646
 20
599.727031051851
 42
0.36318428194503
 10
80.98664319224457
 20
599.8633576916623
 42
-0.0072609753868
 10
80.657490510278
 20
599.822890932266
 42
0.47602830194105
 10
80.48879874152334
 20
599.5622488098891
 10
80.9253303386959
 20
598.218738515551
 42
-0.22095529007857
 10
80.9050266361401
 20
598.05142989755
 10
80.6810650705027
 20
597.690758430699
 42
-0.22528564776004
 10
80.5368391469444
 20
597.597919556167
 42
-0.10362665244831
 10
78.1684317280278
 20
597.782439926524
 42
0.36701537743901
 10
77.9320825124967
 20
597.6771093314879
 42
0.04861406548204
 10
77.50395547909652
 20
596.5075346418541
 42
-0.40539095112864
 10
77.2660241048554
 20
596.362718370807
 10
76.8758083196065
 20
596.451428430911
 42
-0.42258403612531
 10
76.7264626405054
 20
596.696326495099
 42
-0.04647667678638
 10
77.1793244768838
 20
597.956801236006
 42
0.40040207731432
 10
77.09146240047063
 20
598.2185089182843
 42
-0.05919123884792
 10
75.9661233509031
 20
598.99407884862
 42
-0.42472922947655
 10
75.9529336084452
 20
599.2816321898
 10
76.2279502136106
 20
599.572469861215
 42
-0.4029742122635
 10
76.5049833926251
 20
599.585559725548
 42
0.06061296246345
 10
77.50184493566708
 20
598.906722624342
 42
0.37861408009091
 10
77.7587138719601
 20
598.9715207712281
 42
-0.02997683891468
 10
78.2888663221776
 20
599.654959879335
 42
0.60788754655185
 10
78.22421484074059
 20
599.8203170963359
 42
-0.0508948341136
 10
75.9552620114961
 20
600.297747346838
 42
-0.41944497297748
 10
75.8266943957116
 20
600.552495334942
 10
75.9551678588095
 20
600.931371720653
 42
-0.40880907105307
 10
76.2052885838676
 20
601.057707482194
 42
0.10655244578389
 10
80.65968343578871
 20
600.6281732545369
 42
0.47346610514348
 10
80.82671258240659
 20
600.8886286711679
 10
80.6973448644212
 20
601.286780935852
 42
-0.41421356237196
 10
80.8257526513876
 20
601.538795697813
  0
LWPOLYLINE
  5
60E
330
1F
100
AcDbEntity
  8
2
  6
Continuous
 62
     3
100
AcDbPolyline
 90
       24
 70
     1
 43
0.0
 10
74.9717692935051
 20
608.134020456647
 10
74.9717692935051
 20
608.134020456647
 10
81.4623942935053
 20
608.134020456647
 42
-0.41421356237295
 10
81.6623942935053
 20
607.934020456647
 10
81.6623942935055
 20
607.534020456647
 42
-0.4142135623731
 10
81.4623942935053
 20
607.334020456647
 10
79.3811752984316
 20
607.334020456647
 10
79.672646949337
 20
607.169103526566
 42
-0.15366677595362
 10
79.7545934596794
 20
607.081307289724
 42
0.07267502760362
 10
80.9439627663352
 20
605.3091565477099
 42
-0.40651039228169
 10
80.9339148263941
 20
605.030251665336
 10
80.644595972521
 20
604.75384533468
 42
-0.42157365014409
 10
80.3584099971073
 20
604.763966926121
 42
-0.06156154824976
 10
79.2012914219351
 20
606.403624797694
 42
0.33229266951538
 10
78.98444886256819
 20
606.5050725670761
 42
0.22279973253671
 10
76.09391243115223
 20
604.3418012029609
 42
-0.40111249787454
 10
75.831352861875
 20
604.255379012483
 10
75.4699647237478
 20
604.427702579319
 42
-0.42634162944315
 10
75.3792215255865
 20
604.701679041903
 42
-0.23712770898289
 10
79.0745242571215
 20
607.334020456647
 10
74.9717692935051
 20
607.334020456647
 42
-0.41421356237309
 10
74.7717692935051
 20
607.534020456647
 10
74.7717692935053
 20
607.934020456647
 42
-0.4142135623731
 10
74.9717692935051
 20
608.134020456647
  0
LWPOLYLINE
  5
60F
330
1F
100
AcDbEntity
  8
2
  6
Continuous
 62
     3
100
AcDbPolyline
 90
        8
 70
     1
 43
0.0
 10
79.4565360592965
 20
599.697245719837
 10
79.4565360592965
 20
599.697245719837
 42
-0.5406603198576
 10
79.6180255741958
 20
599.653359723272
 10
79.9564346269575
 20
598.611840509023
 42
-0.51128657745095
 10
79.765105369672
 20
598.350040408511
 42
-0.05256796164437
 10
78.7245828244326
 20
598.465624040491
 42
-0.54802441593917
 10
78.6081869331438
 20
598.782055500873
 42
-0.04870958044792
 10
79.4565360592965
 20
599.697245719837
  0
LWPOLYLINE
  5
610
330
1F
100
AcDbEntity
  8
2
  6
Continuous
 62
     3
100
AcDbPolyline
 90
       16
 70
     1
 43
0.0
 10
79.6030192935053
 20
610.905895456647
 10
79.6030192935053
 20
610.905895456647
 10
80.0030192935051
 20
610.905895456647
 42
-0.4142135623731
 10
80.2030192935052
 20
610.705895456647
 10
80.2030192935053
 20
608.696558548893
 42
-0.20926188092664
 10
80.1387100318744
 20
608.549629914785
 10
79.8361961449233
 20
608.270253924281
 42
-0.21303294401675
 10
79.68174795816
 20
608.218064105879
 42
-0.20807331916711
 10
75.3359287174971
 20
610.616050425522
 42
-0.42398839590547
 10
75.3776729594052
 20
610.900502585011
 10
75.702701866259
 20
611.13405232381
 42
-0.40382955098995
 10
75.9775714715308
 20
611.094043998084
 42
0.17868874237168
 10
79.1623341883188
 20
609.104005245475
 42
0.47556952664998
 10
79.40301929350531
 20
609.299823329972
 10
79.4030192935053
 20
610.705895456647
 42
-0.4142135623731
 10
79.6030192935053
 20
610.905895456647
  0
LWPOLYLINE
  5
611
330
1F
100
AcDbEntity
  8
2
  6
Continuous
 62
     3
100
AcDbPolyline
 90
       24
 70
     1
 43
0.0
 10
128.353019293505
 20
607.334020456647
 10
128.353019293505
 20
607.334020456647
 10
121.862394293505
 20
607.334020456647
 42
-0.41421356237309
 10
121.662394293505
 20
607.534020456647
 10
121.662394293505
 20
607.934020456647
 42
-0.4142135623731
 10
121.862394293505
 20
608.134020456647
 10
123.943613288579
 20
608.134020456647
 10
123.652141637674
 20
608.298937386727
 42
-0.15366677595489
 10
123.570195127331
 20
608.38673362357
 42
0.07267502760361
 10
122.3808258206755
 20
610.1588843655835
 42
-0.40651039228285
 10
122.390873760616
 20
610.437789247958
 10
122.680192614489
 20
610.714195578614
 42
-0.42157365014663
 10
122.966378589904
 20
610.704073987172
 42
-0.06156154824972
 10
124.123497165075
 20
609.0644161156
 42
0.33229266951547
 10
124.340339724442
 20
608.9629683462178
 42
0.22279973253676
 10
127.2308761558576
 20
611.1262397103333
 42
-0.40111249787287
 10
127.493435725135
 20
611.212661900811
 10
127.854823863263
 20
611.040338333974
 42
-0.42634162944064
 10
127.945567061424
 20
610.766361871391
 42
-0.23712770898288
 10
124.25026432989
 20
608.134020456647
 10
128.353019293505
 20
608.134020456647
 42
-0.4142135623731
 10
128.553019293505
 20
607.934020456647
 10
128.553019293506
 20
607.534020456647
 42
-0.4142135623731
 10
128.353019293505
 20
607.334020456647
  0
LWPOLYLINE
  5
612
330
1F
100
AcDbEntity
  8
2
  6
Continuous
 62
     3
100
AcDbPolyline
 90
       16
 70
     1
 43
0.0
 10
123.721769293505
 20
604.562145456647
 10
123.721769293505
 20
604.562145456647
 10
123.321769293505
 20
604.562145456647
 42
-0.41421356237309
 10
123.121769293505
 20
604.762145456647
 10
123.121769293505
 20
606.771482364401
 42
-0.20926188092788
 10
123.186078555137
 20
606.918410998509
 10
123.488592442087
 20
607.197786989012
 42
-0.21303294401712
 10
123.64304062885
 20
607.249976807415
 42
-0.20807331916718
 10
127.988859869514
 20
604.851990487771
 42
-0.42398839590426
 10
127.947115627605
 20
604.567538328283
 10
127.622086720752
 20
604.333988589483
 42
-0.40382955099043
 10
127.347217115479
 20
604.37399691521
 42
0.17868874237164
 10
124.1624543986919
 20
606.3640356678186
 42
0.47556952665101
 10
123.9217692935045
 20
606.168217583322
 10
123.921769293505
 20
604.762145456647
 42
-0.4142135623731
 10
123.721769293505
 20
604.562145456647
  0
LWPOLYLINE
  5
613
330
1F
100
AcDbEntity
  8
2
  6
Continuous
 62
     3
100
AcDbPolyline
 90
       25
 70
     1
 43
0.0
 10
118.386797849486
 20
591.639192467696
 10
118.386797849486
 20
591.639192467696
 42
0.41421356237319
 10
118.431044867154
 20
591.3598321243619
 10
118.754652228156
 20
591.124718798697
 42
0.41421356237647
 10
119.0340125714903
 20
591.1689658163658
 10
119.394029245644
 20
591.664488754124
 42
-0.41421386877258
 10
119.533709501944
 20
591.686612201469
 10
120.693278059457
 20
590.844138721225
 10
121.027668953342
 20
589.522097479396
 42
0.4142135623731
 10
121.270605397177
 20
589.377246230673
 10
121.658393089735
 20
589.475331425785
 42
0.41421356237443
 10
121.8032443384577
 20
589.7182678696208
 10
121.613865358149
 20
590.46699287046
 42
-0.47970286954801
 10
121.707870517397
 20
590.591470889999
 42
0.19269693719651
 10
123.3123396062332
 20
591.2891077184167
 10
125.592175879212
 20
594.427030549101
 42
0.41421356237192
 10
125.5479296407416
 20
594.7063910158475
 10
125.224322935526
 20
594.941505244126
 42
0.41421356237394
 10
124.9449624687787
 20
594.8972590056566
 10
122.704558554542
 20
591.813610115707
 42
-0.26199203908742
 10
121.225381707583
 20
591.446397301138
 10
119.666448790908
 20
592.579025149027
 42
0.19891250331812
 10
119.517604695893
 20
592.6147592010349
 10
119.040706488168
 20
592.539225029871
 10
118.386797849486
 20
591.639192467696
  0
LWPOLYLINE
  5
614
330
1F
100
AcDbEntity
  8
2
  6
Continuous
 62
     3
100
AcDbPolyline
 90
       43
 70
     1
 43
0.0
 10
117.844167547076
 20
594.895706757761
 10
117.844167547076
 20
594.895706757761
 10
117.520560920305
 20
595.130821094009
 42
-0.41421356237315
 10
117.476314775044
 20
595.41018157552
 10
119.276103860901
 20
597.887374945625
 42
-0.29384297771022
 10
119.477781654034
 20
597.965802536767
 10
119.937381568888
 20
597.872293696764
 42
-0.30028391427248
 10
120.093391852444
 20
597.716671785588
 42
-0.07809797170793
 10
120.175735760665
 20
595.978202680297
 10
120.976978341779
 20
597.081017990332
 10
121.396018904777
 20
597.147387545129
 10
124.331234658859
 20
595.014830096036
 42
-0.41421356237303
 10
124.375481108509
 20
594.735469662736
 10
124.257924116684
 20
594.573666221261
 42
-0.4142135623718
 10
123.978563683385
 20
594.529419771611
 10
123.306066789563
 20
595.018016992588
 42
0.41421317487742
 10
123.0267065117903
 20
594.9737707570027
 10
122.52157795994
 20
594.278522355198
 42
0.41421394987011
 10
122.5658242540625
 20
593.9991617078333
 10
123.23832007756
 20
593.510565264493
 42
-0.41421356237304
 10
123.28256652721
 20
593.231204831193
 10
123.165009535386
 20
593.069401389718
 42
-0.41421356237301
 10
122.885649102086
 20
593.025154940068
 10
122.213152208264
 20
593.513752161045
 42
0.41421317487745
 10
121.9337919304913
 20
593.4695059254598
 10
121.42866373368
 20
592.774258012324
 42
0.41421377831454
 10
121.4729099330307
 20
592.4948974338146
 10
122.145405707276
 20
592.006300424438
 42
-0.41421356237231
 10
122.189651993299
 20
591.726939965222
 10
122.072094906701
 20
591.565136592602
 42
-0.41421356237186
 10
121.792734447485
 20
591.520890306581
 10
118.857522439245
 20
593.653447660902
 10
118.791152993879
 20
594.072488327246
 10
119.509952212585
 20
595.061830304343
 10
119.080367547184
 20
594.943987169913
 42
-0.41421356237332
 10
118.957475665514
 20
595.013969920785
 10
118.851657403917
 20
595.399719185868
 42
-0.414213562379
 10
118.92164015479
 20
595.522611067539
 10
119.312759914829
 20
595.629902556674
 42
0.03999186392634
 10
119.404823475975
 20
596.391816218238
 42
0.7420525826951
 10
119.2240030447012
 20
596.4546245027692
 10
118.123528028587
 20
594.939952903021
 42
-0.41421356237391
 10
117.844167547076
 20
594.895706757761
  0
LWPOLYLINE
  5
615
330
1F
100
AcDbEntity
  8
2
  6
Continuous
 62
     3
100
AcDbPolyline
 90
       10
 70
     1
 43
0.0
 10
116.484516737589
 20
593.778477596925
 10
116.484516737589
 20
593.778477596925
 42
-0.08181298906443
 10
117.539107802448
 20
594.009692516702
 42
-0.433131384778
 10
117.74960319834
 20
593.807661038464
 10
117.744971065419
 20
593.406742525393
 42
-0.39282782237462
 10
117.557378501958
 20
593.209437534489
 42
0.07705964032158
 10
116.802734244595
 20
593.0439825780098
 42
-0.39282780547402
 10
116.549800587839
 20
593.144703925841
 10
116.377856935667
 20
593.506908206569
 42
-0.43312163781232
 10
116.484516737589
 20
593.778477596925
  0
LWPOLYLINE
  5
616
330
1F
100
AcDbEntity
  8
2
  6
Continuous
 62
     3
100
AcDbPolyline
 90
       10
 70
     1
 43
0.0
 10
120.274041319758
 20
594.92259761445
 10
120.274041319758
 20
594.92259761445
 10
120.51168962941
 20
594.749936142357
 42
-0.41421370679617
 10
120.53381282525
 20
594.610255885814
 10
119.911128857871
 20
593.753205166557
 42
-0.41421358950003
 10
119.77144862282
 20
593.731082016053
 10
119.5338004143
 20
593.903743627341
 42
-0.41421353524565
 10
119.511677265845
 20
594.043423849457
 10
120.134361132093
 20
594.900474429518
 42
-0.41421341794195
 10
120.274041319758
 20
594.92259761445
  0
LWPOLYLINE
  5
617
330
1F
100
AcDbEntity
  8
2
  6
Continuous
 62
     3
100
AcDbPolyline
 90
       10
 70
     1
 43
0.0
 10
120.884474882871
 20
593.046027450201
 10
120.884474882871
 20
593.046027450201
 42
-0.41421334643131
 10
120.744794696599
 20
593.023904366837
 10
120.418662113295
 20
593.260853669665
 42
-0.41421353524985
 10
120.39653896484
 20
593.400533891781
 10
121.019223207643
 20
594.257584990126
 42
-0.4142134179485
 10
121.158903395309
 20
594.279708175058
 10
121.485036828659
 20
594.042758546493
 42
-0.41421394986684
 10
121.50715997572
 20
593.903078222811
 10
120.884474882871
 20
593.046027450201
  0
LWPOLYLINE
  5
618
330
1F
100
AcDbEntity
  8
2
  6
Continuous
 62
     3
100
AcDbPolyline
 90
       10
 70
     1
 43
0.0
 10
121.837708660393
 20
594.528168248809
 10
121.837708660393
 20
594.528168248809
 10
121.511574689926
 20
594.765118267611
 42
-0.41421370680189
 10
121.489451494086
 20
594.904798524155
 10
122.112136540566
 20
595.761850728666
 42
-0.41421341794859
 10
122.251816728231
 20
595.783973913599
 10
122.577951409957
 20
595.547023378035
 42
-0.41421394986687
 10
122.600074557019
 20
595.407343054354
 10
121.977388799279
 20
594.550291366602
 42
-0.41421317487946
 10
121.837708660393
 20
594.528168248809
  0
LWPOLYLINE
  5
619
330
1F
100
AcDbEntity
  8
2
  6
Continuous
 62
     3
100
AcDbPolyline
 90
       10
 70
     1
 43
0.0
 10
121.626726158173
 20
596.114521624355
 10
121.626726158173
 20
596.114521624355
 10
121.004041111693
 20
595.257469419842
 42
-0.41421341794534
 10
120.864360924027
 20
595.235346234911
 10
120.626712614377
 20
595.408007707003
 42
-0.41421370680418
 10
120.604589418535
 20
595.547687963546
 10
121.227274465016
 20
596.404740168057
 42
-0.41421341794825
 10
121.366954652681
 20
596.42686335299
 10
121.604602962332
 20
596.254201880898
 42
-0.41421370679787
 10
121.626726158173
 20
596.114521624355
  0
LWPOLYLINE
  5
61A
330
1F
100
AcDbEntity
  8
3
  6
Continuous
 62
     3
100
AcDbPolyline
 90
       18
 70
     1
 43
0.0
 10
102.862395056445
 20
629.434020456647
 10
102.862395056445
 20
629.434020456647
 42
-0.4142135623731
 10
103.062395056445
 20
629.634020456647
 10
103.362395056445
 20
629.634020456647
 42
0.4142135623731
 10
103.462395056445
 20
629.734020456647
 10
103.462395056445
 20
633.034020456647
 42
-0.4142135623731
 10
103.662395056445
 20
633.234020456647
 10
104.062395056445
 20
633.234020456647
 42
-0.4142135623731
 10
104.262395056445
 20
633.034020456647
 10
104.262395056445
 20
629.734020456647
 42
0.4142135623731
 10
104.362395056445
 20
629.634020456647
 10
104.662395056445
 20
629.634020456647
 42
-0.4142135623731
 10
104.862395056445
 20
629.434020456647
 10
104.862395056445
 20
629.034020456647
 42
-0.4142135623731
 10
104.662395056445
 20
628.834020456647
 10
103.062395056445
 20
628.834020456647
 42
-0.41421356237309
 10
102.862395056445
 20
629.034020456647
 10
102.862395056445
 20
629.434020456647
  0
LWPOLYLINE
  5
61B
330
1F
100
AcDbEntity
  8
3
  6
Continuous
 62
     3
100
AcDbPolyline
 90
       25
 70
     1
 43
0.0
 10
100.262393530565
 20
629.234020456647
 10
100.262393530565
 20
629.234020456647
 42
-0.41421356237309
 10
100.062393530565
 20
629.434020456647
 10
100.062393530565
 20
630.308629926967
 42
0.70895822537174
 10
99.8843066496214
 20
630.3710994317228
 10
98.8996800638524
 20
629.140316199514
 42
-0.41421356237123
 10
98.6185672924553
 20
629.109081447137
 10
98.3062197686781
 20
629.358959466158
 42
-0.41421356237429
 10
98.2749850162991
 20
629.640072237557
 10
99.3168014388694
 20
630.942342765769
 42
0.31572757661747
 10
99.32404274129162
 20
631.0569572714712
 10
98.2253707989938
 20
632.854784086134
 42
-0.41421356237487
 10
98.2917371638353
 20
633.129730454757
 10
98.6330498972955
 20
633.338310458537
 42
-0.41421356237293
 10
98.9079962659172
 20
633.271944093699
 10
99.8177965512453
 20
631.783179990435
 42
0.52007150685182
 10
99.98121161555348
 20
631.772855486625
 10
100.062393530565
 20
631.874332880391
 10
100.062393530565
 20
633.034020456647
 42
-0.4142135623731
 10
100.262393530565
 20
633.234020456647
 10
100.662393530565
 20
633.234020456647
 42
-0.4142135623731
 10
100.862393530565
 20
633.034020456647
 10
100.862393530565
 20
629.434020456647
 42
-0.4142135623731
 10
100.662393530565
 20
629.234020456647
 10
100.262393530565
 20
629.234020456647
  0
LWPOLYLINE
  5
61C
330
1F
100
AcDbEntity
  8
3
  6
Continuous
 62
     3
100
AcDbPolyline
 90
       26
 70
     1
 43
0.0
 10
95.6557223879874
 20
631.224636301373
 10
95.6557223879874
 20
631.224636301373
 10
95.7701420727495
 20
631.908338124859
 10
96.1100902403094
 20
632.563105435677
 10
96.6648554303613
 20
633.168005829131
 10
97.4130817008693
 20
633.699510035527
 10
99.3612038720393
 20
634.459588387519
 10
101.655722387987
 20
634.724636301373
 10
103.950240903937
 20
634.459588387519
 10
105.898363075107
 20
633.699510035527
 10
106.646589345613
 20
633.168005829131
 10
107.201354535667
 20
632.563105435677
 10
107.541302703227
 20
631.908338124859
 10
107.655722387987
 20
631.224636301373
 10
107.541302703227
 20
630.540934477889
 10
107.201354535667
 20
629.886167167071
 10
106.646589345613
 20
629.281266773617
 10
105.898363075107
 20
628.749762567221
 10
103.950240903937
 20
627.989684215227
 10
101.655722387987
 20
627.724636301373
 10
99.3612038720393
 20
627.989684215227
 10
97.4130817008693
 20
628.749762567221
 10
96.6648554303613
 20
629.281266773617
 10
96.1100902403094
 20
629.886167167071
 10
95.7701420727495
 20
630.540934477889
 10
95.6557223879874
 20
631.224636301373
  0
LWPOLYLINE
  5
61D
330
1F
100
AcDbEntity
  8
3
  6
Continuous
 62
     3
100
AcDbPolyline
 90
       26
 70
     1
 43
0.0
 10
96.0557223879874
 20
631.224636301373
 10
96.0557223879874
 20
631.224636301373
 10
96.1677233318292
 20
631.820708877209
 10
96.4985614712713
 20
632.405138836939
 10
97.0320644104093
 20
632.949462154683
 10
97.7419479540753
 20
633.426758383311
 10
99.5388532461813
 20
634.094500729173
 10
101.655722387987
 20
634.324636301373
 10
103.772591529795
 20
634.094500729173
 10
105.569496821899
 20
633.426758383311
 10
106.279380365567
 20
632.949462154683
 10
106.812883304703
 20
632.405138836939
 10
107.143721444145
 20
631.820708877209
 10
107.255722387987
 20
631.224636301373
 10
107.143721444145
 20
630.628563725539
 10
106.812883304703
 20
630.044133765809
 10
106.279380365567
 20
629.499810448065
 10
105.569496821899
 20
629.022514219435
 10
103.772591529795
 20
628.354771873575
 10
101.655722387987
 20
628.124636301373
 10
99.5388532461813
 20
628.354771873575
 10
97.7419479540753
 20
629.022514219435
 10
97.0320644104093
 20
629.499810448065
 10
96.4985614712713
 20
630.044133765809
 10
96.1677233318292
 20
630.628563725539
 10
96.0557223879874
 20
631.224636301373
  0
LWPOLYLINE
  5
61E
330
1F
100
AcDbEntity
  8
5
  6
PHANTOM
 62
     4
100
AcDbPolyline
 90
        3
 70
     0
 43
0.0
 10
101.662394293505
 20
-889.506757445584
 42
0.17040410287074
 10
97.72489436752969
 20
-890.8888214958621
 42
0.21916528328664
 10
96.41425963527104
 20
-893.506757370384
  0
LWPOLYLINE
  5
61F
330
1F
100
AcDbEntity
  8
5
  6
PHANTOM
 62
     4
100
AcDbPolyline
 90
        3
 70
     0
 43
0.0
 10
106.910528951738
 20
-893.506757370384
 42
0.2191652832867
 10
105.5998942194791
 20
-890.8888214958628
 42
0.1704041028707
 10
101.662394293505
 20
-889.5067574455842
  0
LWPOLYLINE
  5
620
330
1F
100
AcDbEntity
  8
5
  6
PHANTOM
 62
     4
100
AcDbPolyline
 90
        3
 70
     0
 43
0.0
 10
101.662394293505
 20
-893.506757370384
 10
95.914259644672
 20
-893.506757370384
 10
95.914259644672
 20
-895.006757342184
  0
LWPOLYLINE
  5
621
330
1F
100
AcDbEntity
  8
5
  6
PHANTOM
 62
     4
100
AcDbPolyline
 90
        3
 70
     0
 43
0.0
 10
101.662394293505
 20
-893.506757370384
 10
107.410528942338
 20
-893.506757370384
 10
107.410528942338
 20
-895.006757342184
  0
LWPOLYLINE
  5
622
330
1F
100
AcDbEntity
  8
5
  6
PHANTOM
 62
     4
100
AcDbPolyline
 90
        3
 70
     0
 43
0.0
 10
309.867541559976
 20
-893.506757370384
 10
315.615676208809
 20
-893.506757370384
 10
315.615676208809
 20
-895.006757342184
  0
LWPOLYLINE
  5
623
330
1F
100
AcDbEntity
  8
5
  6
PHANTOM
 62
     4
100
AcDbPolyline
 90
        3
 70
     0
 43
0.0
 10
309.867541559976
 20
-893.506757370384
 10
304.119406911143
 20
-893.506757370384
 10
304.119406911143
 20
-895.006757342184
  0
LWPOLYLINE
  5
624
330
1F
100
AcDbEntity
  8
5
  6
PHANTOM
 62
     4
100
AcDbPolyline
 90
        3
 70
     0
 43
0.0
 10
315.115676218209
 20
-893.506757370384
 42
0.2191652832867
 10
313.8050414859501
 20
-890.8888214958629
 42
0.17040410287071
 10
309.867541559976
 20
-889.5067574455849
  0
LWPOLYLINE
  5
625
330
1F
100
AcDbEntity
  8
5
  6
PHANTOM
 62
     4
100
AcDbPolyline
 90
        3
 70
     0
 43
0.0
 10
309.867541559976
 20
-889.506757445584
 42
0.17040410287071
 10
305.9300416340014
 20
-890.8888214958623
 42
0.21916528328667
 10
304.6194069017425
 20
-893.506757370384
  0
LEADER
  5
626
330
1F
100
AcDbEntity
  8
1
  6
Continuous
 62
     4
100
AcDbLeader
  3
Standard
 71
     0
 76
     3
 10
106.599142809403
 20
-925.401031139528
 30
0.0
 10
134.810312547918
 20
-912.862733477966
 30
0.0
 10
274.535038066053
 20
-912.862733477966
 30
0.0
  0
LEADER
  5
627
330
1F
100
AcDbEntity
  8
1
  6
Continuous
 62
     4
100
AcDbLeader
  3
Standard
 71
     0
 76
     3
 10
302.746207804568
 20
-925.401031139528
 30
0.0
 10
274.535038066053
 20
-912.862733477966
 30
0.0
 10
134.810312547918
 20
-912.862733477966
 30
0.0
  0
DIMENSION
  5
65D
330
1F
100
AcDbEntity
  8
1
100
AcDbDimension
  2
*D1
 10
387.643498462291
 20
459.893247826687
 30
0.0
 11
376.643498462291
 21
-213.936776887601
 31
0.0
 70
    32
  1
1251～1357
 71
     5
 42
-1.0
 53
90.0
  3
ME10_DIM_10
100
AcDbAlignedDimension
 13
318.667541394536
 23
-895.806757327144
 33
0.0
 14
367.367541559981
 24
459.893247826687
 34
0.0
 50
90.0
100
AcDbRotatedDimension
  0
ENDSEC
  0
SECTION
  2
OBJECTS
  0
DICTIONARY
  5
C
330
0
100
AcDbDictionary
281
     1
  3
ACAD_GROUP
350
D
  3
ACAD_LAYOUT
350
1A
  3
ACAD_MATERIAL
350
3B
  3
ACAD_MLEADERSTYLE
350
660
  3
ACAD_MLINESTYLE
350
17
  3
ACAD_PLOTSETTINGS
350
19
  3
ACAD_PLOTSTYLENAME
350
E
  3
ACAD_SCALELIST
350
631
  3
ACAD_VISUALSTYLE
350
2A
  3
AcDbVariableDictionary
350
65E
  0
DICTIONARY
  5
D
102
{ACAD_REACTORS
330
C
102
}
330
C
100
AcDbDictionary
281
     1
  0
DICTIONARY
  5
1A
102
{ACAD_REACTORS
330
C
102
}
330
C
100
AcDbDictionary
281
     1
  3
Layout1
350
1E
  3
Layout2
350
26
  3
Model
350
22
  0
DICTIONARY
  5
3B
102
{ACAD_REACTORS
330
C
102
}
330
C
100
AcDbDictionary
281
     1
  3
ByBlock
350
3D
  3
ByLayer
350
3C
  3
Global
350
3E
  0
DICTIONARY
  5
660
102
{ACAD_REACTORS
330
C
102
}
330
C
100
AcDbDictionary
281
     1
  0
DICTIONARY
  5
17
102
{ACAD_REACTORS
330
C
102
}
330
C
100
AcDbDictionary
281
     1
  3
Standard
350
18
  0
DICTIONARY
  5
19
102
{ACAD_REACTORS
330
C
102
}
330
C
100
AcDbDictionary
281
     1
  0
ACDBDICTIONARYWDFLT
  5
E
102
{ACAD_REACTORS
330
C
102
}
330
C
100
AcDbDictionary
281
     1
  3
Normal
350
F
100
AcDbDictionaryWithDefault
340
F
  0
DICTIONARY
  5
631
102
{ACAD_REACTORS
330
C
102
}
330
C
100
AcDbDictionary
281
     1
  3
A0
350
632
  3
A1
350
633
  3
A2
350
634
  3
A3
350
635
  3
A4
350
636
  3
A5
350
637
  3
A6
350
638
  3
A7
350
639
  3
A8
350
63A
  3
A9
350
63B
  3
B0
350
63C
  3
B1
350
63D
  3
B2
350
63E
  3
B3
350
63F
  3
B4
350
640
  3
B5
350
641
  3
B6
350
642
  3
B7
350
643
  3
B8
350
644
  3
B9
350
645
  3
C0
350
646
  3
C1
350
647
  3
C2
350
648
  3
C3
350
649
  3
C4
350
64A
  3
C5
350
64B
  3
C6
350
64C
  3
C7
350
64D
  3
C8
350
64E
  3
C9
350
64F
  3
D0
350
650
  3
D1
350
651
  3
D2
350
652
  0
DICTIONARY
  5
2A
102
{ACAD_REACTORS
330
C
102
}
330
C
100
AcDbDictionary
281
     1
  3
2dWireframe
350
2F
  3
3D Hidden
350
31
  3
3dWireframe
350
30
  3
Basic
350
32
  3
Brighten
350
36
  3
ColorChange
350
3A
  3
Conceptual
350
34
  3
Dim
350
35
  3
Facepattern
350
39
  3
Flat
350
2B
  3
FlatWithEdges
350
2C
  3
Gouraud
350
2D
  3
GouraudWithEdges
350
2E
  3
Linepattern
350
38
  3
Realistic
350
33
  3
Thicken
350
37
  0
DICTIONARY
  5
65E
102
{ACAD_REACTORS
330
C
102
}
330
C
100
AcDbDictionary
281
     1
  3
CANNOSCALE
350
661
  3
DIMASSOC
350
662
  3
HIDETEXT
350
663
  0
LAYOUT
  5
1E
102
{ACAD_REACTORS
330
1A
102
}
330
1A
100
AcDbPlotSettings
  1

  2
none_device
  4

  6

 40
0.0
 41
0.0
 42
0.0
 43
0.0
 44
0.0
 45
0.0
 46
0.0
 47
0.0
 48
0.0
 49
0.0
140
0.0
141
0.0
142
1.0
143
1.0
 70
   688
 72
     0
 73
     0
 74
     5
  7

 75
    16
147
1.0
148
0.0
149
0.0
100
AcDbLayout
  1
Layout1
 70
     1
 71
     1
 10
0.0
 20
0.0
 11
12.0
 21
9.0
 12
0.0
 22
0.0
 32
0.0
 14
1.00000000000000E+20
 24
1.00000000000000E+20
 34
1.00000000000000E+20
 15
-1.00000000000000E+20
 25
-1.00000000000000E+20
 35
-1.00000000000000E+20
146
0.0
 13
0.0
 23
0.0
 33
0.0
 16
1.0
 26
0.0
 36
0.0
 17
0.0
 27
1.0
 37
0.0
 76
     0
330
1B
  0
LAYOUT
  5
26
102
{ACAD_REACTORS
330
1A
102
}
330
1A
100
AcDbPlotSettings
  1

  2
none_device
  4

  6

 40
0.0
 41
0.0
 42
0.0
 43
0.0
 44
0.0
 45
0.0
 46
0.0
 47
0.0
 48
0.0
 49
0.0
140
0.0
141
0.0
142
1.0
143
1.0
 70
   688
 72
     0
 73
     0
 74
     5
  7

 75
    16
147
1.0
148
0.0
149
0.0
100
AcDbLayout
  1
Layout2
 70
     1
 71
     2
 10
0.0
 20
0.0
 11
0.0
 21
0.0
 12
0.0
 22
0.0
 32
0.0
 14
0.0
 24
0.0
 34
0.0
 15
0.0
 25
0.0
 35
0.0
146
0.0
 13
0.0
 23
0.0
 33
0.0
 16
1.0
 26
0.0
 36
0.0
 17
0.0
 27
1.0
 37
0.0
 76
     0
330
23
  0
LAYOUT
  5
22
102
{ACAD_REACTORS
330
1A
102
}
330
1A
100
AcDbPlotSettings
  1

  2
none_device
  4

  6

 40
0.0
 41
0.0
 42
0.0
 43
0.0
 44
0.0
 45
0.0
 46
0.0
 47
0.0
 48
0.0
 49
0.0
140
0.0
141
0.0
142
1.0
143
1.0
 70
  1712
 72
     0
 73
     0
 74
     0
  7

 75
     0
147
1.0
148
0.0
149
0.0
100
AcDbLayout
  1
Model
 70
     1
 71
     0
 10
0.0
 20
0.0
 11
12.0
 21
9.0
 12
0.0
 22
0.0
 32
0.0
 14
38.1623942935052
 24
-1016.04859577507
 34
0.0
 15
391.930685541189
 25
671.234020456647
 35
0.0
146
0.0
 13
0.0
 23
0.0
 33
0.0
 16
1.0
 26
0.0
 36
0.0
 17
0.0
 27
1.0
 37
0.0
 76
     0
330
1F
331
29
  0
MATERIAL
  5
3D
102
{ACAD_REACTORS
330
3B
102
}
102
{ACAD_XDICTIONARY
360
686
102
}
330
3B
100
AcDbMaterial
  1
ByBlock
  0
MATERIAL
  5
3C
102
{ACAD_REACTORS
330
3B
102
}
102
{ACAD_XDICTIONARY
360
684
102
}
330
3B
100
AcDbMaterial
  1
ByLayer
  0
MATERIAL
  5
3E
102
{ACAD_REACTORS
330
3B
102
}
102
{ACAD_XDICTIONARY
360
688
102
}
330
3B
100
AcDbMaterial
  1
Global
  0
MLINESTYLE
  5
18
102
{ACAD_REACTORS
330
17
102
}
330
17
100
AcDbMlineStyle
  2
Standard
 70
     0
  3

 62
   256
 51
90.0
 52
90.0
 71
     2
 49
0.5
 62
   256
  6
BYLAYER
 49
-0.5
 62
   256
  6
BYLAYER
  0
ACDBPLACEHOLDER
  5
F
102
{ACAD_REACTORS
330
E
102
}
330
E
  0
SCALE
  5
632
102
{ACAD_REACTORS
330
631
102
}
330
631
100
AcDbScale
 70
     0
300
1:1
140
1.0
141
1.0
290
     1
  0
SCALE
  5
633
102
{ACAD_REACTORS
330
631
102
}
330
631
100
AcDbScale
 70
     0
300
1:2
140
1.0
141
2.0
290
     0
  0
SCALE
  5
634
102
{ACAD_REACTORS
330
631
102
}
330
631
100
AcDbScale
 70
     0
300
1:4
140
1.0
141
4.0
290
     0
  0
SCALE
  5
635
102
{ACAD_REACTORS
330
631
102
}
330
631
100
AcDbScale
 70
     0
300
1:5
140
1.0
141
5.0
290
     0
  0
SCALE
  5
636
102
{ACAD_REACTORS
330
631
102
}
330
631
100
AcDbScale
 70
     0
300
1:8
140
1.0
141
8.0
290
     0
  0
SCALE
  5
637
102
{ACAD_REACTORS
330
631
102
}
330
631
100
AcDbScale
 70
     0
300
1:10
140
1.0
141
10.0
290
     0
  0
SCALE
  5
638
102
{ACAD_REACTORS
330
631
102
}
330
631
100
AcDbScale
 70
     0
300
1:16
140
1.0
141
16.0
290
     0
  0
SCALE
  5
639
102
{ACAD_REACTORS
330
631
102
}
330
631
100
AcDbScale
 70
     0
300
1:20
140
1.0
141
20.0
290
     0
  0
SCALE
  5
63A
102
{ACAD_REACTORS
330
631
102
}
330
631
100
AcDbScale
 70
     0
300
1:30
140
1.0
141
30.0
290
     0
  0
SCALE
  5
63B
102
{ACAD_REACTORS
330
631
102
}
330
631
100
AcDbScale
 70
     0
300
1:40
140
1.0
141
40.0
290
     0
  0
SCALE
  5
63C
102
{ACAD_REACTORS
330
631
102
}
330
631
100
AcDbScale
 70
     0
300
1:50
140
1.0
141
50.0
290
     0
  0
SCALE
  5
63D
102
{ACAD_REACTORS
330
631
102
}
330
631
100
AcDbScale
 70
     0
300
1:100
140
1.0
141
100.0
290
     0
  0
SCALE
  5
63E
102
{ACAD_REACTORS
330
631
102
}
330
631
100
AcDbScale
 70
     0
300
2:1
140
2.0
141
1.0
290
     0
  0
SCALE
  5
63F
102
{ACAD_REACTORS
330
631
102
}
330
631
100
AcDbScale
 70
     0
300
4:1
140
4.0
141
1.0
290
     0
  0
SCALE
  5
640
102
{ACAD_REACTORS
330
631
102
}
330
631
100
AcDbScale
 70
     0
300
8:1
140
8.0
141
1.0
290
     0
  0
SCALE
  5
641
102
{ACAD_REACTORS
330
631
102
}
330
631
100
AcDbScale
 70
     0
300
10:1
140
10.0
141
1.0
290
     0
  0
SCALE
  5
642
102
{ACAD_REACTORS
330
631
102
}
330
631
100
AcDbScale
 70
     0
300
100:1
140
100.0
141
1.0
290
     0
  0
SCALE
  5
643
102
{ACAD_REACTORS
330
631
102
}
330
631
100
AcDbScale
 70
     0
300
1/128" = 1'-0"
140
0.0078125
141
12.0
290
     0
  0
SCALE
  5
644
102
{ACAD_REACTORS
330
631
102
}
330
631
100
AcDbScale
 70
     0
300
1/64" = 1'-0"
140
0.015625
141
12.0
290
     0
  0
SCALE
  5
645
102
{ACAD_REACTORS
330
631
102
}
330
631
100
AcDbScale
 70
     0
300
1/32" = 1'-0"
140
0.03125
141
12.0
290
     0
  0
SCALE
  5
646
102
{ACAD_REACTORS
330
631
102
}
330
631
100
AcDbScale
 70
     0
300
1/16" = 1'-0"
140
0.0625
141
12.0
290
     0
  0
SCALE
  5
647
102
{ACAD_REACTORS
330
631
102
}
330
631
100
AcDbScale
 70
     0
300
3/32" = 1'-0"
140
0.09375
141
12.0
290
     0
  0
SCALE
  5
648
102
{ACAD_REACTORS
330
631
102
}
330
631
100
AcDbScale
 70
     0
300
1/8" = 1'-0"
140
0.125
141
12.0
290
     0
  0
SCALE
  5
649
102
{ACAD_REACTORS
330
631
102
}
330
631
100
AcDbScale
 70
     0
300
3/16" = 1'-0"
140
0.1875
141
12.0
290
     0
  0
SCALE
  5
64A
102
{ACAD_REACTORS
330
631
102
}
330
631
100
AcDbScale
 70
     0
300
1/4" = 1'-0"
140
0.25
141
12.0
290
     0
  0
SCALE
  5
64B
102
{ACAD_REACTORS
330
631
102
}
330
631
100
AcDbScale
 70
     0
300
3/8" = 1'-0"
140
0.375
141
12.0
290
     0
  0
SCALE
  5
64C
102
{ACAD_REACTORS
330
631
102
}
330
631
100
AcDbScale
 70
     0
300
1/2" = 1'-0"
140
0.5
141
12.0
290
     0
  0
SCALE
  5
64D
102
{ACAD_REACTORS
330
631
102
}
330
631
100
AcDbScale
 70
     0
300
3/4" = 1'-0"
140
0.75
141
12.0
290
     0
  0
SCALE
  5
64E
102
{ACAD_REACTORS
330
631
102
}
330
631
100
AcDbScale
 70
     0
300
1" = 1'-0"
140
1.0
141
12.0
290
     0
  0
SCALE
  5
64F
102
{ACAD_REACTORS
330
631
102
}
330
631
100
AcDbScale
 70
     0
300
1-1/2" = 1'-0"
140
1.5
141
12.0
290
     0
  0
SCALE
  5
650
102
{ACAD_REACTORS
330
631
102
}
330
631
100
AcDbScale
 70
     0
300
3" = 1'-0"
140
3.0
141
12.0
290
     0
  0
SCALE
  5
651
102
{ACAD_REACTORS
330
631
102
}
330
631
100
AcDbScale
 70
     0
300
6" = 1'-0"
140
6.0
141
12.0
290
     0
  0
SCALE
  5
652
102
{ACAD_REACTORS
330
631
102
}
330
631
100
AcDbScale
 70
     0
300
1'-0" = 1'-0"
140
12.0
141
12.0
290
     0
  0
VISUALSTYLE
  5
2F
102
{ACAD_REACTORS
330
2A
102
}
102
{ACAD_XDICTIONARY
360
66C
102
}
330
2A
100
AcDbVisualStyle
  2
2dWireframe
 70
     4
 71
     0
 72
     2
 73
     0
 90
        0
 40
-0.6
 41
-30.0
 62
     5
 63
     7
 74
     1
 91
        4
 64
     7
 65
   257
 75
     1
175
     1
 42
1.0
 92
        0
 66
   257
 43
1.0
 76
     1
 77
     6
 78
     2
 67
     7
 79
     5
170
     0
171
     0
290
     0
174
     0
 93
        1
 44
0.0
173
     0
291
     0
 45
0.0
1001
ACAD
1000
AcDbSavedByObjectVersion
1070
     0
  0
VISUALSTYLE
  5
31
102
{ACAD_REACTORS
330
2A
102
}
102
{ACAD_XDICTIONARY
360
670
102
}
330
2A
100
AcDbVisualStyle
  2
3D Hidden
 70
     6
 71
     1
 72
     2
 73
     2
 90
        0
 40
-0.6
 41
-30.0
 62
     5
 63
     7
 74
     2
 91
        2
 64
     7
 65
   257
 75
     2
175
     1
 42
40.0
 92
        0
 66
   257
 43
1.0
 76
     1
 77
     6
 78
     2
 67
     7
 79
     3
170
     0
171
     0
290
     0
174
     0
 93
        1
 44
0.0
173
     0
291
     0
 45
0.0
1001
ACAD
1000
AcDbSavedByObjectVersion
1070
     0
  0
VISUALSTYLE
  5
30
102
{ACAD_REACTORS
330
2A
102
}
102
{ACAD_XDICTIONARY
360
66E
102
}
330
2A
100
AcDbVisualStyle
  2
3dWireframe
 70
     5
 71
     0
 72
     2
 73
     0
 90
        0
 40
-0.6
 41
-30.0
 62
     5
 63
     7
 74
     1
 91
        4
 64
     7
 65
   257
 75
     1
175
     1
 42
1.0
 92
        0
 66
   257
 43
1.0
 76
     1
 77
     6
 78
     2
 67
     7
 79
     5
170
     0
171
     0
290
     0
174
     0
 93
        1
 44
0.0
173
     0
291
     0
 45
0.0
1001
ACAD
1000
AcDbSavedByObjectVersion
1070
     0
  0
VISUALSTYLE
  5
32
102
{ACAD_REACTORS
330
2A
102
}
102
{ACAD_XDICTIONARY
360
672
102
}
330
2A
100
AcDbVisualStyle
  2
Basic
 70
     7
 71
     1
 72
     0
 73
     1
 90
        0
 40
-0.6
 41
-30.0
 62
     5
 63
     7
 74
     0
 91
        4
 64
     7
 65
   257
 75
     1
175
     1
 42
1.0
 92
        8
 66
     7
 43
1.0
 76
     1
 77
     6
 78
     2
 67
     7
 79
     5
170
     0
171
     0
290
     0
174
     0
 93
        1
 44
0.0
173
     0
291
     1
 45
0.0
1001
ACAD
1000
AcDbSavedByObjectVersion
1070
     0
  0
VISUALSTYLE
  5
36
102
{ACAD_REACTORS
330
2A
102
}
102
{ACAD_XDICTIONARY
360
67A
102
}
330
2A
100
AcDbVisualStyle
  2
Brighten
 70
    12
 71
     2
 72
     2
 73
     0
 90
        0
 40
-0.6
 41
-30.0
 62
     5
 63
     7
 74
     1
 91
        4
 64
     7
 65
   257
 75
     1
175
     1
 42
1.0
 92
        8
 66
     7
 43
1.0
 76
     1
 77
     6
 78
     2
 67
     7
 79
     5
170
     0
171
     0
290
     0
174
     0
 93
        1
 44
50.0
173
     0
291
     1
 45
0.0
1001
ACAD
1000
AcDbSavedByObjectVersion
1070
     0
  0
VISUALSTYLE
  5
3A
102
{ACAD_REACTORS
330
2A
102
}
102
{ACAD_XDICTIONARY
360
682
102
}
330
2A
100
AcDbVisualStyle
  2
ColorChange
 70
    16
 71
     2
 72
     2
 73
     3
 90
        0
 40
-0.6
 41
-30.0
 62
     5
 63
     8
 74
     1
 91
        4
 64
     7
 65
   257
 75
     1
175
     1
 42
1.0
 92
        8
 66
     8
 43
1.0
 76
     1
 77
     6
 78
     2
 67
     7
 79
     5
170
     0
171
     0
290
     0
174
     0
 93
        1
 44
0.0
173
     0
291
     1
 45
0.0
1001
ACAD
1000
AcDbSavedByObjectVersion
1070
     0
  0
VISUALSTYLE
  5
34
102
{ACAD_REACTORS
330
2A
102
}
102
{ACAD_XDICTIONARY
360
676
102
}
330
2A
100
AcDbVisualStyle
  2
Conceptual
 70
     9
 71
     3
 72
     2
 73
     0
 90
        0
 40
-0.6
 41
-30.0
 62
     5
 63
     7
 74
     2
 91
        2
 64
     7
 65
   257
 75
     1
175
     1
 42
40.0
 92
        8
 66
     7
 43
1.0
 76
     1
 77
     6
 78
     2
 67
     7
 79
     3
170
     0
171
     0
290
     0
174
     0
 93
        1
 44
0.0
173
     0
291
     0
 45
0.0
1001
ACAD
1000
AcDbSavedByObjectVersion
1070
     0
  0
VISUALSTYLE
  5
35
102
{ACAD_REACTORS
330
2A
102
}
102
{ACAD_XDICTIONARY
360
678
102
}
330
2A
100
AcDbVisualStyle
  2
Dim
 70
    11
 71
     2
 72
     2
 73
     0
 90
        0
 40
-0.6
 41
-30.0
 62
     5
 63
     7
 74
     1
 91
        4
 64
     7
 65
   257
 75
     1
175
     1
 42
1.0
 92
        8
 66
     7
 43
1.0
 76
     1
 77
     6
 78
     2
 67
     7
 79
     5
170
     0
171
     0
290
     0
174
     0
 93
        1
 44
-50.0
173
     0
291
     1
 45
0.0
1001
ACAD
1000
AcDbSavedByObjectVersion
1070
     0
  0
VISUALSTYLE
  5
39
102
{ACAD_REACTORS
330
2A
102
}
102
{ACAD_XDICTIONARY
360
680
102
}
330
2A
100
AcDbVisualStyle
  2
Facepattern
 70
    15
 71
     2
 72
     2
 73
     0
 90
        0
 40
-0.6
 41
-30.0
 62
     5
 63
     7
 74
     1
 91
        4
 64
     7
 65
   257
 75
     1
175
     1
 42
1.0
 92
        8
 66
     7
 43
1.0
 76
     1
 77
     6
 78
     2
 67
     7
 79
     5
170
     0
171
     0
290
     0
174
     0
 93
        1
 44
0.0
173
     0
291
     1
 45
0.0
1001
ACAD
1000
AcDbSavedByObjectVersion
1070
     0
  0
VISUALSTYLE
  5
2B
102
{ACAD_REACTORS
330
2A
102
}
102
{ACAD_XDICTIONARY
360
664
102
}
330
2A
100
AcDbVisualStyle
  2
Flat
 70
     0
 71
     2
 72
     1
 73
     1
 90
        2
 40
-0.6
 41
30.0
 62
     5
 63
     7
 74
     0
 91
        4
 64
     7
 65
   257
 75
     1
175
     1
 42
1.0
 92
        8
 66
     7
 43
1.0
 76
     1
 77
     6
 78
     2
 67
     7
 79
     5
170
     0
171
     0
290
     0
174
     0
 93
       13
 44
0.0
173
     0
291
     1
 45
0.0
1001
ACAD
1000
AcDbSavedByObjectVersion
1070
     0
  0
VISUALSTYLE
  5
2C
102
{ACAD_REACTORS
330
2A
102
}
102
{ACAD_XDICTIONARY
360
666
102
}
330
2A
100
AcDbVisualStyle
  2
FlatWithEdges
 70
     1
 71
     2
 72
     1
 73
     1
 90
        2
 40
-0.6
 41
30.0
 62
     5
 63
     7
 74
     1
 91
        4
 64
     7
 65
   257
 75
     1
175
     1
 42
1.0
 92
        0
 66
   257
 43
1.0
 76
     1
 77
     6
 78
     2
 67
     7
 79
     5
170
     0
171
     0
290
     0
174
     0
 93
       13
 44
0.0
173
     0
291
     1
 45
0.0
1001
ACAD
1000
AcDbSavedByObjectVersion
1070
     0
  0
VISUALSTYLE
  5
2D
102
{ACAD_REACTORS
330
2A
102
}
102
{ACAD_XDICTIONARY
360
668
102
}
330
2A
100
AcDbVisualStyle
  2
Gouraud
 70
     2
 71
     2
 72
     2
 73
     1
 90
        2
 40
-0.6
 41
30.0
 62
     5
 63
     7
 74
     0
 91
        4
 64
     7
 65
   257
 75
     1
175
     1
 42
1.0
 92
        0
 66
     7
 43
1.0
 76
     1
 77
     6
 78
     2
 67
     7
 79
     5
170
     0
171
     0
290
     0
174
     0
 93
       13
 44
0.0
173
     0
291
     1
 45
0.0
1001
ACAD
1000
AcDbSavedByObjectVersion
1070
     0
  0
VISUALSTYLE
  5
2E
102
{ACAD_REACTORS
330
2A
102
}
102
{ACAD_XDICTIONARY
360
66A
102
}
330
2A
100
AcDbVisualStyle
  2
GouraudWithEdges
 70
     3
 71
     2
 72
     2
 73
     1
 90
        2
 40
-0.6
 41
30.0
 62
     5
 63
     7
 74
     1
 91
        4
 64
     7
 65
   257
 75
     1
175
     1
 42
1.0
 92
        0
 66
   257
 43
1.0
 76
     1
 77
     6
 78
     2
 67
     7
 79
     5
170
     0
171
     0
290
     0
174
     0
 93
       13
 44
0.0
173
     0
291
     1
 45
0.0
1001
ACAD
1000
AcDbSavedByObjectVersion
1070
     0
  0
VISUALSTYLE
  5
38
102
{ACAD_REACTORS
330
2A
102
}
102
{ACAD_XDICTIONARY
360
67E
102
}
330
2A
100
AcDbVisualStyle
  2
Linepattern
 70
    14
 71
     2
 72
     2
 73
     0
 90
        0
 40
-0.6
 41
-30.0
 62
     5
 63
     7
 74
     1
 91
        4
 64
     7
 65
   257
 75
     7
175
     7
 42
1.0
 92
        8
 66
     7
 43
1.0
 76
     1
 77
     6
 78
     2
 67
     7
 79
     5
170
     0
171
     0
290
     0
174
     0
 93
        1
 44
0.0
173
     0
291
     1
 45
0.0
1001
ACAD
1000
AcDbSavedByObjectVersion
1070
     0
  0
VISUALSTYLE
  5
33
102
{ACAD_REACTORS
330
2A
102
}
102
{ACAD_XDICTIONARY
360
674
102
}
330
2A
100
AcDbVisualStyle
  2
Realistic
 70
     8
 71
     2
 72
     2
 73
     0
 90
        0
 40
-0.6
 41
-30.0
 62
     5
 63
     7
 74
     1
 91
        0
 64
     7
 65
   257
 75
     1
175
     1
 42
1.0
 92
        8
 66
     8
 43
1.0
 76
     1
 77
     6
 78
     2
 67
     7
 79
     5
170
     0
171
     0
290
     0
174
     0
 93
       13
 44
0.0
173
     0
291
     0
 45
0.0
1001
ACAD
1000
AcDbSavedByObjectVersion
1070
     0
  0
VISUALSTYLE
  5
37
102
{ACAD_REACTORS
330
2A
102
}
102
{ACAD_XDICTIONARY
360
67C
102
}
330
2A
100
AcDbVisualStyle
  2
Thicken
 70
    13
 71
     2
 72
     2
 73
     0
 90
        0
 40
-0.6
 41
-30.0
 62
     5
 63
     7
 74
     1
 91
        4
 64
     7
 65
   257
 75
     1
175
     1
 42
1.0
 92
       12
 66
     7
 43
1.0
 76
     1
 77
     6
 78
     2
 67
     7
 79
     5
170
     0
171
     0
290
     0
174
     0
 93
        1
 44
0.0
173
     0
291
     1
 45
0.0
1001
ACAD
1000
AcDbSavedByObjectVersion
1070
     0
  0
DICTIONARYVAR
  5
661
102
{ACAD_REACTORS
330
65E
102
}
330
65E
100
DictionaryVariables
280
     0
  1
1:1
  0
DICTIONARYVAR
  5
662
102
{ACAD_REACTORS
330
65E
102
}
330
65E
100
DictionaryVariables
280
     0
  1
2
  0
DICTIONARYVAR
  5
663
102
{ACAD_REACTORS
330
65E
102
}
330
65E
100
DictionaryVariables
280
     0
  1
1
  0
DICTIONARY
  5
686
330
3D
100
AcDbDictionary
280
     1
281
     1
  3
ACAD_XREC_ROUNDTRIP
360
687
  0
DICTIONARY
  5
684
330
3C
100
AcDbDictionary
280
     1
281
     1
  3
ACAD_XREC_ROUNDTRIP
360
685
  0
DICTIONARY
  5
688
330
3E
100
AcDbDictionary
280
     1
281
     1
  3
ACAD_XREC_ROUNDTRIP
360
689
  0
DICTIONARY
  5
66C
330
2F
100
AcDbDictionary
280
     1
281
     1
  3
ACAD_XREC_ROUNDTRIP
360
66D
  0
DICTIONARY
  5
670
330
31
100
AcDbDictionary
280
     1
281
     1
  3
ACAD_XREC_ROUNDTRIP
360
671
  0
DICTIONARY
  5
66E
330
30
100
AcDbDictionary
280
     1
281
     1
  3
ACAD_XREC_ROUNDTRIP
360
66F
  0
DICTIONARY
  5
672
330
32
100
AcDbDictionary
280
     1
281
     1
  3
ACAD_XREC_ROUNDTRIP
360
673
  0
DICTIONARY
  5
67A
330
36
100
AcDbDictionary
280
     1
281
     1
  3
ACAD_XREC_ROUNDTRIP
360
67B
  0
DICTIONARY
  5
682
330
3A
100
AcDbDictionary
280
     1
281
     1
  3
ACAD_XREC_ROUNDTRIP
360
683
  0
DICTIONARY
  5
676
330
34
100
AcDbDictionary
280
     1
281
     1
  3
ACAD_XREC_ROUNDTRIP
360
677
  0
DICTIONARY
  5
678
330
35
100
AcDbDictionary
280
     1
281
     1
  3
ACAD_XREC_ROUNDTRIP
360
679
  0
DICTIONARY
  5
680
330
39
100
AcDbDictionary
280
     1
281
     1
  3
ACAD_XREC_ROUNDTRIP
360
681
  0
DICTIONARY
  5
664
330
2B
100
AcDbDictionary
280
     1
281
     1
  3
ACAD_XREC_ROUNDTRIP
360
665
  0
DICTIONARY
  5
666
330
2C
100
AcDbDictionary
280
     1
281
     1
  3
ACAD_XREC_ROUNDTRIP
360
667
  0
DICTIONARY
  5
668
330
2D
100
AcDbDictionary
280
     1
281
     1
  3
ACAD_XREC_ROUNDTRIP
360
669
  0
DICTIONARY
  5
66A
330
2E
100
AcDbDictionary
280
     1
281
     1
  3
ACAD_XREC_ROUNDTRIP
360
66B
  0
DICTIONARY
  5
67E
330
38
100
AcDbDictionary
280
     1
281
     1
  3
ACAD_XREC_ROUNDTRIP
360
67F
  0
DICTIONARY
  5
674
330
33
100
AcDbDictionary
280
     1
281
     1
  3
ACAD_XREC_ROUNDTRIP
360
675
  0
DICTIONARY
  5
67C
330
37
100
AcDbDictionary
280
     1
281
     1
  3
ACAD_XREC_ROUNDTRIP
360
67D
  0
XRECORD
  5
687
102
{ACAD_REACTORS
330
686
102
}
330
686
100
AcDbXrecord
280
     1
102
MATERIAL
148
0.0
149
0.0
149
0.0
 93
        0
 94
      127
282
     0
 72
     1
 77
     1
171
     1
175
     1
179
     1
273
     0
  0
XRECORD
  5
685
102
{ACAD_REACTORS
330
684
102
}
330
684
100
AcDbXrecord
280
     1
102
MATERIAL
148
0.0
149
0.0
149
0.0
 93
        0
 94
      127
282
     0
 72
     1
 77
     1
171
     1
175
     1
179
     1
273
     0
  0
XRECORD
  5
689
102
{ACAD_REACTORS
330
688
102
}
330
688
100
AcDbXrecord
280
     1
102
MATERIAL
148
0.0
149
0.0
149
0.0
 93
        0
 94
      127
282
     0
 72
     1
 77
     1
171
     1
175
     1
179
     1
273
     0
  0
XRECORD
  5
66D
102
{ACAD_REACTORS
330
66C
102
}
330
66C
100
AcDbXrecord
280
     1
102
RTVSPropertyOp0
 70
     1
102
RTVSPropertyOp1
 70
     1
102
RTVSPropertyOp2
 70
     1
102
RTVSPropertyOp3
 70
     1
102
RTVSPropertyOp4
 70
     1
102
RTVSPropertyOp5
 70
     1
102
RTVSPropertyOp6
 70
     1
102
RTVSPropertyOp7
 70
     1
102
RTVSPropertyOp8
 70
     1
102
RTVSPropertyOp9
 70
     1
102
RTVSPropertyOp10
 70
     1
102
RTVSPropertyOp11
 70
     1
102
RTVSPropertyOp12
 70
     1
102
RTVSPropertyOp13
 70
     1
102
RTVSPropertyOp14
 70
     1
102
RTVSPropertyOp15
 70
     1
102
RTVSPropertyOp16
 70
     1
102
RTVSPropertyOp17
 70
     1
102
RTVSPropertyOp18
 70
     1
102
RTVSPropertyOp19
 70
     1
102
RTVSPropertyOp20
 70
     1
102
RTVSPropertyOp21
 70
     1
102
RTVSPropertyOp22
 70
     1
102
RTVSPropertyOp23
 70
     1
102
RTVSPropertyOp24
 70
     1
102
RTVSPropertyOp25
 70
     1
102
RTVSPropertyOp26
 70
     1
102
RTVSPropertyOp27
 70
     1
  0
XRECORD
  5
671
102
{ACAD_REACTORS
330
670
102
}
330
670
100
AcDbXrecord
280
     1
102
RTVSPropertyOp0
 70
     1
102
RTVSPropertyOp1
 70
     1
102
RTVSPropertyOp2
 70
     1
102
RTVSPropertyOp3
 70
     1
102
RTVSPropertyOp4
 70
     1
102
RTVSPropertyOp5
 70
     1
102
RTVSPropertyOp6
 70
     1
102
RTVSPropertyOp7
 70
     1
102
RTVSPropertyOp8
 70
     1
102
RTVSPropertyOp9
 70
     1
102
RTVSPropertyOp10
 70
     1
102
RTVSPropertyOp11
 70
     1
102
RTVSPropertyOp12
 70
     1
102
RTVSPropertyOp13
 70
     1
102
RTVSPropertyOp14
 70
     1
102
RTVSPropertyOp15
 70
     1
102
RTVSPropertyOp16
 70
     1
102
RTVSPropertyOp17
 70
     1
102
RTVSPropertyOp18
 70
     1
102
RTVSPropertyOp19
 70
     1
102
RTVSPropertyOp20
 70
     1
102
RTVSPropertyOp21
 70
     1
102
RTVSPropertyOp22
 70
     1
102
RTVSPropertyOp23
 70
     1
102
RTVSPropertyOp24
 70
     1
102
RTVSPropertyOp25
 70
     1
102
RTVSPropertyOp26
 70
     1
102
RTVSPropertyOp27
 70
     1
  0
XRECORD
  5
66F
102
{ACAD_REACTORS
330
66E
102
}
330
66E
100
AcDbXrecord
280
     1
102
RTVSPropertyOp0
 70
     1
102
RTVSPropertyOp1
 70
     1
102
RTVSPropertyOp2
 70
     1
102
RTVSPropertyOp3
 70
     1
102
RTVSPropertyOp4
 70
     1
102
RTVSPropertyOp5
 70
     1
102
RTVSPropertyOp6
 70
     1
102
RTVSPropertyOp7
 70
     1
102
RTVSPropertyOp8
 70
     1
102
RTVSPropertyOp9
 70
     1
102
RTVSPropertyOp10
 70
     1
102
RTVSPropertyOp11
 70
     1
102
RTVSPropertyOp12
 70
     1
102
RTVSPropertyOp13
 70
     1
102
RTVSPropertyOp14
 70
     1
102
RTVSPropertyOp15
 70
     1
102
RTVSPropertyOp16
 70
     1
102
RTVSPropertyOp17
 70
     1
102
RTVSPropertyOp18
 70
     1
102
RTVSPropertyOp19
 70
     1
102
RTVSPropertyOp20
 70
     1
102
RTVSPropertyOp21
 70
     1
102
RTVSPropertyOp22
 70
     1
102
RTVSPropertyOp23
 70
     1
102
RTVSPropertyOp24
 70
     1
102
RTVSPropertyOp25
 70
     1
102
RTVSPropertyOp26
 70
     1
102
RTVSPropertyOp27
 70
     1
  0
XRECORD
  5
673
102
{ACAD_REACTORS
330
672
102
}
330
672
100
AcDbXrecord
280
     1
102
RTVSPropertyOp0
 70
     1
102
RTVSPropertyOp1
 70
     1
102
RTVSPropertyOp2
 70
     1
102
RTVSPropertyOp3
 70
     1
102
RTVSPropertyOp4
 70
     1
102
RTVSPropertyOp5
 70
     1
102
RTVSPropertyOp6
 70
     1
102
RTVSPropertyOp7
 70
     1
102
RTVSPropertyOp8
 70
     1
102
RTVSPropertyOp9
 70
     1
102
RTVSPropertyOp10
 70
     1
102
RTVSPropertyOp11
 70
     1
102
RTVSPropertyOp12
 70
     1
102
RTVSPropertyOp13
 70
     1
102
RTVSPropertyOp14
 70
     1
102
RTVSPropertyOp15
 70
     1
102
RTVSPropertyOp16
 70
     1
102
RTVSPropertyOp17
 70
     1
102
RTVSPropertyOp18
 70
     1
102
RTVSPropertyOp19
 70
     1
102
RTVSPropertyOp20
 70
     1
102
RTVSPropertyOp21
 70
     1
102
RTVSPropertyOp22
 70
     1
102
RTVSPropertyOp23
 70
     1
102
RTVSPropertyOp24
 70
     1
102
RTVSPropertyOp25
 70
     1
102
RTVSPropertyOp26
 70
     1
102
RTVSPropertyOp27
 70
     1
  0
XRECORD
  5
67B
102
{ACAD_REACTORS
330
67A
102
}
330
67A
100
AcDbXrecord
280
     1
102
RTVSPropertyOp0
 70
     1
102
RTVSPropertyOp1
 70
     1
102
RTVSPropertyOp2
 70
     1
102
RTVSPropertyOp3
 70
     1
102
RTVSPropertyOp4
 70
     1
102
RTVSPropertyOp5
 70
     1
102
RTVSPropertyOp6
 70
     1
102
RTVSPropertyOp7
 70
     1
102
RTVSPropertyOp8
 70
     1
102
RTVSPropertyOp9
 70
     1
102
RTVSPropertyOp10
 70
     1
102
RTVSPropertyOp11
 70
     1
102
RTVSPropertyOp12
 70
     1
102
RTVSPropertyOp13
 70
     1
102
RTVSPropertyOp14
 70
     1
102
RTVSPropertyOp15
 70
     1
102
RTVSPropertyOp16
 70
     1
102
RTVSPropertyOp17
 70
     1
102
RTVSPropertyOp18
 70
     1
102
RTVSPropertyOp19
 70
     1
102
RTVSPropertyOp20
 70
     1
102
RTVSPropertyOp21
 70
     1
102
RTVSPropertyOp22
 70
     1
102
RTVSPropertyOp23
 70
     1
102
RTVSPropertyOp24
 70
     1
102
RTVSPropertyOp25
 70
     1
102
RTVSPropertyOp26
 70
     1
102
RTVSPropertyOp27
 70
     1
  0
XRECORD
  5
683
102
{ACAD_REACTORS
330
682
102
}
330
682
100
AcDbXrecord
280
     1
102
RTVSPropertyOp0
 70
     1
102
RTVSPropertyOp1
 70
     1
102
RTVSPropertyOp2
 70
     1
102
RTVSPropertyOp3
 70
     1
102
RTVSPropertyOp4
 70
     1
102
RTVSPropertyOp5
 70
     1
102
RTVSPropertyOp6
 70
     1
102
RTVSPropertyOp7
 70
     1
102
RTVSPropertyOp8
 70
     1
102
RTVSPropertyOp9
 70
     1
102
RTVSPropertyOp10
 70
     1
102
RTVSPropertyOp11
 70
     1
102
RTVSPropertyOp12
 70
     1
102
RTVSPropertyOp13
 70
     1
102
RTVSPropertyOp14
 70
     1
102
RTVSPropertyOp15
 70
     1
102
RTVSPropertyOp16
 70
     1
102
RTVSPropertyOp17
 70
     1
102
RTVSPropertyOp18
 70
     1
102
RTVSPropertyOp19
 70
     1
102
RTVSPropertyOp20
 70
     1
102
RTVSPropertyOp21
 70
     1
102
RTVSPropertyOp22
 70
     1
102
RTVSPropertyOp23
 70
     1
102
RTVSPropertyOp24
 70
     1
102
RTVSPropertyOp25
 70
     1
102
RTVSPropertyOp26
 70
     1
102
RTVSPropertyOp27
 70
     1
  0
XRECORD
  5
677
102
{ACAD_REACTORS
330
676
102
}
330
676
100
AcDbXrecord
280
     1
102
RTVSPropertyOp0
 70
     1
102
RTVSPropertyOp1
 70
     1
102
RTVSPropertyOp2
 70
     1
102
RTVSPropertyOp3
 70
     1
102
RTVSPropertyOp4
 70
     1
102
RTVSPropertyOp5
 70
     1
102
RTVSPropertyOp6
 70
     1
102
RTVSPropertyOp7
 70
     1
102
RTVSPropertyOp8
 70
     1
102
RTVSPropertyOp9
 70
     1
102
RTVSPropertyOp10
 70
     1
102
RTVSPropertyOp11
 70
     1
102
RTVSPropertyOp12
 70
     1
102
RTVSPropertyOp13
 70
     1
102
RTVSPropertyOp14
 70
     1
102
RTVSPropertyOp15
 70
     1
102
RTVSPropertyOp16
 70
     1
102
RTVSPropertyOp17
 70
     1
102
RTVSPropertyOp18
 70
     1
102
RTVSPropertyOp19
 70
     1
102
RTVSPropertyOp20
 70
     1
102
RTVSPropertyOp21
 70
     1
102
RTVSPropertyOp22
 70
     1
102
RTVSPropertyOp23
 70
     1
102
RTVSPropertyOp24
 70
     1
102
RTVSPropertyOp25
 70
     1
102
RTVSPropertyOp26
 70
     1
102
RTVSPropertyOp27
 70
     1
  0
XRECORD
  5
679
102
{ACAD_REACTORS
330
678
102
}
330
678
100
AcDbXrecord
280
     1
102
RTVSPropertyOp0
 70
     1
102
RTVSPropertyOp1
 70
     1
102
RTVSPropertyOp2
 70
     1
102
RTVSPropertyOp3
 70
     1
102
RTVSPropertyOp4
 70
     1
102
RTVSPropertyOp5
 70
     1
102
RTVSPropertyOp6
 70
     1
102
RTVSPropertyOp7
 70
     1
102
RTVSPropertyOp8
 70
     1
102
RTVSPropertyOp9
 70
     1
102
RTVSPropertyOp10
 70
     1
102
RTVSPropertyOp11
 70
     1
102
RTVSPropertyOp12
 70
     1
102
RTVSPropertyOp13
 70
     1
102
RTVSPropertyOp14
 70
     1
102
RTVSPropertyOp15
 70
     1
102
RTVSPropertyOp16
 70
     1
102
RTVSPropertyOp17
 70
     1
102
RTVSPropertyOp18
 70
     1
102
RTVSPropertyOp19
 70
     1
102
RTVSPropertyOp20
 70
     1
102
RTVSPropertyOp21
 70
     1
102
RTVSPropertyOp22
 70
     1
102
RTVSPropertyOp23
 70
     1
102
RTVSPropertyOp24
 70
     1
102
RTVSPropertyOp25
 70
     1
102
RTVSPropertyOp26
 70
     1
102
RTVSPropertyOp27
 70
     1
  0
XRECORD
  5
681
102
{ACAD_REACTORS
330
680
102
}
330
680
100
AcDbXrecord
280
     1
102
RTVSPropertyOp0
 70
     1
102
RTVSPropertyOp1
 70
     1
102
RTVSPropertyOp2
 70
     1
102
RTVSPropertyOp3
 70
     1
102
RTVSPropertyOp4
 70
     1
102
RTVSPropertyOp5
 70
     1
102
RTVSPropertyOp6
 70
     1
102
RTVSPropertyOp7
 70
     1
102
RTVSPropertyOp8
 70
     1
102
RTVSPropertyOp9
 70
     1
102
RTVSPropertyOp10
 70
     1
102
RTVSPropertyOp11
 70
     1
102
RTVSPropertyOp12
 70
     1
102
RTVSPropertyOp13
 70
     1
102
RTVSPropertyOp14
 70
     1
102
RTVSPropertyOp15
 70
     1
102
RTVSPropertyOp16
 70
     1
102
RTVSPropertyOp17
 70
     1
102
RTVSPropertyOp18
 70
     1
102
RTVSPropertyOp19
 70
     1
102
RTVSPropertyOp20
 70
     1
102
RTVSPropertyOp21
 70
     1
102
RTVSPropertyOp22
 70
     1
102
RTVSPropertyOp23
 70
     1
102
RTVSPropertyOp24
 70
     1
102
RTVSPropertyOp25
 70
     1
102
RTVSPropertyOp26
 70
     1
102
RTVSPropertyOp27
 70
     1
  0
XRECORD
  5
665
102
{ACAD_REACTORS
330
664
102
}
330
664
100
AcDbXrecord
280
     1
102
RTVSPropertyOp0
 70
     1
102
RTVSPropertyOp1
 70
     1
102
RTVSPropertyOp2
 70
     1
102
RTVSPropertyOp3
 70
     1
102
RTVSPropertyOp4
 70
     1
102
RTVSPropertyOp5
 70
     1
102
RTVSPropertyOp6
 70
     1
102
RTVSPropertyOp7
 70
     1
102
RTVSPropertyOp8
 70
     1
102
RTVSPropertyOp9
 70
     1
102
RTVSPropertyOp10
 70
     1
102
RTVSPropertyOp11
 70
     1
102
RTVSPropertyOp12
 70
     1
102
RTVSPropertyOp13
 70
     1
102
RTVSPropertyOp14
 70
     1
102
RTVSPropertyOp15
 70
     1
102
RTVSPropertyOp16
 70
     1
102
RTVSPropertyOp17
 70
     1
102
RTVSPropertyOp18
 70
     1
102
RTVSPropertyOp19
 70
     1
102
RTVSPropertyOp20
 70
     1
102
RTVSPropertyOp21
 70
     1
102
RTVSPropertyOp22
 70
     1
102
RTVSPropertyOp23
 70
     1
102
RTVSPropertyOp24
 70
     1
102
RTVSPropertyOp25
 70
     1
102
RTVSPropertyOp26
 70
     1
102
RTVSPropertyOp27
 70
     1
  0
XRECORD
  5
667
102
{ACAD_REACTORS
330
666
102
}
330
666
100
AcDbXrecord
280
     1
102
RTVSPropertyOp0
 70
     1
102
RTVSPropertyOp1
 70
     1
102
RTVSPropertyOp2
 70
     1
102
RTVSPropertyOp3
 70
     1
102
RTVSPropertyOp4
 70
     1
102
RTVSPropertyOp5
 70
     1
102
RTVSPropertyOp6
 70
     1
102
RTVSPropertyOp7
 70
     1
102
RTVSPropertyOp8
 70
     1
102
RTVSPropertyOp9
 70
     1
102
RTVSPropertyOp10
 70
     1
102
RTVSPropertyOp11
 70
     1
102
RTVSPropertyOp12
 70
     1
102
RTVSPropertyOp13
 70
     1
102
RTVSPropertyOp14
 70
     1
102
RTVSPropertyOp15
 70
     1
102
RTVSPropertyOp16
 70
     1
102
RTVSPropertyOp17
 70
     1
102
RTVSPropertyOp18
 70
     1
102
RTVSPropertyOp19
 70
     1
102
RTVSPropertyOp20
 70
     1
102
RTVSPropertyOp21
 70
     1
102
RTVSPropertyOp22
 70
     1
102
RTVSPropertyOp23
 70
     1
102
RTVSPropertyOp24
 70
     1
102
RTVSPropertyOp25
 70
     1
102
RTVSPropertyOp26
 70
     1
102
RTVSPropertyOp27
 70
     1
  0
XRECORD
  5
669
102
{ACAD_REACTORS
330
668
102
}
330
668
100
AcDbXrecord
280
     1
102
RTVSPropertyOp0
 70
     1
102
RTVSPropertyOp1
 70
     1
102
RTVSPropertyOp2
 70
     1
102
RTVSPropertyOp3
 70
     1
102
RTVSPropertyOp4
 70
     1
102
RTVSPropertyOp5
 70
     1
102
RTVSPropertyOp6
 70
     1
102
RTVSPropertyOp7
 70
     1
102
RTVSPropertyOp8
 70
     1
102
RTVSPropertyOp9
 70
     1
102
RTVSPropertyOp10
 70
     1
102
RTVSPropertyOp11
 70
     1
102
RTVSPropertyOp12
 70
     1
102
RTVSPropertyOp13
 70
     1
102
RTVSPropertyOp14
 70
     1
102
RTVSPropertyOp15
 70
     1
102
RTVSPropertyOp16
 70
     1
102
RTVSPropertyOp17
 70
     1
102
RTVSPropertyOp18
 70
     1
102
RTVSPropertyOp19
 70
     1
102
RTVSPropertyOp20
 70
     1
102
RTVSPropertyOp21
 70
     1
102
RTVSPropertyOp22
 70
     1
102
RTVSPropertyOp23
 70
     1
102
RTVSPropertyOp24
 70
     1
102
RTVSPropertyOp25
 70
     1
102
RTVSPropertyOp26
 70
     1
102
RTVSPropertyOp27
 70
     1
  0
XRECORD
  5
66B
102
{ACAD_REACTORS
330
66A
102
}
330
66A
100
AcDbXrecord
280
     1
102
RTVSPropertyOp0
 70
     1
102
RTVSPropertyOp1
 70
     1
102
RTVSPropertyOp2
 70
     1
102
RTVSPropertyOp3
 70
     1
102
RTVSPropertyOp4
 70
     1
102
RTVSPropertyOp5
 70
     1
102
RTVSPropertyOp6
 70
     1
102
RTVSPropertyOp7
 70
     1
102
RTVSPropertyOp8
 70
     1
102
RTVSPropertyOp9
 70
     1
102
RTVSPropertyOp10
 70
     1
102
RTVSPropertyOp11
 70
     1
102
RTVSPropertyOp12
 70
     1
102
RTVSPropertyOp13
 70
     1
102
RTVSPropertyOp14
 70
     1
102
RTVSPropertyOp15
 70
     1
102
RTVSPropertyOp16
 70
     1
102
RTVSPropertyOp17
 70
     1
102
RTVSPropertyOp18
 70
     1
102
RTVSPropertyOp19
 70
     1
102
RTVSPropertyOp20
 70
     1
102
RTVSPropertyOp21
 70
     1
102
RTVSPropertyOp22
 70
     1
102
RTVSPropertyOp23
 70
     1
102
RTVSPropertyOp24
 70
     1
102
RTVSPropertyOp25
 70
     1
102
RTVSPropertyOp26
 70
     1
102
RTVSPropertyOp27
 70
     1
  0
XRECORD
  5
67F
102
{ACAD_REACTORS
330
67E
102
}
330
67E
100
AcDbXrecord
280
     1
102
RTVSPropertyOp0
 70
     1
102
RTVSPropertyOp1
 70
     1
102
RTVSPropertyOp2
 70
     1
102
RTVSPropertyOp3
 70
     1
102
RTVSPropertyOp4
 70
     1
102
RTVSPropertyOp5
 70
     1
102
RTVSPropertyOp6
 70
     1
102
RTVSPropertyOp7
 70
     1
102
RTVSPropertyOp8
 70
     1
102
RTVSPropertyOp9
 70
     1
102
RTVSPropertyOp10
 70
     1
102
RTVSPropertyOp11
 70
     1
102
RTVSPropertyOp12
 70
     1
102
RTVSPropertyOp13
 70
     1
102
RTVSPropertyOp14
 70
     1
102
RTVSPropertyOp15
 70
     1
102
RTVSPropertyOp16
 70
     1
102
RTVSPropertyOp17
 70
     1
102
RTVSPropertyOp18
 70
     1
102
RTVSPropertyOp19
 70
     1
102
RTVSPropertyOp20
 70
     1
102
RTVSPropertyOp21
 70
     1
102
RTVSPropertyOp22
 70
     1
102
RTVSPropertyOp23
 70
     1
102
RTVSPropertyOp24
 70
     1
102
RTVSPropertyOp25
 70
     1
102
RTVSPropertyOp26
 70
     1
102
RTVSPropertyOp27
 70
     1
  0
XRECORD
  5
675
102
{ACAD_REACTORS
330
674
102
}
330
674
100
AcDbXrecord
280
     1
102
RTVSPropertyOp0
 70
     1
102
RTVSPropertyOp1
 70
     1
102
RTVSPropertyOp2
 70
     1
102
RTVSPropertyOp3
 70
     1
102
RTVSPropertyOp4
 70
     1
102
RTVSPropertyOp5
 70
     1
102
RTVSPropertyOp6
 70
     1
102
RTVSPropertyOp7
 70
     1
102
RTVSPropertyOp8
 70
     1
102
RTVSPropertyOp9
 70
     1
102
RTVSPropertyOp10
 70
     1
102
RTVSPropertyOp11
 70
     1
102
RTVSPropertyOp12
 70
     1
102
RTVSPropertyOp13
 70
     1
102
RTVSPropertyOp14
 70
     1
102
RTVSPropertyOp15
 70
     1
102
RTVSPropertyOp16
 70
     1
102
RTVSPropertyOp17
 70
     1
102
RTVSPropertyOp18
 70
     1
102
RTVSPropertyOp19
 70
     1
102
RTVSPropertyOp20
 70
     1
102
RTVSPropertyOp21
 70
     1
102
RTVSPropertyOp22
 70
     1
102
RTVSPropertyOp23
 70
     1
102
RTVSPropertyOp24
 70
     1
102
RTVSPropertyOp25
 70
     1
102
RTVSPropertyOp26
 70
     1
102
RTVSPropertyOp27
 70
     1
  0
XRECORD
  5
67D
102
{ACAD_REACTORS
330
67C
102
}
330
67C
100
AcDbXrecord
280
     1
102
RTVSPropertyOp0
 70
     1
102
RTVSPropertyOp1
 70
     1
102
RTVSPropertyOp2
 70
     1
102
RTVSPropertyOp3
 70
     1
102
RTVSPropertyOp4
 70
     1
102
RTVSPropertyOp5
 70
     1
102
RTVSPropertyOp6
 70
     1
102
RTVSPropertyOp7
 70
     1
102
RTVSPropertyOp8
 70
     1
102
RTVSPropertyOp9
 70
     1
102
RTVSPropertyOp10
 70
     1
102
RTVSPropertyOp11
 70
     1
102
RTVSPropertyOp12
 70
     1
102
RTVSPropertyOp13
 70
     1
102
RTVSPropertyOp14
 70
     1
102
RTVSPropertyOp15
 70
     1
102
RTVSPropertyOp16
 70
     1
102
RTVSPropertyOp17
 70
     1
102
RTVSPropertyOp18
 70
     1
102
RTVSPropertyOp19
 70
     1
102
RTVSPropertyOp20
 70
     1
102
RTVSPropertyOp21
 70
     1
102
RTVSPropertyOp22
 70
     1
102
RTVSPropertyOp23
 70
     1
102
RTVSPropertyOp24
 70
     1
102
RTVSPropertyOp25
 70
     1
102
RTVSPropertyOp26
 70
     1
102
RTVSPropertyOp27
 70
     1
  0
ENDSEC
  0
EOF
