  0
SECTION
  2
HEADER
  9
$ACADVER
  1
AC1015
  9
$ACADMAINTVER
 70
     6
  9
$DWGCODEPAGE
  3
ANSI_932
  9
$INSBASE
 10
0.0
 20
0.0
 30
0.0
  9
$EXTMIN
 10
18.9999999999994
 20
17.85651379828242
 30
0.0
  9
$EXTMAX
 10
416.6260625000001
 20
329.0
 30
0.0
  9
$LIMMIN
 10
0.0
 20
0.0
  9
$LIMMAX
 10
12.0
 20
9.0
  9
$ORTHOMODE
 70
     0
  9
$REGENMODE
 70
     1
  9
$FILLMODE
 70
     1
  9
$QTEXTMODE
 70
     0
  9
$MIRRTEXT
 70
     1
  9
$LTSCALE
 40
1.0
  9
$ATTMODE
 70
     1
  9
$TEXTSIZE
 40
0.2
  9
$TRACEWID
 40
0.05
  9
$TEXTSTYLE
  7
Standard
  9
$CLAYER
  8
0
  9
$CELTYPE
  6
ByLayer
  9
$CECOLOR
 62
   256
  9
$CELTSCALE
 40
1.0
  9
$DISPSILH
 70
     0
  9
$DIMSCALE
 40
1.0
  9
$DIMASZ
 40
0.18
  9
$DIMEXO
 40
0.0625
  9
$DIMDLI
 40
0.38
  9
$DIMRND
 40
0.0
  9
$DIMDLE
 40
0.0
  9
$DIMEXE
 40
0.18
  9
$DIMTP
 40
0.0
  9
$DIMTM
 40
0.0
  9
$DIMTXT
 40
0.18
  9
$DIMCEN
 40
0.09
  9
$DIMTSZ
 40
0.0
  9
$DIMTOL
 70
     0
  9
$DIMLIM
 70
     0
  9
$DIMTIH
 70
     1
  9
$DIMTOH
 70
     1
  9
$DIMSE1
 70
     0
  9
$DIMSE2
 70
     0
  9
$DIMTAD
 70
     0
  9
$DIMZIN
 70
     0
  9
$DIMBLK
  1

  9
$DIMASO
 70
     1
  9
$DIMSHO
 70
     1
  9
$DIMPOST
  1

  9
$DIMAPOST
  1

  9
$DIMALT
 70
     0
  9
$DIMALTD
 70
     2
  9
$DIMALTF
 40
25.4
  9
$DIMLFAC
 40
1.0
  9
$DIMTOFL
 70
     0
  9
$DIMTVP
 40
0.0
  9
$DIMTIX
 70
     0
  9
$DIMSOXD
 70
     0
  9
$DIMSAH
 70
     0
  9
$DIMBLK1
  1

  9
$DIMBLK2
  1

  9
$DIMSTYLE
  2
Standard
  9
$DIMCLRD
 70
     0
  9
$DIMCLRE
 70
     0
  9
$DIMCLRT
 70
     0
  9
$DIMTFAC
 40
1.0
  9
$DIMGAP
 40
0.09
  9
$DIMJUST
 70
     0
  9
$DIMSD1
 70
     0
  9
$DIMSD2
 70
     0
  9
$DIMTOLJ
 70
     1
  9
$DIMTZIN
 70
     0
  9
$DIMALTZ
 70
     0
  9
$DIMALTTZ
 70
     0
  9
$DIMUPT
 70
     0
  9
$DIMDEC
 70
     4
  9
$DIMTDEC
 70
     4
  9
$DIMALTU
 70
     2
  9
$DIMALTTD
 70
     2
  9
$DIMTXSTY
  7
Standard
  9
$DIMAUNIT
 70
     0
  9
$DIMADEC
 70
     0
  9
$DIMALTRND
 40
0.0
  9
$DIMAZIN
 70
     0
  9
$DIMDSEP
 70
    46
  9
$DIMATFIT
 70
     3
  9
$DIMFRAC
 70
     0
  9
$DIMLDRBLK
  1

  9
$DIMLUNIT
 70
     2
  9
$DIMLWD
 70
    -2
  9
$DIMLWE
 70
    -2
  9
$DIMTMOVE
 70
     0
  9
$LUNITS
 70
     2
  9
$LUPREC
 70
     4
  9
$SKETCHINC
 40
0.1
  9
$FILLETRAD
 40
0.5
  9
$AUNITS
 70
     0
  9
$AUPREC
 70
     0
  9
$MENU
  1
.
  9
$ELEVATION
 40
0.0
  9
$PELEVATION
 40
0.0
  9
$THICKNESS
 40
0.0
  9
$LIMCHECK
 70
     0
  9
$CHAMFERA
 40
0.5
  9
$CHAMFERB
 40
0.5
  9
$CHAMFERC
 40
1.0
  9
$CHAMFERD
 40
0.0
  9
$SKPOLY
 70
     0
  9
$TDCREATE
 40
2457624.470818379
  9
$TDUCREATE
 40
2457624.095818379
  9
$TDUPDATE
 40
2457624.470818391
  9
$TDUUPDATE
 40
2457624.095818391
  9
$TDINDWG
 40
0.0000000116
  9
$TDUSRTIMER
 40
0.0000000116
  9
$USRTIMER
 70
     1
  9
$ANGBASE
 50
0.0
  9
$ANGDIR
 70
     0
  9
$PDMODE
 70
     0
  9
$PDSIZE
 40
0.0
  9
$PLINEWID
 40
0.0
  9
$SPLFRAME
 70
     0
  9
$SPLINETYPE
 70
     6
  9
$SPLINESEGS
 70
     8
  9
$HANDSEED
  5
473
  9
$SURFTAB1
 70
     6
  9
$SURFTAB2
 70
     6
  9
$SURFTYPE
 70
     6
  9
$SURFU
 70
     6
  9
$SURFV
 70
     6
  9
$UCSBASE
  2

  9
$UCSNAME
  2

  9
$UCSORG
 10
0.0
 20
0.0
 30
0.0
  9
$UCSXDIR
 10
1.0
 20
0.0
 30
0.0
  9
$UCSYDIR
 10
0.0
 20
1.0
 30
0.0
  9
$UCSORTHOREF
  2

  9
$UCSORTHOVIEW
 70
     0
  9
$UCSORGTOP
 10
0.0
 20
0.0
 30
0.0
  9
$UCSORGBOTTOM
 10
0.0
 20
0.0
 30
0.0
  9
$UCSORGLEFT
 10
0.0
 20
0.0
 30
0.0
  9
$UCSORGRIGHT
 10
0.0
 20
0.0
 30
0.0
  9
$UCSORGFRONT
 10
0.0
 20
0.0
 30
0.0
  9
$UCSORGBACK
 10
0.0
 20
0.0
 30
0.0
  9
$PUCSBASE
  2

  9
$PUCSNAME
  2

  9
$PUCSORG
 10
0.0
 20
0.0
 30
0.0
  9
$PUCSXDIR
 10
1.0
 20
0.0
 30
0.0
  9
$PUCSYDIR
 10
0.0
 20
1.0
 30
0.0
  9
$PUCSORTHOREF
  2

  9
$PUCSORTHOVIEW
 70
     0
  9
$PUCSORGTOP
 10
0.0
 20
0.0
 30
0.0
  9
$PUCSORGBOTTOM
 10
0.0
 20
0.0
 30
0.0
  9
$PUCSORGLEFT
 10
0.0
 20
0.0
 30
0.0
  9
$PUCSORGRIGHT
 10
0.0
 20
0.0
 30
0.0
  9
$PUCSORGFRONT
 10
0.0
 20
0.0
 30
0.0
  9
$PUCSORGBACK
 10
0.0
 20
0.0
 30
0.0
  9
$USERI1
 70
     0
  9
$USERI2
 70
     0
  9
$USERI3
 70
     0
  9
$USERI4
 70
     0
  9
$USERI5
 70
     0
  9
$USERR1
 40
18.0
  9
$USERR2
 40
0.0
  9
$USERR3
 40
0.0
  9
$USERR4
 40
0.0
  9
$USERR5
 40
0.0
  9
$WORLDVIEW
 70
     1
  9
$SHADEDGE
 70
     3
  9
$SHADEDIF
 70
    70
  9
$TILEMODE
 70
     1
  9
$MAXACTVP
 70
    64
  9
$PINSBASE
 10
0.0
 20
0.0
 30
0.0
  9
$PLIMCHECK
 70
     0
  9
$PEXTMIN
 10
1.00000000000000E+20
 20
1.00000000000000E+20
 30
1.00000000000000E+20
  9
$PEXTMAX
 10
-1.00000000000000E+20
 20
-1.00000000000000E+20
 30
-1.00000000000000E+20
  9
$PLIMMIN
 10
0.0
 20
0.0
  9
$PLIMMAX
 10
12.0
 20
9.0
  9
$UNITMODE
 70
     0
  9
$VISRETAIN
 70
     1
  9
$PLINEGEN
 70
     0
  9
$PSLTSCALE
 70
     1
  9
$TREEDEPTH
 70
  3020
  9
$CMLSTYLE
  2
Standard
  9
$CMLJUST
 70
     0
  9
$CMLSCALE
 40
1.0
  9
$PROXYGRAPHICS
 70
     1
  9
$MEASUREMENT
 70
     1
  9
$CELWEIGHT
370
    -1
  9
$ENDCAPS
280
     0
  9
$JOINSTYLE
280
     0
  9
$LWDISPLAY
290
     0
  9
$INSUNITS
 70
     1
  9
$HYPERLINKBASE
  1

  9
$STYLESHEET
  1

  9
$XEDIT
290
     1
  9
$CEPSNTYPE
380
     0
  9
$PSTYLEMODE
290
     1
  9
$FINGERPRINTGUID
  2
{1C8FD947-EFEF-4BDC-B75E-D67718626F20}
  9
$VERSIONGUID
  2
{FAEB1C32-E019-11D5-929B-00C0DF256EC4}
  9
$EXTNAMES
290
     1
  9
$PSVPSCALE
 40
0.0
  9
$OLESTARTUP
290
     0
  0
ENDSEC
  0
SECTION
  2
CLASSES
  0
CLASS
  1
ACDBDICTIONARYWDFLT
  2
AcDbDictionaryWithDefault
  3
ObjectDBX Classes
 90
        0
280
     0
281
     0
  0
CLASS
  1
VISUALSTYLE
  2
AcDbVisualStyle
  3
ObjectDBX Classes
 90
     4095
280
     0
281
     0
  0
CLASS
  1
MATERIAL
  2
AcDbMaterial
  3
ObjectDBX Classes
 90
     1153
280
     0
281
     0
  0
CLASS
  1

  2
exOdDbCircle
  3

 90
        0
280
     0
281
     1
  0
CLASS
  1
SCALE
  2
AcDbScale
  3
ObjectDBX Classes
 90
     1153
280
     0
281
     0
  0
CLASS
  1
DICTIONARYVAR
  2
AcDbDictionaryVar
  3
ObjectDBX Classes
 90
        0
280
     0
281
     0
  0
CLASS
  1
ACDBPLACEHOLDER
  2
AcDbPlaceHolder
  3
ObjectDBX Classes
 90
        0
280
     0
281
     0
  0
CLASS
  1
LAYOUT
  2
AcDbLayout
  3
ObjectDBX Classes
 90
        0
280
     0
281
     0
  0
ENDSEC
  0
SECTION
  2
TABLES
  0
TABLE
  2
VPORT
  5
8
330
0
100
AcDbSymbolTable
 70
     1
  0
VPORT
  5
29
330
8
100
AcDbSymbolTableRecord
100
AcDbViewportTableRecord
  2
*Active
 70
     0
 10
0.0
 20
0.0
 11
1.0
 21
1.0
 12
217.8130312499997
 22
173.4282568991412
 13
0.0
 23
0.0
 14
0.5
 24
0.5
 15
0.5
 25
0.5
 16
0.0
 26
0.0
 36
1.0
 17
0.0
 27
0.0
 37
0.0
 40
342.2578348218893
 41
1.60267857142857
 42
50.0
 43
0.0
 44
0.0
 50
0.0
 51
0.0
 71
     0
 72
   100
 73
     1
 74
     3
 75
     0
 76
     0
 77
     0
 78
     0
281
     0
 65
     1
110
0.0
120
0.0
130
0.0
111
1.0
121
0.0
131
0.0
112
0.0
122
1.0
132
0.0
 79
     0
146
0.0
  0
ENDTAB
  0
TABLE
  2
LTYPE
  5
5
330
0
100
AcDbSymbolTable
 70
     8
  0
LTYPE
  5
14
330
5
100
AcDbSymbolTableRecord
100
AcDbLinetypeTableRecord
  2
ByBlock
 70
     0
  3

 72
    65
 73
     0
 40
0.0
  0
LTYPE
  5
15
330
5
100
AcDbSymbolTableRecord
100
AcDbLinetypeTableRecord
  2
ByLayer
 70
     0
  3

 72
    65
 73
     0
 40
0.0
  0
LTYPE
  5
16
330
5
100
AcDbSymbolTableRecord
100
AcDbLinetypeTableRecord
  2
Continuous
 70
     0
  3
Solid line
 72
    65
 73
     0
 40
0.0
  0
LTYPE
  5
3F
330
5
100
AcDbSymbolTableRecord
100
AcDbLinetypeTableRecord
  2
DASHED
 70
     0
  3
Dashed
 72
    65
 73
     2
 40
15.0
 49
7.0
 74
     0
 49
-8.0
 74
     0
  0
LTYPE
  5
40
330
5
100
AcDbSymbolTableRecord
100
AcDbLinetypeTableRecord
  2
DOTTED
 70
     0
  3
Dotted
 72
    65
 73
     2
 40
1.0
 49
0.0
 74
     0
 49
-1.0
 74
     0
  0
LTYPE
  5
41
330
5
100
AcDbSymbolTableRecord
100
AcDbLinetypeTableRecord
  2
DOT_CENTER
 70
     0
  3
Dot_Center
 72
    65
 73
     4
 40
14.0
 49
12.0
 74
     0
 49
-1.0
 74
     0
 49
0.0
 74
     0
 49
-1.0
 74
     0
  0
LTYPE
  5
42
330
5
100
AcDbSymbolTableRecord
100
AcDbLinetypeTableRecord
  2
LONG_DASHED
 70
     0
  3
Long_Dashed
 72
    65
 73
     2
 40
15.0
 49
10.0
 74
     0
 49
-5.0
 74
     0
  0
LTYPE
  5
43
330
5
100
AcDbSymbolTableRecord
100
AcDbLinetypeTableRecord
  2
DASH_CENTER
 70
     0
  3
Dash_Center
 72
    65
 73
     4
 40
14.0
 49
11.0
 74
     0
 49
-1.0
 74
     0
 49
1.0
 74
     0
 49
-1.0
 74
     0
  0
LTYPE
  5
44
330
5
100
AcDbSymbolTableRecord
100
AcDbLinetypeTableRecord
  2
PHANTOM
 70
     0
  3
Phantom
 72
    65
 73
     6
 40
13.0
 49
10.0
 74
     0
 49
-1.0
 74
     0
 49
0.0
 74
     0
 49
-1.0
 74
     0
 49
0.0
 74
     0
 49
-1.0
 74
     0
  0
LTYPE
  5
45
330
5
100
AcDbSymbolTableRecord
100
AcDbLinetypeTableRecord
  2
CENTER_DASH_DASH
 70
     0
  3
Center_Dash_Dash
 72
    65
 73
     6
 40
14.0
 49
9.0
 74
     0
 49
-1.0
 74
     0
 49
1.0
 74
     0
 49
-1.0
 74
     0
 49
1.0
 74
     0
 49
-1.0
 74
     0
  0
ENDTAB
  0
TABLE
  2
LAYER
  5
2
330
0
100
AcDbSymbolTable
 70
     4
  0
LAYER
  5
10
330
2
100
AcDbSymbolTableRecord
100
AcDbLayerTableRecord
  2
0
 70
     0
 62
     7
  6
Continuous
370
    -3
390
F
  0
LAYER
  5
46
330
2
100
AcDbSymbolTableRecord
100
AcDbLayerTableRecord
  2
1
 70
     0
 62
     7
  6
Continuous
370
    -3
390
F
  0
LAYER
  5
47
330
2
100
AcDbSymbolTableRecord
100
AcDbLayerTableRecord
  2
2
 70
     0
 62
     7
  6
Continuous
370
    -3
390
F
  0
LAYER
  5
48
330
2
100
AcDbSymbolTableRecord
100
AcDbLayerTableRecord
  2
3
 70
     0
 62
     7
  6
Continuous
370
    -3
390
F
  0
ENDTAB
  0
TABLE
  2
STYLE
  5
3
330
0
100
AcDbSymbolTable
 70
     2
  0
STYLE
  5
11
330
3
100
AcDbSymbolTableRecord
100
AcDbTextStyleTableRecord
  2
Standard
 70
     0
 40
0.0
 41
1.0
 50
0.0
 71
     0
 42
0.2
  3
txt
  4

  0
STYLE
  5
3FF
330
3
100
AcDbSymbolTableRecord
100
AcDbTextStyleTableRecord
  2
CONVERTER_11
 70
     0
 40
0.0
 41
0.9
 50
0.0
 71
     0
 42
0.2
  3
txt.shx
  4

  0
ENDTAB
  0
TABLE
  2
VIEW
  5
6
330
0
100
AcDbSymbolTable
 70
     0
  0
ENDTAB
  0
TABLE
  2
UCS
  5
7
330
0
100
AcDbSymbolTable
 70
     0
  0
ENDTAB
  0
TABLE
  2
APPID
  5
9
330
0
100
AcDbSymbolTable
 70
     1
  0
APPID
  5
12
330
9
100
AcDbSymbolTableRecord
100
AcDbRegAppTableRecord
  2
ACAD
 70
     0
  0
ENDTAB
  0
TABLE
  2
DIMSTYLE
  5
A
330
0
100
AcDbSymbolTable
 70
     4
100
AcDbDimStyleTable
  0
DIMSTYLE
105
27
330
A
100
AcDbSymbolTableRecord
100
AcDbDimStyleTableRecord
  2
Standard
 70
     0
340
11
  0
DIMSTYLE
105
42B
102
{ACAD_REACTORS
330
42C
102
}
330
A
100
AcDbSymbolTableRecord
100
AcDbDimStyleTableRecord
  2
ME10_DIM_10
 70
     0
 41
8.0
 42
1.0
 44
1.0
 73
     0
 74
     0
 77
     1
 78
    12
140
10.0
147
1.0
172
     1
173
     1
174
     1
175
     1
176
     2
177
     2
178
     2
271
     3
340
3FF
343
425
344
425
  0
DIMSTYLE
105
438
102
{ACAD_REACTORS
330
439
102
}
330
A
100
AcDbSymbolTableRecord
100
AcDbDimStyleTableRecord
  2
ME10_DIM_11
 70
     0
 41
8.0
 42
1.0
 44
1.0
 73
     0
 74
     0
 77
     1
 78
    12
140
10.0
147
1.0
172
     1
173
     1
174
     1
175
     1
176
     2
177
     2
178
     2
271
     3
340
3FF
343
425
344
425
  0
DIMSTYLE
105
445
102
{ACAD_REACTORS
330
446
102
}
330
A
100
AcDbSymbolTableRecord
100
AcDbDimStyleTableRecord
  2
ME10_DIM_12
 70
     0
 41
8.0
 42
1.0
 44
1.0
 73
     0
 74
     0
 77
     1
 78
    12
140
10.0
147
1.0
172
     1
173
     1
174
     1
175
     1
176
     2
177
     2
178
     2
271
     3
340
3FF
343
425
344
425
  0
ENDTAB
  0
TABLE
  2
BLOCK_RECORD
  5
1
330
0
100
AcDbSymbolTable
 70
     5
  0
BLOCK_RECORD
  5
1F
330
1
100
AcDbSymbolTableRecord
100
AcDbBlockTableRecord
  2
*Model_Space
340
22
  0
BLOCK_RECORD
  5
1B
330
1
100
AcDbSymbolTableRecord
100
AcDbBlockTableRecord
  2
*Paper_Space
340
1E
  0
BLOCK_RECORD
  5
23
330
1
100
AcDbSymbolTableRecord
100
AcDbBlockTableRecord
  2
*Paper_Space0
340
26
  0
BLOCK_RECORD
  5
3F7
330
1
100
AcDbSymbolTableRecord
100
AcDbBlockTableRecord
  2
*D1
340
0
  0
BLOCK_RECORD
  5
425
330
1
100
AcDbSymbolTableRecord
100
AcDbBlockTableRecord
  2
_OPEN30
340
0
  0
BLOCK_RECORD
  5
42D
330
1
100
AcDbSymbolTableRecord
100
AcDbBlockTableRecord
  2
*D3
340
0
  0
BLOCK_RECORD
  5
43A
330
1
100
AcDbSymbolTableRecord
100
AcDbBlockTableRecord
  2
*D4
340
0
  0
ENDTAB
  0
ENDSEC
  0
SECTION
  2
BLOCKS
  0
BLOCK
  5
20
330
1F
100
AcDbEntity
  8
0
100
AcDbBlockBegin
  2
*Model_Space
 70
     0
 10
0.0
 20
0.0
 30
0.0
  3
*Model_Space
  1

  0
ENDBLK
  5
21
330
1F
100
AcDbEntity
  8
0
100
AcDbBlockEnd
  0
BLOCK
  5
1C
330
1B
100
AcDbEntity
 67
     1
  8
0
100
AcDbBlockBegin
  2
*Paper_Space
 70
     0
 10
0.0
 20
0.0
 30
0.0
  3
*Paper_Space
  1

  0
ENDBLK
  5
1D
330
1B
100
AcDbEntity
 67
     1
  8
0
100
AcDbBlockEnd
  0
BLOCK
  5
24
330
23
100
AcDbEntity
  8
0
100
AcDbBlockBegin
  2
*Paper_Space0
 70
     0
 10
0.0
 20
0.0
 30
0.0
  3
*Paper_Space0
  1

  0
ENDBLK
  5
25
330
23
100
AcDbEntity
  8
0
100
AcDbBlockEnd
  0
BLOCK
  5
423
330
3F7
100
AcDbEntity
  8
0
100
AcDbBlockBegin
  2
*D1
 70
     1
 10
0.0
 20
0.0
 30
0.0
  3
*D1
  1

  0
LINE
  5
3F8
330
3F7
100
AcDbEntity
  8
1
  6
Continuous
 62
     2
100
AcDbLine
 10
152.0
 20
38.5051826783531
 30
0.0
 11
232.0
 21
38.5051826783531
 31
0.0
  0
LINE
  5
3F9
330
3F7
100
AcDbEntity
  8
1
  6
Continuous
 62
     2
100
AcDbLine
 10
152.0
 20
84.55000000000001
 30
0.0
 11
152.0
 21
37.5051826783531
 31
0.0
  0
LINE
  5
3FA
330
3F7
100
AcDbEntity
  8
1
  6
Continuous
 62
     2
100
AcDbLine
 10
232.0
 20
84.55000000000001
 30
0.0
 11
232.0
 21
37.5051826783531
 31
0.0
  0
LINE
  5
3FB
330
3F7
100
AcDbEntity
  8
1
 62
     2
100
AcDbLine
 10
232.0
 20
38.5051826783531
 30
0.0
 11
224.0
 21
36.36158913890412
 31
0.0
  0
LINE
  5
3FC
330
3F7
100
AcDbEntity
  8
1
 62
     2
100
AcDbLine
 10
232.0
 20
38.5051826783531
 30
0.0
 11
224.0
 21
40.64877621780209
 31
0.0
  0
LINE
  5
3FD
330
3F7
100
AcDbEntity
  8
1
 62
     2
100
AcDbLine
 10
152.0
 20
38.5051826783531
 30
0.0
 11
160.0
 21
40.64877621780208
 31
0.0
  0
LINE
  5
3FE
330
3F7
100
AcDbEntity
  8
1
 62
     2
100
AcDbLine
 10
152.0
 20
38.5051826783531
 30
0.0
 11
160.0
 21
36.36158913890412
 31
0.0
  0
MTEXT
  5
422
330
3F7
100
AcDbEntity
  8
1
 62
     2
100
AcDbMText
 10
184.6200121203637
 20
39.50516478874296
 30
0.0
 40
10.0
 41
0.0
 71
     7
 72
     1
  1
80
  7
CONVERTER_11
 11
0.9999999999882478
 21
4.848136811095759E-6
 31
0.0
 73
     1
 44
0.60024009603842
  0
ENDBLK
  5
424
330
3F7
100
AcDbEntity
  8
0
100
AcDbBlockEnd
  0
BLOCK
  5
426
330
425
100
AcDbEntity
  8
0
100
AcDbBlockBegin
  2
_OPEN30
 70
     0
 10
0.0
 20
0.0
 30
0.0
  3
_OPEN30
  1

  0
LINE
  5
428
330
425
100
AcDbEntity
  8
0
  6
ByBlock
 62
     0
370
    -2
100
AcDbLine
 10
-1.0
 20
0.267949
 30
0.0
 11
0.0
 21
0.0
 31
0.0
  0
LINE
  5
429
330
425
100
AcDbEntity
  8
0
  6
ByBlock
 62
     0
370
    -2
100
AcDbLine
 10
0.0
 20
0.0
 30
0.0
 11
-1.0
 21
-0.267949
 31
0.0
  0
LINE
  5
42A
330
425
100
AcDbEntity
  8
0
  6
ByBlock
 62
     0
370
    -2
100
AcDbLine
 10
0.0
 20
0.0
 30
0.0
 11
-1.0
 21
0.0
 31
0.0
  0
ENDBLK
  5
427
330
425
100
AcDbEntity
  8
0
100
AcDbBlockEnd
  0
BLOCK
  5
436
330
42D
100
AcDbEntity
  8
0
100
AcDbBlockBegin
  2
*D3
 70
     1
 10
0.0
 20
0.0
 30
0.0
  3
*D3
  1

  0
LINE
  5
42E
330
42D
100
AcDbEntity
  8
1
  6
Continuous
 62
     2
100
AcDbLine
 10
151.9999999999995
 20
20.0001073377314
 30
0.0
 11
275.1999999999996
 21
20.00010733773141
 31
0.0
  0
LINE
  5
42F
330
42D
100
AcDbEntity
  8
1
  6
Continuous
 62
     2
100
AcDbLine
 10
151.9999999999995
 20
84.55
 30
0.0
 11
151.9999999999995
 21
19.0001073377314
 31
0.0
  0
LINE
  5
430
330
42D
100
AcDbEntity
  8
1
  6
Continuous
 62
     2
100
AcDbLine
 10
275.1999999999996
 20
86.0
 30
0.0
 11
275.1999999999996
 21
19.00010733773141
 31
0.0
  0
LINE
  5
431
330
42D
100
AcDbEntity
  8
1
 62
     2
100
AcDbLine
 10
275.1999999999996
 20
20.00010733773141
 30
0.0
 11
267.1999999999996
 21
17.85651379828243
 31
0.0
  0
LINE
  5
432
330
42D
100
AcDbEntity
  8
1
 62
     2
100
AcDbLine
 10
275.1999999999996
 20
20.00010733773141
 30
0.0
 11
267.1999999999996
 21
22.14370087718039
 31
0.0
  0
LINE
  5
433
330
42D
100
AcDbEntity
  8
1
 62
     2
100
AcDbLine
 10
151.9999999999995
 20
20.0001073377314
 30
0.0
 11
159.9999999999995
 21
22.14370087718038
 31
0.0
  0
LINE
  5
434
330
42D
100
AcDbEntity
  8
1
 62
     2
100
AcDbLine
 10
151.9999999999995
 20
20.0001073377314
 30
0.0
 11
159.9999999999995
 21
17.85651379828242
 31
0.0
  0
MTEXT
  5
435
330
42D
100
AcDbEntity
  8
1
 62
     2
100
AcDbMText
 10
170.5999975759311
 20
20.99999999999709
 30
0.0
 40
10.0
 41
0.0
 71
     7
 72
     1
  1
\U+53ef\U+52d5\U+7bc4\U+56f2\U+3000109\U+ff5e124
  7
CONVERTER_11
 11
0.9999999999882478
 21
4.848136811095759E-6
 31
0.0
 73
     1
 44
0.60024009603842
  0
ENDBLK
  5
437
330
42D
100
AcDbEntity
  8
0
100
AcDbBlockEnd
  0
BLOCK
  5
443
330
43A
100
AcDbEntity
  8
0
100
AcDbBlockBegin
  2
*D4
 70
     1
 10
0.0
 20
0.0
 30
0.0
  3
*D4
  1

  0
LINE
  5
43B
330
43A
100
AcDbEntity
  8
1
  6
Continuous
 62
     2
100
AcDbLine
 10
141.060777512214
 20
102.0
 30
0.0
 11
141.060777512214
 21
205.0
 31
0.0
  0
LINE
  5
43C
330
43A
100
AcDbEntity
  8
1
  6
Continuous
 62
     2
100
AcDbLine
 10
145.0
 20
102.0
 30
0.0
 11
140.060777512214
 21
102.0
 31
0.0
  0
LINE
  5
43D
330
43A
100
AcDbEntity
  8
1
  6
Continuous
 62
     2
100
AcDbLine
 10
179.816315289295
 20
205.0
 30
0.0
 11
140.060777512214
 21
205.0
 31
0.0
  0
LINE
  5
43E
330
43A
100
AcDbEntity
  8
1
 62
     2
100
AcDbLine
 10
141.060777512214
 20
205.0
 30
0.0
 11
143.204371051663
 21
197.0
 31
0.0
  0
LINE
  5
43F
330
43A
100
AcDbEntity
  8
1
 62
     2
100
AcDbLine
 10
141.060777512214
 20
205.0
 30
0.0
 11
138.917183972765
 21
197.0
 31
0.0
  0
LINE
  5
440
330
43A
100
AcDbEntity
  8
1
 62
     2
100
AcDbLine
 10
141.060777512214
 20
102.0
 30
0.0
 11
138.917183972765
 21
110.0
 31
0.0
  0
LINE
  5
441
330
43A
100
AcDbEntity
  8
1
 62
     2
100
AcDbLine
 10
141.060777512214
 20
102.0
 30
0.0
 11
143.204371051663
 21
110.0
 31
0.0
  0
MTEXT
  5
442
330
43A
100
AcDbEntity
  8
1
 62
     2
100
AcDbMText
 10
140.060777512214
 20
145.906234277118
 30
0.0
 40
10.0
 41
0.0
 71
     7
 72
     1
  1
103
  7
CONVERTER_11
 11
0.0
 21
1.0
 31
0.0
 73
     1
 44
0.60024009603842
  0
ENDBLK
  5
444
330
43A
100
AcDbEntity
  8
0
100
AcDbBlockEnd
  0
ENDSEC
  0
SECTION
  2
ENTITIES
  0
POINT
  5
49
330
1F
100
AcDbEntity
  8
1
 62
     7
100
AcDbPoint
 10
152.0
 20
85.55
 30
0.0
  0
POINT
  5
4A
330
1F
100
AcDbEntity
  8
1
 62
     7
100
AcDbPoint
 10
232.0
 20
85.55
 30
0.0
  0
POINT
  5
4B
330
1F
100
AcDbEntity
  8
1
 62
     7
100
AcDbPoint
 10
152.0
 20
85.55
 30
0.0
  0
POINT
  5
4C
330
1F
100
AcDbEntity
  8
1
 62
     7
100
AcDbPoint
 10
275.2
 20
87.0
 30
0.0
  0
POINT
  5
4D
330
1F
100
AcDbEntity
  8
1
 62
     7
100
AcDbPoint
 10
146.0
 20
102.0
 30
0.0
  0
POINT
  5
4E
330
1F
100
AcDbEntity
  8
1
 62
     7
100
AcDbPoint
 10
180.816315289295
 20
205.0
 30
0.0
  0
POINT
  5
4F
330
1F
100
AcDbEntity
  8
1
 62
     7
100
AcDbPoint
 10
232.0
 20
85.55
 30
0.0
  0
POINT
  5
50
330
1F
100
AcDbEntity
  8
1
 62
     7
100
AcDbPoint
 10
275.2
 20
87.0
 30
0.0
  0
POINT
  5
51
330
1F
100
AcDbEntity
  8
1
 62
     7
100
AcDbPoint
 10
232.0
 20
85.55
 30
0.0
  0
POINT
  5
52
330
1F
100
AcDbEntity
  8
1
 62
     7
100
AcDbPoint
 10
275.2
 20
87.0
 30
0.0
  0
POINT
  5
53
330
1F
100
AcDbEntity
  8
1
 62
     7
100
AcDbPoint
 10
152.0
 20
85.55
 30
0.0
  0
POINT
  5
54
330
1F
100
AcDbEntity
  8
1
 62
     7
100
AcDbPoint
 10
152.0
 20
85.55
 30
0.0
  0
POINT
  5
55
330
1F
100
AcDbEntity
  8
1
 62
     7
100
AcDbPoint
 10
152.0
 20
85.55
 30
0.0
  0
POINT
  5
56
330
1F
100
AcDbEntity
  8
1
 62
     7
100
AcDbPoint
 10
152.0
 20
85.55
 30
0.0
  0
LINE
  5
57
330
1F
100
AcDbEntity
  8
1
  6
Continuous
 62
     4
100
AcDbLine
 10
413.0616125
 20
292.0
 30
0.0
 11
413.7547000000001
 21
290.5
 31
0.0
  0
LINE
  5
58
330
1F
100
AcDbEntity
  8
1
  6
Continuous
 62
     4
100
AcDbLine
 10
415.3389
 20
287.375
 30
0.0
 11
414.4477875000001
 21
287.375
 31
0.0
  0
LINE
  5
59
330
1F
100
AcDbEntity
  8
1
  6
Continuous
 62
     4
100
AcDbLine
 10
415.3389
 20
296.375
 30
0.0
 11
415.3389
 21
287.375
 31
0.0
  0
LINE
  5
5A
330
1F
100
AcDbEntity
  8
1
  6
Continuous
 62
     4
100
AcDbLine
 10
412.1705000000001
 20
293.625
 30
0.0
 11
416.6260625000001
 21
293.625
 31
0.0
  0
LINE
  5
5B
330
1F
100
AcDbEntity
  8
1
  6
Continuous
 62
     4
100
AcDbLine
 10
411.3784000000001
 20
295.125
 30
0.0
 11
411.972475
 21
297.0
 31
0.0
  0
LINE
  5
5C
330
1F
100
AcDbEntity
  8
1
  6
Continuous
 62
     4
100
AcDbLine
 10
409.992225
 20
292.375
 30
0.0
 11
411.3784000000001
 21
295.125
 31
0.0
  0
LINE
  5
5D
330
1F
100
AcDbEntity
  8
1
  6
Continuous
 62
     4
100
AcDbLine
 10
411.3784000000001
 20
287.0
 30
0.0
 11
411.3784000000001
 21
295.125
 31
0.0
  0
LINE
  5
5E
330
1F
100
AcDbEntity
  8
1
  6
Continuous
 62
     4
100
AcDbLine
 10
406.9228375
 20
295.5
 30
0.0
 11
404.9425875
 21
295.5
 31
0.0
  0
LINE
  5
5F
330
1F
100
AcDbEntity
  8
1
  6
Continuous
 62
     4
100
AcDbLine
 10
406.22975
 20
289.875
 30
0.0
 11
406.22975
 21
287.625
 31
0.0
  0
LINE
  5
60
330
1F
100
AcDbEntity
  8
1
  6
Continuous
 62
     4
100
AcDbLine
 10
408.5070375
 20
289.875
 30
0.0
 11
408.5070375
 21
291.75
 31
0.0
  0
LINE
  5
61
330
1F
100
AcDbEntity
  8
1
  6
Continuous
 62
     4
100
AcDbLine
 10
406.9228375
 20
291.75
 30
0.0
 11
406.22975
 21
291.75
 31
0.0
  0
LINE
  5
62
330
1F
100
AcDbEntity
  8
1
  6
Continuous
 62
     4
100
AcDbLine
 10
407.4179
 20
293.25
 30
0.0
 11
408.7050625
 21
293.25
 31
0.0
  0
LINE
  5
63
330
1F
100
AcDbEntity
  8
1
  6
Continuous
 62
     4
100
AcDbLine
 10
406.22975
 20
293.25
 30
0.0
 11
407.4179
 21
293.25
 31
0.0
  0
LINE
  5
64
330
1F
100
AcDbEntity
  8
1
  6
Continuous
 62
     4
100
AcDbLine
 10
406.9228375
 20
291.75
 30
0.0
 11
407.4179
 21
293.25
 31
0.0
  0
LINE
  5
65
330
1F
100
AcDbEntity
  8
1
  6
Continuous
 62
     4
100
AcDbLine
 10
406.22975
 20
289.875
 30
0.0
 11
408.5070375
 21
289.875
 31
0.0
  0
LINE
  5
66
330
1F
100
AcDbEntity
  8
1
  6
Continuous
 62
     4
100
AcDbLine
 10
406.22975
 20
291.75
 30
0.0
 11
406.22975
 21
289.875
 31
0.0
  0
LINE
  5
67
330
1F
100
AcDbEntity
  8
1
  6
Continuous
 62
     4
100
AcDbLine
 10
408.5070375
 20
291.75
 30
0.0
 11
406.9228375
 21
291.75
 31
0.0
  0
LINE
  5
68
330
1F
100
AcDbEntity
  8
1
  6
Continuous
 62
     4
100
AcDbLine
 10
408.5070375
 20
287.625
 30
0.0
 11
408.5070375
 21
289.875
 31
0.0
  0
LINE
  5
69
330
1F
100
AcDbEntity
  8
1
  6
Continuous
 62
     4
100
AcDbLine
 10
406.22975
 20
287.625
 30
0.0
 11
408.5070375
 21
287.625
 31
0.0
  0
LINE
  5
6A
330
1F
100
AcDbEntity
  8
1
  6
Continuous
 62
     4
100
AcDbLine
 10
405.43765
 20
292.625
 30
0.0
 11
405.43765
 21
287.0
 31
0.0
  0
LINE
  5
6B
330
1F
100
AcDbEntity
  8
1
  6
Continuous
 62
     4
100
AcDbLine
 10
405.1406125
 20
291.75
 30
0.0
 11
404.5465375
 21
289.875
 31
0.0
  0
LINE
  5
6C
330
1F
100
AcDbEntity
  8
1
  6
Continuous
 62
     4
100
AcDbLine
 10
405.8337
 20
294.5
 30
0.0
 11
405.1406125
 21
291.75
 31
0.0
  0
LINE
  5
6D
330
1F
100
AcDbEntity
  8
1
  6
Continuous
 62
     4
100
AcDbLine
 10
404.9425875
 20
295.5
 30
0.0
 11
404.9425875
 21
293.875
 31
0.0
  0
LINE
  5
6E
330
1F
100
AcDbEntity
  8
1
  6
Continuous
 62
     4
100
AcDbLine
 10
408.7050625
 20
295.5
 30
0.0
 11
406.9228375
 21
295.5
 31
0.0
  0
LINE
  5
6F
330
1F
100
AcDbEntity
  8
1
  6
Continuous
 62
     4
100
AcDbLine
 10
408.7050625
 20
294.25
 30
0.0
 11
408.7050625
 21
295.5
 31
0.0
  0
LINE
  5
70
330
1F
100
AcDbEntity
  8
1
  6
Continuous
 62
     4
100
AcDbLine
 10
406.9228375
 20
297.0
 30
0.0
 11
406.9228375
 21
295.5
 31
0.0
  0
LINE
  5
71
330
1F
100
AcDbEntity
  8
1
  6
Continuous
 62
     4
100
AcDbLine
 10
402.26925
 20
294.5
 30
0.0
 11
403.4574
 21
297.0
 31
0.0
  0
LINE
  5
72
330
1F
100
AcDbEntity
  8
1
  6
Continuous
 62
     4
100
AcDbLine
 10
402.9623375
 20
293.25
 30
0.0
 11
402.071225
 21
294.875
 31
0.0
  0
LINE
  5
73
330
1F
100
AcDbEntity
  8
1
  6
Continuous
 62
     4
100
AcDbLine
 10
402.26925
 20
291.375
 30
0.0
 11
404.051475
 21
295.5
 31
0.0
  0
LINE
  5
74
330
1F
100
AcDbEntity
  8
1
  6
Continuous
 62
     4
100
AcDbLine
 10
404.051475
 20
291.75
 30
0.0
 11
401.8732
 21
291.375
 31
0.0
  0
LINE
  5
75
330
1F
100
AcDbEntity
  8
1
  6
Continuous
 62
     4
100
AcDbLine
 10
404.2495
 20
291.125
 30
0.0
 11
403.655425
 21
292.625
 31
0.0
  0
LINE
  5
76
330
1F
100
AcDbEntity
  8
1
  6
Continuous
 62
     4
100
AcDbLine
 10
404.051475
 20
288.625
 30
0.0
 11
403.85345
 21
290.5
 31
0.0
  0
LINE
  5
77
330
1F
100
AcDbEntity
  8
1
  6
Continuous
 62
     4
100
AcDbLine
 10
403.1603625
 20
291.375
 30
0.0
 11
403.1603625
 21
287.0
 31
0.0
  0
LINE
  5
78
330
1F
100
AcDbEntity
  8
1
  6
Continuous
 62
     4
100
AcDbLine
 10
402.26925
 20
288.625
 30
0.0
 11
402.5662875
 21
290.125
 31
0.0
  0
LINE
  5
79
330
1F
100
AcDbEntity
  8
1
  6
Continuous
 62
     4
100
AcDbLine
 10
402.071225
 20
287.625
 30
0.0
 11
402.26925
 21
288.625
 31
0.0
  0
LINE
  5
7A
330
1F
100
AcDbEntity
  8
1
  6
Continuous
 62
     4
100
AcDbLine
 10
397.0215875
 20
292.625
 30
0.0
 11
397.0215875
 21
290.5
 31
0.0
  0
LINE
  5
7B
330
1F
100
AcDbEntity
  8
1
  6
Continuous
 62
     4
100
AcDbLine
 10
400.5860375
 20
292.625
 30
0.0
 11
400.5860375
 21
294.875
 31
0.0
  0
LINE
  5
7C
330
1F
100
AcDbEntity
  8
1
  6
Continuous
 62
     4
100
AcDbLine
 10
398.8038125
 20
296.75
 30
0.0
 11
398.8038125
 21
287.0
 31
0.0
  0
LINE
  5
7D
330
1F
100
AcDbEntity
  8
1
  6
Continuous
 62
     4
100
AcDbLine
 10
400.5860375
 20
290.5
 30
0.0
 11
400.5860375
 21
292.625
 31
0.0
  0
LINE
  5
7E
330
1F
100
AcDbEntity
  8
1
  6
Continuous
 62
     4
100
AcDbLine
 10
397.0215875
 20
290.5
 30
0.0
 11
400.5860375
 21
290.5
 31
0.0
  0
LINE
  5
7F
330
1F
100
AcDbEntity
  8
1
  6
Continuous
 62
     4
100
AcDbLine
 10
397.0215875
 20
294.875
 30
0.0
 11
397.0215875
 21
292.625
 31
0.0
  0
LINE
  5
80
330
1F
100
AcDbEntity
  8
1
  6
Continuous
 62
     4
100
AcDbLine
 10
400.5860375
 20
294.875
 30
0.0
 11
397.0215875
 21
294.875
 31
0.0
  0
LINE
  5
81
330
1F
100
AcDbEntity
  8
1
  6
Continuous
 62
     4
100
AcDbLine
 10
397.0215875
 20
292.625
 30
0.0
 11
400.5860375
 21
292.625
 31
0.0
  0
LINE
  5
82
330
1F
100
AcDbEntity
  8
1
  6
Continuous
 62
     4
100
AcDbLine
 10
395.2393625
 20
294.875
 30
0.0
 11
393.9522
 21
292.625
 31
0.0
  0
LINE
  5
83
330
1F
100
AcDbEntity
  8
1
  6
Continuous
 62
     4
100
AcDbLine
 10
396.130475
 20
296.75
 30
0.0
 11
395.2393625
 21
294.875
 31
0.0
  0
LINE
  5
84
330
1F
100
AcDbEntity
  8
1
  6
Continuous
 62
     4
100
AcDbLine
 10
395.2393625
 20
287.0
 30
0.0
 11
395.2393625
 21
294.5
 31
0.0
  0
LINE
  5
85
330
1F
100
AcDbEntity
  8
1
  6
Continuous
 62
     4
100
AcDbLine
 10
391.5759
 20
293.25
 30
0.0
 11
391.5759
 21
290.75
 31
0.0
  0
LINE
  5
86
330
1F
100
AcDbEntity
  8
1
  6
Continuous
 62
     4
100
AcDbLine
 10
391.377875
 20
294.75
 30
0.0
 11
391.5759
 21
293.25
 31
0.0
  0
LINE
  5
87
330
1F
100
AcDbEntity
  8
1
  6
Continuous
 62
     4
100
AcDbLine
 10
390.981825
 20
295.75
 30
0.0
 11
391.377875
 21
294.75
 31
0.0
  0
LINE
  5
88
330
1F
100
AcDbEntity
  8
1
  6
Continuous
 62
     4
100
AcDbLine
 10
390.585775
 20
296.25
 30
0.0
 11
390.981825
 21
295.75
 31
0.0
  0
LINE
  5
89
330
1F
100
AcDbEntity
  8
1
  6
Continuous
 62
     4
100
AcDbLine
 10
389.9917
 20
296.75
 30
0.0
 11
390.585775
 21
296.25
 31
0.0
  0
LINE
  5
8A
330
1F
100
AcDbEntity
  8
1
  6
Continuous
 62
     4
100
AcDbLine
 10
389.397625
 20
297.0
 30
0.0
 11
389.9917
 21
296.75
 31
0.0
  0
LINE
  5
8B
330
1F
100
AcDbEntity
  8
1
  6
Continuous
 62
     4
100
AcDbLine
 10
389.001575
 20
297.0
 30
0.0
 11
389.397625
 21
297.0
 31
0.0
  0
LINE
  5
8C
330
1F
100
AcDbEntity
  8
1
  6
Continuous
 62
     4
100
AcDbLine
 10
388.4075
 20
296.75
 30
0.0
 11
389.001575
 21
297.0
 31
0.0
  0
LINE
  5
8D
330
1F
100
AcDbEntity
  8
1
  6
Continuous
 62
     4
100
AcDbLine
 10
387.813425
 20
296.25
 30
0.0
 11
388.4075
 21
296.75
 31
0.0
  0
LINE
  5
8E
330
1F
100
AcDbEntity
  8
1
  6
Continuous
 62
     4
100
AcDbLine
 10
387.417375
 20
295.75
 30
0.0
 11
387.813425
 21
296.25
 31
0.0
  0
LINE
  5
8F
330
1F
100
AcDbEntity
  8
1
  6
Continuous
 62
     4
100
AcDbLine
 10
387.021325
 20
294.75
 30
0.0
 11
387.417375
 21
295.75
 31
0.0
  0
LINE
  5
90
330
1F
100
AcDbEntity
  8
1
  6
Continuous
 62
     4
100
AcDbLine
 10
386.8233
 20
293.25
 30
0.0
 11
387.021325
 21
294.75
 31
0.0
  0
LINE
  5
91
330
1F
100
AcDbEntity
  8
1
  6
Continuous
 62
     4
100
AcDbLine
 10
386.8233
 20
290.75
 30
0.0
 11
386.8233
 21
293.25
 31
0.0
  0
LINE
  5
92
330
1F
100
AcDbEntity
  8
1
  6
Continuous
 62
     4
100
AcDbLine
 10
387.021325
 20
289.25
 30
0.0
 11
386.8233
 21
290.75
 31
0.0
  0
LINE
  5
93
330
1F
100
AcDbEntity
  8
1
  6
Continuous
 62
     4
100
AcDbLine
 10
387.417375
 20
288.25
 30
0.0
 11
387.021325
 21
289.25
 31
0.0
  0
LINE
  5
94
330
1F
100
AcDbEntity
  8
1
  6
Continuous
 62
     4
100
AcDbLine
 10
387.813425
 20
287.75
 30
0.0
 11
387.417375
 21
288.25
 31
0.0
  0
LINE
  5
95
330
1F
100
AcDbEntity
  8
1
  6
Continuous
 62
     4
100
AcDbLine
 10
388.4075
 20
287.25
 30
0.0
 11
387.813425
 21
287.75
 31
0.0
  0
LINE
  5
96
330
1F
100
AcDbEntity
  8
1
  6
Continuous
 62
     4
100
AcDbLine
 10
389.001575
 20
287.0
 30
0.0
 11
388.4075
 21
287.25
 31
0.0
  0
LINE
  5
97
330
1F
100
AcDbEntity
  8
1
  6
Continuous
 62
     4
100
AcDbLine
 10
389.397625
 20
287.0
 30
0.0
 11
389.001575
 21
287.0
 31
0.0
  0
LINE
  5
98
330
1F
100
AcDbEntity
  8
1
  6
Continuous
 62
     4
100
AcDbLine
 10
389.9917
 20
287.25
 30
0.0
 11
389.397625
 21
287.0
 31
0.0
  0
LINE
  5
99
330
1F
100
AcDbEntity
  8
1
  6
Continuous
 62
     4
100
AcDbLine
 10
390.585775
 20
287.75
 30
0.0
 11
389.9917
 21
287.25
 31
0.0
  0
LINE
  5
9A
330
1F
100
AcDbEntity
  8
1
  6
Continuous
 62
     4
100
AcDbLine
 10
390.981825
 20
288.25
 30
0.0
 11
390.585775
 21
287.75
 31
0.0
  0
LINE
  5
9B
330
1F
100
AcDbEntity
  8
1
  6
Continuous
 62
     4
100
AcDbLine
 10
391.377875
 20
289.25
 30
0.0
 11
390.981825
 21
288.25
 31
0.0
  0
LINE
  5
9C
330
1F
100
AcDbEntity
  8
1
  6
Continuous
 62
     4
100
AcDbLine
 10
391.5759
 20
290.75
 30
0.0
 11
391.377875
 21
289.25
 31
0.0
  0
LINE
  5
9D
330
1F
100
AcDbEntity
  8
1
  6
Continuous
 62
     4
100
AcDbLine
 10
379.6944
 20
287.0
 30
0.0
 11
384.447
 21
287.0
 31
0.0
  0
LINE
  5
9E
330
1F
100
AcDbEntity
  8
1
  6
Continuous
 62
     4
100
AcDbLine
 10
384.05095
 20
293.5
 30
0.0
 11
379.6944
 21
287.0
 31
0.0
  0
LINE
  5
9F
330
1F
100
AcDbEntity
  8
1
  6
Continuous
 62
     4
100
AcDbLine
 10
384.447
 20
294.5
 30
0.0
 11
384.05095
 21
293.5
 31
0.0
  0
LINE
  5
A0
330
1F
100
AcDbEntity
  8
1
  6
Continuous
 62
     4
100
AcDbLine
 10
384.447
 20
295.5
 30
0.0
 11
384.447
 21
294.5
 31
0.0
  0
LINE
  5
A1
330
1F
100
AcDbEntity
  8
1
  6
Continuous
 62
     4
100
AcDbLine
 10
384.05095
 20
296.25
 30
0.0
 11
384.447
 21
295.5
 31
0.0
  0
LINE
  5
A2
330
1F
100
AcDbEntity
  8
1
  6
Continuous
 62
     4
100
AcDbLine
 10
383.456875
 20
296.75
 30
0.0
 11
384.05095
 21
296.25
 31
0.0
  0
LINE
  5
A3
330
1F
100
AcDbEntity
  8
1
  6
Continuous
 62
     4
100
AcDbLine
 10
382.664775
 20
297.0
 30
0.0
 11
383.456875
 21
296.75
 31
0.0
  0
LINE
  5
A4
330
1F
100
AcDbEntity
  8
1
  6
Continuous
 62
     4
100
AcDbLine
 10
381.476625
 20
297.0
 30
0.0
 11
382.664775
 21
297.0
 31
0.0
  0
LINE
  5
A5
330
1F
100
AcDbEntity
  8
1
  6
Continuous
 62
     4
100
AcDbLine
 10
380.684525
 20
296.75
 30
0.0
 11
381.476625
 21
297.0
 31
0.0
  0
LINE
  5
A6
330
1F
100
AcDbEntity
  8
1
  6
Continuous
 62
     4
100
AcDbLine
 10
380.09045
 20
296.25
 30
0.0
 11
380.684525
 21
296.75
 31
0.0
  0
LINE
  5
A7
330
1F
100
AcDbEntity
  8
1
  6
Continuous
 62
     4
100
AcDbLine
 10
379.6944
 20
295.5
 30
0.0
 11
380.09045
 21
296.25
 31
0.0
  0
LINE
  5
A8
330
1F
100
AcDbEntity
  8
1
  6
Continuous
 62
     4
100
AcDbLine
 10
373.3576
 20
290.5
 30
0.0
 11
377.3181
 21
290.5
 31
0.0
  0
LINE
  5
A9
330
1F
100
AcDbEntity
  8
1
  6
Continuous
 62
     4
100
AcDbLine
 10
370.783275
 20
295.0
 30
0.0
 11
370.9813
 21
294.0
 31
0.0
  0
LINE
  5
AA
330
1F
100
AcDbEntity
  8
1
  6
Continuous
 62
     4
100
AcDbLine
 10
370.387225
 20
295.75
 30
0.0
 11
370.783275
 21
295.0
 31
0.0
  0
LINE
  5
AB
330
1F
100
AcDbEntity
  8
1
  6
Continuous
 62
     4
100
AcDbLine
 10
369.991175
 20
296.25
 30
0.0
 11
370.387225
 21
295.75
 31
0.0
  0
LINE
  5
AC
330
1F
100
AcDbEntity
  8
1
  6
Continuous
 62
     4
100
AcDbLine
 10
369.3971
 20
296.75
 30
0.0
 11
369.991175
 21
296.25
 31
0.0
  0
LINE
  5
AD
330
1F
100
AcDbEntity
  8
1
  6
Continuous
 62
     4
100
AcDbLine
 10
368.605
 20
297.0
 30
0.0
 11
369.3971
 21
296.75
 31
0.0
  0
LINE
  5
AE
330
1F
100
AcDbEntity
  8
1
  6
Continuous
 62
     4
100
AcDbLine
 10
365.4366
 20
297.0
 30
0.0
 11
368.605
 21
297.0
 31
0.0
  0
LINE
  5
AF
330
1F
100
AcDbEntity
  8
1
  6
Continuous
 62
     4
100
AcDbLine
 10
365.4366
 20
287.0
 30
0.0
 11
365.4366
 21
297.0
 31
0.0
  0
LINE
  5
B0
330
1F
100
AcDbEntity
  8
1
  6
Continuous
 62
     4
100
AcDbLine
 10
368.605
 20
287.0
 30
0.0
 11
365.4366
 21
287.0
 31
0.0
  0
LINE
  5
B1
330
1F
100
AcDbEntity
  8
1
  6
Continuous
 62
     4
100
AcDbLine
 10
369.3971
 20
287.25
 30
0.0
 11
368.605
 21
287.0
 31
0.0
  0
LINE
  5
B2
330
1F
100
AcDbEntity
  8
1
  6
Continuous
 62
     4
100
AcDbLine
 10
369.991175
 20
287.75
 30
0.0
 11
369.3971
 21
287.25
 31
0.0
  0
LINE
  5
B3
330
1F
100
AcDbEntity
  8
1
  6
Continuous
 62
     4
100
AcDbLine
 10
370.387225
 20
288.25
 30
0.0
 11
369.991175
 21
287.75
 31
0.0
  0
LINE
  5
B4
330
1F
100
AcDbEntity
  8
1
  6
Continuous
 62
     4
100
AcDbLine
 10
370.783275
 20
289.0
 30
0.0
 11
370.387225
 21
288.25
 31
0.0
  0
LINE
  5
B5
330
1F
100
AcDbEntity
  8
1
  6
Continuous
 62
     4
100
AcDbLine
 10
370.9813
 20
290.0
 30
0.0
 11
370.783275
 21
289.0
 31
0.0
  0
LINE
  5
B6
330
1F
100
AcDbEntity
  8
1
  6
Continuous
 62
     4
100
AcDbLine
 10
370.9813
 20
294.0
 30
0.0
 11
370.9813
 21
290.0
 31
0.0
  0
LINE
  5
B7
330
1F
100
AcDbEntity
  8
1
  6
Continuous
 62
     4
100
AcDbLine
 10
362.070175
 20
287.75
 30
0.0
 11
361.4761
 21
287.25
 31
0.0
  0
LINE
  5
B8
330
1F
100
AcDbEntity
  8
1
  6
Continuous
 62
     4
100
AcDbLine
 10
362.466225
 20
288.25
 30
0.0
 11
362.070175
 21
287.75
 31
0.0
  0
LINE
  5
B9
330
1F
100
AcDbEntity
  8
1
  6
Continuous
 62
     4
100
AcDbLine
 10
362.862275
 20
289.0
 30
0.0
 11
362.466225
 21
288.25
 31
0.0
  0
LINE
  5
BA
330
1F
100
AcDbEntity
  8
1
  6
Continuous
 62
     4
100
AcDbLine
 10
363.0603
 20
290.0
 30
0.0
 11
362.862275
 21
289.0
 31
0.0
  0
LINE
  5
BB
330
1F
100
AcDbEntity
  8
1
  6
Continuous
 62
     4
100
AcDbLine
 10
363.0603
 20
294.0
 30
0.0
 11
363.0603
 21
290.0
 31
0.0
  0
LINE
  5
BC
330
1F
100
AcDbEntity
  8
1
  6
Continuous
 62
     4
100
AcDbLine
 10
362.862275
 20
295.0
 30
0.0
 11
363.0603
 21
294.0
 31
0.0
  0
LINE
  5
BD
330
1F
100
AcDbEntity
  8
1
  6
Continuous
 62
     4
100
AcDbLine
 10
362.466225
 20
295.75
 30
0.0
 11
362.862275
 21
295.0
 31
0.0
  0
LINE
  5
BE
330
1F
100
AcDbEntity
  8
1
  6
Continuous
 62
     4
100
AcDbLine
 10
362.070175
 20
296.25
 30
0.0
 11
362.466225
 21
295.75
 31
0.0
  0
LINE
  5
BF
330
1F
100
AcDbEntity
  8
1
  6
Continuous
 62
     4
100
AcDbLine
 10
361.4761
 20
296.75
 30
0.0
 11
362.070175
 21
296.25
 31
0.0
  0
LINE
  5
C0
330
1F
100
AcDbEntity
  8
1
  6
Continuous
 62
     4
100
AcDbLine
 10
360.882025
 20
297.0
 30
0.0
 11
361.4761
 21
296.75
 31
0.0
  0
LINE
  5
C1
330
1F
100
AcDbEntity
  8
1
  6
Continuous
 62
     4
100
AcDbLine
 10
359.693875
 20
297.0
 30
0.0
 11
360.882025
 21
297.0
 31
0.0
  0
LINE
  5
C2
330
1F
100
AcDbEntity
  8
1
  6
Continuous
 62
     4
100
AcDbLine
 10
359.0998
 20
296.75
 30
0.0
 11
359.693875
 21
297.0
 31
0.0
  0
LINE
  5
C3
330
1F
100
AcDbEntity
  8
1
  6
Continuous
 62
     4
100
AcDbLine
 10
358.505725
 20
296.25
 30
0.0
 11
359.0998
 21
296.75
 31
0.0
  0
LINE
  5
C4
330
1F
100
AcDbEntity
  8
1
  6
Continuous
 62
     4
100
AcDbLine
 10
358.109675
 20
295.75
 30
0.0
 11
358.505725
 21
296.25
 31
0.0
  0
LINE
  5
C5
330
1F
100
AcDbEntity
  8
1
  6
Continuous
 62
     4
100
AcDbLine
 10
357.713625
 20
295.0
 30
0.0
 11
358.109675
 21
295.75
 31
0.0
  0
LINE
  5
C6
330
1F
100
AcDbEntity
  8
1
  6
Continuous
 62
     4
100
AcDbLine
 10
357.5156
 20
294.0
 30
0.0
 11
357.713625
 21
295.0
 31
0.0
  0
LINE
  5
C7
330
1F
100
AcDbEntity
  8
1
  6
Continuous
 62
     4
100
AcDbLine
 10
357.5156
 20
290.0
 30
0.0
 11
357.5156
 21
294.0
 31
0.0
  0
LINE
  5
C8
330
1F
100
AcDbEntity
  8
1
  6
Continuous
 62
     4
100
AcDbLine
 10
357.713625
 20
289.0
 30
0.0
 11
357.5156
 21
290.0
 31
0.0
  0
LINE
  5
C9
330
1F
100
AcDbEntity
  8
1
  6
Continuous
 62
     4
100
AcDbLine
 10
358.109675
 20
288.25
 30
0.0
 11
357.713625
 21
289.0
 31
0.0
  0
LINE
  5
CA
330
1F
100
AcDbEntity
  8
1
  6
Continuous
 62
     4
100
AcDbLine
 10
358.505725
 20
287.75
 30
0.0
 11
358.109675
 21
288.25
 31
0.0
  0
LINE
  5
CB
330
1F
100
AcDbEntity
  8
1
  6
Continuous
 62
     4
100
AcDbLine
 10
359.0998
 20
287.25
 30
0.0
 11
358.505725
 21
287.75
 31
0.0
  0
LINE
  5
CC
330
1F
100
AcDbEntity
  8
1
  6
Continuous
 62
     4
100
AcDbLine
 10
359.693875
 20
287.0
 30
0.0
 11
359.0998
 21
287.25
 31
0.0
  0
LINE
  5
CD
330
1F
100
AcDbEntity
  8
1
  6
Continuous
 62
     4
100
AcDbLine
 10
360.882025
 20
287.0
 30
0.0
 11
359.693875
 21
287.0
 31
0.0
  0
LINE
  5
CE
330
1F
100
AcDbEntity
  8
1
  6
Continuous
 62
     4
100
AcDbLine
 10
361.4761
 20
287.25
 30
0.0
 11
360.882025
 21
287.0
 31
0.0
  0
LINE
  5
CF
330
1F
100
AcDbEntity
  8
1
  6
Continuous
 62
     4
100
AcDbLine
 10
361.4761
 20
289.0
 30
0.0
 11
363.0603
 21
287.0
 31
0.0
  0
LINE
  5
D0
330
1F
100
AcDbEntity
  8
1
  6
Continuous
 62
     4
100
AcDbLine
 10
351.1788
 20
290.5
 30
0.0
 11
355.1393000000001
 21
290.5
 31
0.0
  0
LINE
  5
D1
330
1F
100
AcDbEntity
  8
1
  6
Continuous
 62
     4
100
AcDbLine
 10
348.8025
 20
287.0
 30
0.0
 11
348.8025
 21
297.0
 31
0.0
  0
LINE
  5
D2
330
1F
100
AcDbEntity
  8
1
  6
Continuous
 62
     4
100
AcDbLine
 10
343.2578
 20
297.0
 30
0.0
 11
348.8025
 21
287.0
 31
0.0
  0
LINE
  5
D3
330
1F
100
AcDbEntity
  8
1
  6
Continuous
 62
     4
100
AcDbLine
 10
343.2578
 20
287.0
 30
0.0
 11
343.2578
 21
297.0
 31
0.0
  0
LINE
  5
D4
330
1F
100
AcDbEntity
  8
1
  6
Continuous
 62
     4
100
AcDbLine
 10
336.921
 20
290.5
 30
0.0
 11
340.8815
 21
290.5
 31
0.0
  0
LINE
  5
D5
330
1F
100
AcDbEntity
  8
1
  6
Continuous
 62
     4
100
AcDbLine
 10
329.0
 20
290.0
 30
0.0
 11
329.0
 21
297.0
 31
0.0
  0
LINE
  5
D6
330
1F
100
AcDbEntity
  8
1
  6
Continuous
 62
     4
100
AcDbLine
 10
329.0
 20
287.0
 30
0.0
 11
329.0
 21
290.0
 31
0.0
  0
LINE
  5
D7
330
1F
100
AcDbEntity
  8
1
  6
Continuous
 62
     4
100
AcDbLine
 10
330.5842
 20
292.0
 30
0.0
 11
334.5447
 21
287.0
 31
0.0
  0
LINE
  5
D8
330
1F
100
AcDbEntity
  8
1
  6
Continuous
 62
     4
100
AcDbLine
 10
334.5447
 20
297.0
 30
0.0
 11
330.5842
 21
292.0
 31
0.0
  0
LINE
  5
D9
330
1F
100
AcDbEntity
  8
1
  6
Continuous
 62
     4
100
AcDbLine
 10
330.5842
 20
292.0
 30
0.0
 11
329.0
 21
290.0
 31
0.0
  0
LINE
  5
DA
330
1F
100
AcDbEntity
  8
1
  6
Continuous
 62
     4
100
AcDbLine
 10
215.254058255897
 20
60.6558923043307
 30
0.0
 11
214.461958255897
 21
59.4058923043307
 31
0.0
  0
LINE
  5
DB
330
1F
100
AcDbEntity
  8
1
  6
Continuous
 62
     4
100
AcDbLine
 10
214.461958255897
 20
61.9058923043307
 30
0.0
 11
215.254058255897
 21
60.6558923043307
 31
0.0
  0
LINE
  5
DC
330
1F
100
AcDbEntity
  8
1
  6
Continuous
 62
     4
100
AcDbLine
 10
209.313308255897
 20
60.6558923043307
 30
0.0
 11
215.254058255897
 21
60.6558923043307
 31
0.0
  0
LINE
  5
DD
330
1F
100
AcDbEntity
  8
1
  6
Continuous
 62
     4
100
AcDbLine
 10
202.778483255897
 20
63.5308923043307
 30
0.0
 11
207.333058255897
 21
63.5308923043307
 31
0.0
  0
LINE
  5
DE
330
1F
100
AcDbEntity
  8
1
  6
Continuous
 62
     4
100
AcDbLine
 10
202.778483255897
 20
63.5308923043307
 30
0.0
 11
203.867620755897
 21
65.4058923043307
 31
0.0
  0
LINE
  5
DF
330
1F
100
AcDbEntity
  8
1
  6
Continuous
 62
     4
100
AcDbLine
 10
205.352808255897
 20
58.7808923043307
 30
0.0
 11
203.669595755897
 21
58.7808923043307
 31
0.0
  0
LINE
  5
E0
330
1F
100
AcDbEntity
  8
1
  6
Continuous
 62
     4
100
AcDbLine
 10
205.352808255897
 20
61.2808923043307
 30
0.0
 11
205.352808255897
 21
58.7808923043307
 31
0.0
  0
LINE
  5
E1
330
1F
100
AcDbEntity
  8
1
  6
Continuous
 62
     4
100
AcDbLine
 10
203.669595755897
 20
61.2808923043307
 30
0.0
 11
205.352808255897
 21
61.2808923043307
 31
0.0
  0
LINE
  5
E2
330
1F
100
AcDbEntity
  8
1
  6
Continuous
 62
     4
100
AcDbLine
 10
203.669595755897
 20
58.7808923043307
 30
0.0
 11
203.669595755897
 21
61.2808923043307
 31
0.0
  0
LINE
  5
E3
330
1F
100
AcDbEntity
  8
1
  6
Continuous
 62
     4
100
AcDbLine
 10
207.333058255897
 20
56.0308923043307
 30
0.0
 11
206.243920755897
 21
56.0308923043307
 31
0.0
  0
LINE
  5
E4
330
1F
100
AcDbEntity
  8
1
  6
Continuous
 62
     4
100
AcDbLine
 10
207.333058255897
 20
63.5308923043307
 30
0.0
 11
207.333058255897
 21
56.0308923043307
 31
0.0
  0
LINE
  5
E5
330
1F
100
AcDbEntity
  8
1
  6
Continuous
 62
     4
100
AcDbLine
 10
201.689345755897
 20
63.5308923043307
 30
0.0
 11
202.778483255897
 21
63.5308923043307
 31
0.0
  0
LINE
  5
E6
330
1F
100
AcDbEntity
  8
1
  6
Continuous
 62
     4
100
AcDbLine
 10
201.689345755897
 20
56.0308923043307
 30
0.0
 11
201.689345755897
 21
63.5308923043307
 31
0.0
  0
LINE
  5
E7
330
1F
100
AcDbEntity
  8
1
  6
Continuous
 62
     4
100
AcDbLine
 10
197.431808255897
 20
55.6558923043307
 30
0.0
 11
196.639708255897
 21
56.2808923043307
 31
0.0
  0
LINE
  5
E8
330
1F
100
AcDbEntity
  8
1
  6
Continuous
 62
     4
100
AcDbLine
 10
197.926870755897
 20
56.6558923043307
 30
0.0
 11
197.431808255897
 21
55.6558923043307
 31
0.0
  0
LINE
  5
E9
330
1F
100
AcDbEntity
  8
1
  6
Continuous
 62
     4
100
AcDbLine
 10
198.322920755897
 20
58.1558923043307
 30
0.0
 11
197.926870755897
 21
56.6558923043307
 31
0.0
  0
LINE
  5
EA
330
1F
100
AcDbEntity
  8
1
  6
Continuous
 62
     4
100
AcDbLine
 10
198.817983255897
 20
60.4058923043307
 30
0.0
 11
198.322920755897
 21
58.1558923043307
 31
0.0
  0
LINE
  5
EB
330
1F
100
AcDbEntity
  8
1
  6
Continuous
 62
     4
100
AcDbLine
 10
198.817983255897
 20
61.2808923043307
 30
0.0
 11
198.817983255897
 21
60.4058923043307
 31
0.0
  0
LINE
  5
EC
330
1F
100
AcDbEntity
  8
1
  6
Continuous
 62
     4
100
AcDbLine
 10
195.946620755897
 20
61.2808923043307
 30
0.0
 11
198.817983255897
 21
61.2808923043307
 31
0.0
  0
LINE
  5
ED
330
1F
100
AcDbEntity
  8
1
  6
Continuous
 62
     4
100
AcDbLine
 10
193.273283255897
 20
63.7808923043307
 30
0.0
 11
199.907120755897
 21
63.7808923043307
 31
0.0
  0
LINE
  5
EE
330
1F
100
AcDbEntity
  8
1
  6
Continuous
 62
     4
100
AcDbLine
 10
196.144645755897
 20
62.9058923043307
 30
0.0
 11
196.342670755897
 21
65.4058923043307
 31
0.0
  0
LINE
  5
EF
330
1F
100
AcDbEntity
  8
1
  6
Continuous
 62
     4
100
AcDbLine
 10
195.748595755897
 20
60.4058923043307
 30
0.0
 11
196.144645755897
 21
62.9058923043307
 31
0.0
  0
LINE
  5
F0
330
1F
100
AcDbEntity
  8
1
  6
Continuous
 62
     4
100
AcDbLine
 10
195.253533255897
 20
58.7808923043307
 30
0.0
 11
195.748595755897
 21
60.4058923043307
 31
0.0
  0
LINE
  5
F1
330
1F
100
AcDbEntity
  8
1
  6
Continuous
 62
     4
100
AcDbLine
 10
194.659458255897
 20
57.2808923043307
 30
0.0
 11
195.253533255897
 21
58.7808923043307
 31
0.0
  0
LINE
  5
F2
330
1F
100
AcDbEntity
  8
1
  6
Continuous
 62
     4
100
AcDbLine
 10
193.768345755897
 20
56.0308923043307
 30
0.0
 11
194.659458255897
 21
57.2808923043307
 31
0.0
  0
LINE
  5
F3
330
1F
100
AcDbEntity
  8
1
  6
Continuous
 62
     4
100
AcDbLine
 10
191.095008255897
 20
58.7808923043307
 30
0.0
 11
192.184145755897
 21
57.2808923043307
 31
0.0
  0
LINE
  5
F4
330
1F
100
AcDbEntity
  8
1
  6
Continuous
 62
     4
100
AcDbLine
 10
190.203895755897
 20
60.6558923043307
 30
0.0
 11
191.095008255897
 21
58.7808923043307
 31
0.0
  0
LINE
  5
F5
330
1F
100
AcDbEntity
  8
1
  6
Continuous
 62
     4
100
AcDbLine
 10
189.510808255897
 20
62.9058923043307
 30
0.0
 11
190.203895755897
 21
60.6558923043307
 31
0.0
  0
LINE
  5
F6
330
1F
100
AcDbEntity
  8
1
  6
Continuous
 62
     4
100
AcDbLine
 10
191.491058255897
 20
63.1558923043307
 30
0.0
 11
190.005870755897
 21
61.6558923043307
 31
0.0
  0
LINE
  5
F7
330
1F
100
AcDbEntity
  8
1
  6
Continuous
 62
     4
100
AcDbLine
 10
188.916733255897
 20
55.6558923043307
 30
0.0
 11
188.223645755897
 21
56.0308923043307
 31
0.0
  0
LINE
  5
F8
330
1F
100
AcDbEntity
  8
1
  6
Continuous
 62
     4
100
AcDbLine
 10
188.916733255897
 20
65.4058923043307
 30
0.0
 11
188.916733255897
 21
55.6558923043307
 31
0.0
  0
LINE
  5
F9
330
1F
100
AcDbEntity
  8
1
  6
Continuous
 62
     4
100
AcDbLine
 10
187.827595755897
 20
62.2808923043307
 30
0.0
 11
185.550308255897
 21
62.2808923043307
 31
0.0
  0
LINE
  5
FA
330
1F
100
AcDbEntity
  8
1
  6
Continuous
 62
     4
100
AcDbLine
 10
187.332533255897
 20
60.4058923043307
 30
0.0
 11
187.827595755897
 21
62.2808923043307
 31
0.0
  0
LINE
  5
FB
330
1F
100
AcDbEntity
  8
1
  6
Continuous
 62
     4
100
AcDbLine
 10
186.441420755897
 20
58.5308923043307
 30
0.0
 11
187.332533255897
 21
60.4058923043307
 31
0.0
  0
LINE
  5
FC
330
1F
100
AcDbEntity
  8
1
  6
Continuous
 62
     4
100
AcDbLine
 10
185.550308255897
 20
57.2808923043307
 30
0.0
 11
186.441420755897
 21
58.5308923043307
 31
0.0
  0
LINE
  5
FD
330
1F
100
AcDbEntity
  8
1
  6
Continuous
 62
     4
100
AcDbLine
 10
181.193758255897
 20
64.1558923043307
 30
0.0
 11
183.867095755897
 21
64.1558923043307
 31
0.0
  0
LINE
  5
FE
330
1F
100
AcDbEntity
  8
1
  6
Continuous
 62
     4
100
AcDbLine
 10
184.263145755897
 20
56.6558923043307
 30
0.0
 11
184.263145755897
 21
57.2808923043307
 31
0.0
  0
LINE
  5
FF
330
1F
100
AcDbEntity
  8
1
  6
Continuous
 62
     4
100
AcDbLine
 10
183.867095755897
 20
56.0308923043307
 30
0.0
 11
184.263145755897
 21
56.6558923043307
 31
0.0
  0
LINE
  5
100
330
1F
100
AcDbEntity
  8
1
  6
Continuous
 62
     4
100
AcDbLine
 10
182.975983255897
 20
56.0308923043307
 30
0.0
 11
183.867095755897
 21
56.0308923043307
 31
0.0
  0
LINE
  5
101
330
1F
100
AcDbEntity
  8
1
  6
Continuous
 62
     4
100
AcDbLine
 10
182.480920755897
 20
56.9058923043307
 30
0.0
 11
182.975983255897
 21
56.0308923043307
 31
0.0
  0
LINE
  5
102
330
1F
100
AcDbEntity
  8
1
  6
Continuous
 62
     4
100
AcDbLine
 10
182.480920755897
 20
60.0308923043307
 30
0.0
 11
182.480920755897
 21
56.9058923043307
 31
0.0
  0
LINE
  5
103
330
1F
100
AcDbEntity
  8
1
  6
Continuous
 62
     4
100
AcDbLine
 10
181.193758255897
 20
56.0308923043307
 30
0.0
 11
181.193758255897
 21
60.0308923043307
 31
0.0
  0
LINE
  5
104
330
1F
100
AcDbEntity
  8
1
  6
Continuous
 62
     4
100
AcDbLine
 10
179.213508255897
 20
56.2808923043307
 30
0.0
 11
178.520420755897
 21
55.6558923043307
 31
0.0
  0
LINE
  5
105
330
1F
100
AcDbEntity
  8
1
  6
Continuous
 62
     4
100
AcDbLine
 10
179.609558255897
 20
56.9058923043307
 30
0.0
 11
179.213508255897
 21
56.2808923043307
 31
0.0
  0
LINE
  5
106
330
1F
100
AcDbEntity
  8
1
  6
Continuous
 62
     4
100
AcDbLine
 10
179.906595755897
 20
57.9058923043307
 30
0.0
 11
179.609558255897
 21
56.9058923043307
 31
0.0
  0
LINE
  5
107
330
1F
100
AcDbEntity
  8
1
  6
Continuous
 62
     4
100
AcDbLine
 10
180.104620755897
 20
60.0308923043307
 30
0.0
 11
179.906595755897
 21
57.9058923043307
 31
0.0
  0
LINE
  5
108
330
1F
100
AcDbEntity
  8
1
  6
Continuous
 62
     4
100
AcDbLine
 10
182.282895755897
 20
63.1558923043307
 30
0.0
 11
183.174008255897
 21
61.0308923043307
 31
0.0
  0
LINE
  5
109
330
1F
100
AcDbEntity
  8
1
  6
Continuous
 62
     4
100
AcDbLine
 10
179.411533255897
 20
61.6558923043307
 30
0.0
 11
182.777958255897
 21
61.9058923043307
 31
0.0
  0
LINE
  5
10A
330
1F
100
AcDbEntity
  8
1
  6
Continuous
 62
     4
100
AcDbLine
 10
181.193758255897
 20
64.1558923043307
 30
0.0
 11
180.302645755897
 21
61.6558923043307
 31
0.0
  0
LINE
  5
10B
330
1F
100
AcDbEntity
  8
1
  6
Continuous
 62
     4
100
AcDbLine
 10
181.391783255897
 20
65.6558923043307
 30
0.0
 11
181.391783255897
 21
64.1558923043307
 31
0.0
  0
LINE
  5
10C
330
1F
100
AcDbEntity
  8
1
  6
Continuous
 62
     4
100
AcDbLine
 10
179.015483255897
 20
64.1558923043307
 30
0.0
 11
181.193758255897
 21
64.1558923043307
 31
0.0
  0
LINE
  5
10D
330
1F
100
AcDbEntity
  8
1
  6
Continuous
 62
     4
100
AcDbLine
 10
177.431283255897
 20
56.0308923043307
 30
0.0
 11
178.322395755897
 21
60.0308923043307
 31
0.0
  0
LINE
  5
10E
330
1F
100
AcDbEntity
  8
1
  6
Continuous
 62
     4
100
AcDbLine
 10
177.233258255897
 20
62.5308923043307
 30
0.0
 11
177.926345755897
 21
61.6558923043307
 31
0.0
  0
LINE
  5
10F
330
1F
100
AcDbEntity
  8
1
  6
Continuous
 62
     4
100
AcDbLine
 10
177.926345755897
 20
65.4058923043307
 30
0.0
 11
178.322395755897
 21
64.4058923043307
 31
0.0
  0
LINE
  5
110
330
1F
100
AcDbEntity
  8
1
  6
Continuous
 62
     4
100
AcDbLine
 10
321.818017677513
 20
81.9638828563063
 30
0.0
 11
321.818017677513
 21
71.9638828563063
 31
0.0
  0
LINE
  5
111
330
1F
100
AcDbEntity
  8
1
  6
Continuous
 62
     4
100
AcDbLine
 10
318.818017677513
 20
78.9638828563063
 30
0.0
 11
321.818017677513
 21
81.9638828563063
 31
0.0
  0
LINE
  5
112
330
1F
100
AcDbEntity
  8
1
  6
Continuous
 62
     4
100
AcDbLine
 10
315.818017677513
 20
77.4638828563063
 30
0.0
 11
313.318017677513
 21
77.4638828563063
 31
0.0
  0
LINE
  5
113
330
1F
100
AcDbEntity
  8
1
  6
Continuous
 62
     4
100
AcDbLine
 10
315.818017677513
 20
71.9638828563063
 30
0.0
 11
315.818017677513
 21
77.4638828563063
 31
0.0
  0
LINE
  5
114
330
1F
100
AcDbEntity
  8
1
  6
Continuous
 62
     4
100
AcDbLine
 10
311.568017677513
 20
71.9638828563063
 30
0.0
 11
315.818017677513
 21
71.9638828563063
 31
0.0
  0
LINE
  5
115
330
1F
100
AcDbEntity
  8
1
  6
Continuous
 62
     4
100
AcDbLine
 10
310.818017677513
 20
72.2138828563063
 30
0.0
 11
311.568017677513
 21
71.9638828563063
 31
0.0
  0
LINE
  5
116
330
1F
100
AcDbEntity
  8
1
  6
Continuous
 62
     4
100
AcDbLine
 10
309.818017677513
 20
72.7138828563063
 30
0.0
 11
310.818017677513
 21
72.2138828563063
 31
0.0
  0
LINE
  5
117
330
1F
100
AcDbEntity
  8
1
  6
Continuous
 62
     4
100
AcDbLine
 10
309.318017677513
 20
73.2138828563063
 30
0.0
 11
309.818017677513
 21
72.7138828563063
 31
0.0
  0
LINE
  5
118
330
1F
100
AcDbEntity
  8
1
  6
Continuous
 62
     4
100
AcDbLine
 10
309.068017677513
 20
73.9638828563063
 30
0.0
 11
309.318017677513
 21
73.2138828563063
 31
0.0
  0
LINE
  5
119
330
1F
100
AcDbEntity
  8
1
  6
Continuous
 62
     4
100
AcDbLine
 10
308.818017677513
 20
74.9638828563063
 30
0.0
 11
309.068017677513
 21
73.9638828563063
 31
0.0
  0
LINE
  5
11A
330
1F
100
AcDbEntity
  8
1
  6
Continuous
 62
     4
100
AcDbLine
 10
308.818017677513
 20
78.9638828563063
 30
0.0
 11
308.818017677513
 21
74.9638828563063
 31
0.0
  0
LINE
  5
11B
330
1F
100
AcDbEntity
  8
1
  6
Continuous
 62
     4
100
AcDbLine
 10
309.068017677513
 20
79.9638828563063
 30
0.0
 11
308.818017677513
 21
78.9638828563063
 31
0.0
  0
LINE
  5
11C
330
1F
100
AcDbEntity
  8
1
  6
Continuous
 62
     4
100
AcDbLine
 10
309.318017677513
 20
80.7138828563063
 30
0.0
 11
309.068017677513
 21
79.9638828563063
 31
0.0
  0
LINE
  5
11D
330
1F
100
AcDbEntity
  8
1
  6
Continuous
 62
     4
100
AcDbLine
 10
309.818017677513
 20
81.2138828563063
 30
0.0
 11
309.318017677513
 21
80.7138828563063
 31
0.0
  0
LINE
  5
11E
330
1F
100
AcDbEntity
  8
1
  6
Continuous
 62
     4
100
AcDbLine
 10
310.568017677513
 20
81.7138828563063
 30
0.0
 11
309.818017677513
 21
81.2138828563063
 31
0.0
  0
LINE
  5
11F
330
1F
100
AcDbEntity
  8
1
  6
Continuous
 62
     4
100
AcDbLine
 10
311.568017677513
 20
81.9638828563063
 30
0.0
 11
310.568017677513
 21
81.7138828563063
 31
0.0
  0
LINE
  5
120
330
1F
100
AcDbEntity
  8
1
  6
Continuous
 62
     4
100
AcDbLine
 10
315.818017677513
 20
81.9638828563063
 30
0.0
 11
311.568017677513
 21
81.9638828563063
 31
0.0
  0
LINE
  5
121
330
1F
100
AcDbEntity
  8
1
  6
Continuous
 62
     4
100
AcDbLine
 10
251.818017677513
 20
151.963882856306
 30
0.0
 11
251.818017677513
 21
141.963882856306
 31
0.0
  0
LINE
  5
122
330
1F
100
AcDbEntity
  8
1
  6
Continuous
 62
     4
100
AcDbLine
 10
248.818017677513
 20
148.963882856306
 30
0.0
 11
251.818017677513
 21
151.963882856306
 31
0.0
  0
LINE
  5
123
330
1F
100
AcDbEntity
  8
1
  6
Continuous
 62
     4
100
AcDbLine
 10
245.818017677513
 20
147.463882856306
 30
0.0
 11
243.318017677513
 21
147.463882856306
 31
0.0
  0
LINE
  5
124
330
1F
100
AcDbEntity
  8
1
  6
Continuous
 62
     4
100
AcDbLine
 10
245.818017677513
 20
141.963882856306
 30
0.0
 11
245.818017677513
 21
147.463882856306
 31
0.0
  0
LINE
  5
125
330
1F
100
AcDbEntity
  8
1
  6
Continuous
 62
     4
100
AcDbLine
 10
241.568017677513
 20
141.963882856306
 30
0.0
 11
245.818017677513
 21
141.963882856306
 31
0.0
  0
LINE
  5
126
330
1F
100
AcDbEntity
  8
1
  6
Continuous
 62
     4
100
AcDbLine
 10
240.818017677513
 20
142.213882856306
 30
0.0
 11
241.568017677513
 21
141.963882856306
 31
0.0
  0
LINE
  5
127
330
1F
100
AcDbEntity
  8
1
  6
Continuous
 62
     4
100
AcDbLine
 10
239.818017677513
 20
142.713882856306
 30
0.0
 11
240.818017677513
 21
142.213882856306
 31
0.0
  0
LINE
  5
128
330
1F
100
AcDbEntity
  8
1
  6
Continuous
 62
     4
100
AcDbLine
 10
239.318017677513
 20
143.213882856306
 30
0.0
 11
239.818017677513
 21
142.713882856306
 31
0.0
  0
LINE
  5
129
330
1F
100
AcDbEntity
  8
1
  6
Continuous
 62
     4
100
AcDbLine
 10
239.068017677513
 20
143.963882856306
 30
0.0
 11
239.318017677513
 21
143.213882856306
 31
0.0
  0
LINE
  5
12A
330
1F
100
AcDbEntity
  8
1
  6
Continuous
 62
     4
100
AcDbLine
 10
238.818017677513
 20
144.963882856306
 30
0.0
 11
239.068017677513
 21
143.963882856306
 31
0.0
  0
LINE
  5
12B
330
1F
100
AcDbEntity
  8
1
  6
Continuous
 62
     4
100
AcDbLine
 10
238.818017677513
 20
148.963882856306
 30
0.0
 11
238.818017677513
 21
144.963882856306
 31
0.0
  0
LINE
  5
12C
330
1F
100
AcDbEntity
  8
1
  6
Continuous
 62
     4
100
AcDbLine
 10
239.068017677513
 20
149.963882856306
 30
0.0
 11
238.818017677513
 21
148.963882856306
 31
0.0
  0
LINE
  5
12D
330
1F
100
AcDbEntity
  8
1
  6
Continuous
 62
     4
100
AcDbLine
 10
239.318017677513
 20
150.713882856306
 30
0.0
 11
239.068017677513
 21
149.963882856306
 31
0.0
  0
LINE
  5
12E
330
1F
100
AcDbEntity
  8
1
  6
Continuous
 62
     4
100
AcDbLine
 10
239.818017677513
 20
151.213882856306
 30
0.0
 11
239.318017677513
 21
150.713882856306
 31
0.0
  0
LINE
  5
12F
330
1F
100
AcDbEntity
  8
1
  6
Continuous
 62
     4
100
AcDbLine
 10
240.568017677513
 20
151.713882856306
 30
0.0
 11
239.818017677513
 21
151.213882856306
 31
0.0
  0
LINE
  5
130
330
1F
100
AcDbEntity
  8
1
  6
Continuous
 62
     4
100
AcDbLine
 10
241.568017677513
 20
151.963882856306
 30
0.0
 11
240.568017677513
 21
151.713882856306
 31
0.0
  0
LINE
  5
131
330
1F
100
AcDbEntity
  8
1
  6
Continuous
 62
     4
100
AcDbLine
 10
245.818017677513
 20
151.963882856306
 30
0.0
 11
241.568017677513
 21
151.963882856306
 31
0.0
  0
LINE
  5
132
330
1F
100
AcDbEntity
  8
1
  6
Continuous
 62
     4
100
AcDbLine
 10
142.756804253168
 20
74.2006783308449
 30
0.0
 11
142.756804253168
 21
64.2006783308449
 31
0.0
  0
LINE
  5
133
330
1F
100
AcDbEntity
  8
1
  6
Continuous
 62
     4
100
AcDbLine
 10
139.756804253168
 20
71.2006783308449
 30
0.0
 11
142.756804253168
 21
74.2006783308449
 31
0.0
  0
LINE
  5
134
330
1F
100
AcDbEntity
  8
1
  6
Continuous
 62
     4
100
AcDbLine
 10
136.756804253168
 20
69.7006783308449
 30
0.0
 11
134.256804253168
 21
69.7006783308449
 31
0.0
  0
LINE
  5
135
330
1F
100
AcDbEntity
  8
1
  6
Continuous
 62
     4
100
AcDbLine
 10
136.756804253168
 20
64.2006783308449
 30
0.0
 11
136.756804253168
 21
69.7006783308449
 31
0.0
  0
LINE
  5
136
330
1F
100
AcDbEntity
  8
1
  6
Continuous
 62
     4
100
AcDbLine
 10
132.506804253168
 20
64.2006783308449
 30
0.0
 11
136.756804253168
 21
64.2006783308449
 31
0.0
  0
LINE
  5
137
330
1F
100
AcDbEntity
  8
1
  6
Continuous
 62
     4
100
AcDbLine
 10
131.756804253168
 20
64.4506783308449
 30
0.0
 11
132.506804253168
 21
64.2006783308449
 31
0.0
  0
LINE
  5
138
330
1F
100
AcDbEntity
  8
1
  6
Continuous
 62
     4
100
AcDbLine
 10
130.756804253168
 20
64.9506783308449
 30
0.0
 11
131.756804253168
 21
64.4506783308449
 31
0.0
  0
LINE
  5
139
330
1F
100
AcDbEntity
  8
1
  6
Continuous
 62
     4
100
AcDbLine
 10
130.256804253168
 20
65.4506783308449
 30
0.0
 11
130.756804253168
 21
64.9506783308449
 31
0.0
  0
LINE
  5
13A
330
1F
100
AcDbEntity
  8
1
  6
Continuous
 62
     4
100
AcDbLine
 10
130.006804253168
 20
66.2006783308449
 30
0.0
 11
130.256804253168
 21
65.4506783308449
 31
0.0
  0
LINE
  5
13B
330
1F
100
AcDbEntity
  8
1
  6
Continuous
 62
     4
100
AcDbLine
 10
129.756804253168
 20
67.2006783308449
 30
0.0
 11
130.006804253168
 21
66.2006783308449
 31
0.0
  0
LINE
  5
13C
330
1F
100
AcDbEntity
  8
1
  6
Continuous
 62
     4
100
AcDbLine
 10
129.756804253168
 20
71.2006783308449
 30
0.0
 11
129.756804253168
 21
67.2006783308449
 31
0.0
  0
LINE
  5
13D
330
1F
100
AcDbEntity
  8
1
  6
Continuous
 62
     4
100
AcDbLine
 10
130.006804253168
 20
72.2006783308449
 30
0.0
 11
129.756804253168
 21
71.2006783308449
 31
0.0
  0
LINE
  5
13E
330
1F
100
AcDbEntity
  8
1
  6
Continuous
 62
     4
100
AcDbLine
 10
130.256804253168
 20
72.9506783308449
 30
0.0
 11
130.006804253168
 21
72.2006783308449
 31
0.0
  0
LINE
  5
13F
330
1F
100
AcDbEntity
  8
1
  6
Continuous
 62
     4
100
AcDbLine
 10
130.756804253168
 20
73.4506783308449
 30
0.0
 11
130.256804253168
 21
72.9506783308449
 31
0.0
  0
LINE
  5
140
330
1F
100
AcDbEntity
  8
1
  6
Continuous
 62
     4
100
AcDbLine
 10
131.506804253168
 20
73.9506783308449
 30
0.0
 11
130.756804253168
 21
73.4506783308449
 31
0.0
  0
LINE
  5
141
330
1F
100
AcDbEntity
  8
1
  6
Continuous
 62
     4
100
AcDbLine
 10
132.506804253168
 20
74.2006783308449
 30
0.0
 11
131.506804253168
 21
73.9506783308449
 31
0.0
  0
LINE
  5
142
330
1F
100
AcDbEntity
  8
1
  6
Continuous
 62
     4
100
AcDbLine
 10
136.756804253168
 20
74.2006783308449
 30
0.0
 11
132.506804253168
 21
74.2006783308449
 31
0.0
  0
LINE
  5
143
330
1F
100
AcDbEntity
  8
2
  6
Continuous
 62
     3
100
AcDbLine
 10
48.0
 20
80.0606897707942
 30
0.0
 11
67.0
 21
91.0303448853971
 31
0.0
  0
LINE
  5
144
330
1F
100
AcDbEntity
  8
2
  6
Continuous
 62
     3
100
AcDbLine
 10
29.0
 20
91.0303448853971
 30
0.0
 11
48.0
 21
80.0606897707942
 31
0.0
  0
LINE
  5
145
330
1F
100
AcDbEntity
  8
2
  6
Continuous
 62
     3
100
AcDbLine
 10
372.0
 20
123.939310229206
 30
0.0
 11
353.0
 21
112.969655114603
 31
0.0
  0
LINE
  5
146
330
1F
100
AcDbEntity
  8
2
  6
Continuous
 62
     3
100
AcDbLine
 10
352.999999999998
 20
129.999999999998
 30
0.0
 11
353.0
 21
91.0303448853971
 31
0.0
  0
LINE
  5
147
330
1F
100
AcDbEntity
  8
2
  6
Continuous
 62
     3
100
AcDbLine
 10
353.0
 20
91.0303448853971
 30
0.0
 11
372.0
 21
80.0606897707942
 31
0.0
  0
LINE
  5
148
330
1F
100
AcDbEntity
  8
2
  6
Continuous
 62
     3
100
AcDbLine
 10
372.0
 20
80.0606897707942
 30
0.0
 11
391.0
 21
91.0303448853971
 31
0.0
  0
LINE
  5
149
330
1F
100
AcDbEntity
  8
2
  6
Continuous
 62
     3
100
AcDbLine
 10
391.0
 20
91.0303448853971
 30
0.0
 11
391.0
 21
130.0
 31
0.0
  0
LINE
  5
14A
330
1F
100
AcDbEntity
  8
2
  6
Continuous
 62
     3
100
AcDbLine
 10
391.0
 20
112.969655114603
 30
0.0
 11
372.0
 21
123.939310229206
 31
0.0
  0
LINE
  5
14B
330
1F
100
AcDbEntity
  8
2
  6
Continuous
 62
     3
100
AcDbLine
 10
220.942007960914
 20
85.55
 30
0.0
 11
220.0
 21
85.55
 31
0.0
  0
LINE
  5
14C
330
1F
100
AcDbEntity
  8
2
  6
Continuous
 62
     3
100
AcDbLine
 10
221.1875
 20
86.65
 30
0.0
 11
218.9
 21
86.65
 31
0.0
  0
LINE
  5
14D
330
1F
100
AcDbEntity
  8
2
  6
Continuous
 62
     3
100
AcDbLine
 10
221.1875
 20
117.35
 30
0.0
 11
218.9
 21
117.35
 31
0.0
  0
LINE
  5
14E
330
1F
100
AcDbEntity
  8
2
  6
Continuous
 62
     3
100
AcDbLine
 10
221.187501034502
 20
118.45
 30
0.0
 11
220.0
 21
118.45
 31
0.0
  0
LINE
  5
14F
330
1F
100
AcDbEntity
  8
3
  6
Continuous
 62
     3
100
AcDbLine
 10
244.1875
 20
282.3
 30
0.0
 11
244.1875
 21
305.7
 31
0.0
  0
LINE
  5
150
330
1F
100
AcDbEntity
  8
3
  6
Continuous
 62
     3
100
AcDbLine
 10
244.1875
 20
282.3
 30
0.0
 11
243.1875
 21
281.575
 31
0.0
  0
LINE
  5
151
330
1F
100
AcDbEntity
  8
3
  6
Continuous
 62
     3
100
AcDbLine
 10
244.1875
 20
305.7
 30
0.0
 11
243.1875
 21
306.425
 31
0.0
  0
LINE
  5
152
330
1F
100
AcDbEntity
  8
3
  6
Continuous
 62
     3
100
AcDbLine
 10
265.85
 20
282.5
 30
0.0
 11
244.1875
 21
282.5
 31
0.0
  0
LINE
  5
153
330
1F
100
AcDbEntity
  8
3
  6
Continuous
 62
     3
100
AcDbLine
 10
265.85
 20
305.5
 30
0.0
 11
244.1875
 21
305.5
 31
0.0
  0
LINE
  5
154
330
1F
100
AcDbEntity
  8
3
  6
Continuous
 62
     3
100
AcDbLine
 10
221.1875
 20
313.0
 30
0.0
 11
221.1875
 21
275.0
 31
0.0
  0
LINE
  5
155
330
1F
100
AcDbEntity
  8
3
  6
Continuous
 62
     3
100
AcDbLine
 10
243.1875
 20
313.0
 30
0.0
 11
243.1875
 21
275.0
 31
0.0
  0
LINE
  5
156
330
1F
100
AcDbEntity
  8
2
  6
Continuous
 62
     3
100
AcDbLine
 10
243.1875
 20
313.0
 30
0.0
 11
221.1875
 21
313.0
 31
0.0
  0
LINE
  5
157
330
1F
100
AcDbEntity
  8
2
  6
Continuous
 62
     3
100
AcDbLine
 10
222.884511552062
 20
294.0
 30
0.0
 11
241.490488447935
 21
293.999999999993
 31
0.0
  0
LINE
  5
158
330
1F
100
AcDbEntity
  8
2
  6
Continuous
 62
     3
100
AcDbLine
 10
221.1875
 20
275.0
 30
0.0
 11
243.1875
 21
275.0
 31
0.0
  0
LINE
  5
159
330
1F
100
AcDbEntity
  8
2
  6
DOT_CENTER
 62
     1
100
AcDbLine
 10
22.9999999999994
 20
102.0
 30
0.0
 11
73.0
 21
102.0
 31
0.0
  0
LINE
  5
15A
330
1F
100
AcDbEntity
  8
2
  6
DOT_CENTER
 62
     1
100
AcDbLine
 10
48.0
 20
211.0
 30
0.0
 11
48.0
 21
74.0606897707939
 31
0.0
  0
LINE
  5
15B
330
1F
100
AcDbEntity
  8
2
  6
Continuous
 62
     3
100
AcDbLine
 10
67.0
 20
130.0
 30
0.0
 11
67.0
 21
91.0303448853971
 31
0.0
  0
LINE
  5
15C
330
1F
100
AcDbEntity
  8
2
  6
Continuous
 62
     3
100
AcDbLine
 10
28.9999999999977
 20
129.999999999998
 30
0.0
 11
29.0
 21
91.0303448853971
 31
0.0
  0
LINE
  5
15D
330
1F
100
AcDbEntity
  8
2
  6
Continuous
 62
     3
100
AcDbLine
 10
28.9999999999977
 20
129.999999999998
 30
0.0
 11
67.0
 21
130.0
 31
0.0
  0
LINE
  5
15E
330
1F
100
AcDbEntity
  8
2
  6
Continuous
 62
     3
100
AcDbLine
 10
35.9143680347282
 20
104.0
 30
0.0
 11
60.085631965272
 21
104.0
 31
0.0
  0
LINE
  5
15F
330
1F
100
AcDbEntity
  8
2
  6
Continuous
 62
     3
100
AcDbLine
 10
58.6643989873101
 20
158.01360607617
 30
0.0
 11
37.3356010126899
 21
158.01360607617
 31
0.0
  0
LINE
  5
160
330
1F
100
AcDbEntity
  8
2
  6
Continuous
 62
     3
100
AcDbLine
 10
60.0
 20
150.0
 30
0.0
 11
36.0
 21
150.0
 31
0.0
  0
LINE
  5
161
330
1F
100
AcDbEntity
  8
2
  6
Continuous
 62
     3
100
AcDbLine
 10
67.9999999999969
 20
132.64575131106
 30
0.0
 11
68.0
 21
133.77029414592
 31
0.0
  0
LINE
  5
162
330
1F
100
AcDbEntity
  8
2
  6
Continuous
 62
     3
100
AcDbLine
 10
63.0
 20
135.999999999998
 30
0.0
 11
66.7941742027092
 21
135.241165159456
 31
0.0
  0
LINE
  5
163
330
1F
100
AcDbEntity
  8
2
  6
Continuous
 62
     3
100
AcDbLine
 10
29.205825797291
 20
135.241165159456
 30
0.0
 11
33.0
 21
135.999999999998
 31
0.0
  0
LINE
  5
164
330
1F
100
AcDbEntity
  8
2
  6
Continuous
 62
     3
100
AcDbLine
 10
32.9999999999967
 20
135.53589838486
 30
0.0
 11
33.0
 21
148.3084322264
 31
0.0
  0
LINE
  5
165
330
1F
100
AcDbEntity
  8
2
  6
Continuous
 62
     3
100
AcDbLine
 10
63.0
 20
148.308432226403
 30
0.0
 11
60.0
 21
150.0
 31
0.0
  0
LINE
  5
166
330
1F
100
AcDbEntity
  8
2
  6
Continuous
 62
     3
100
AcDbLine
 10
33.0
 20
148.3084322264
 30
0.0
 11
36.0
 21
150.0
 31
0.0
  0
LINE
  5
167
330
1F
100
AcDbEntity
  8
2
  6
Continuous
 62
     3
100
AcDbLine
 10
63.0
 20
135.53589838486
 30
0.0
 11
63.0
 21
148.308432226403
 31
0.0
  0
LINE
  5
168
330
1F
100
AcDbEntity
  8
2
  6
Continuous
 62
     3
100
AcDbLine
 10
28.0
 20
132.64575131106
 30
0.0
 11
28.0
 21
133.77029414592
 31
0.0
  0
LINE
  5
169
330
1F
100
AcDbEntity
  8
2
  6
Continuous
 62
     3
100
AcDbLine
 10
58.6643989873101
 20
158.01360607617
 30
0.0
 11
57.5
 21
159.0
 31
0.0
  0
LINE
  5
16A
330
1F
100
AcDbEntity
  8
2
  6
Continuous
 62
     3
100
AcDbLine
 10
37.3356010126899
 20
158.01360607617
 30
0.0
 11
38.5
 21
159.0
 31
0.0
  0
LINE
  5
16B
330
1F
100
AcDbEntity
  8
2
  6
Continuous
 62
     3
100
AcDbLine
 10
60.0
 20
150.0
 30
0.0
 11
58.6643989873101
 21
158.01360607617
 31
0.0
  0
LINE
  5
16C
330
1F
100
AcDbEntity
  8
2
  6
Continuous
 62
     3
100
AcDbLine
 10
36.0
 20
150.0
 30
0.0
 11
37.3356010126899
 21
158.01360607617
 31
0.0
  0
LINE
  5
16D
330
1F
100
AcDbEntity
  8
2
  6
Continuous
 62
     3
100
AcDbLine
 10
38.5
 20
159.0
 30
0.0
 11
57.5
 21
159.0
 31
0.0
  0
LINE
  5
16E
330
1F
100
AcDbEntity
  8
2
  6
Continuous
 62
     3
100
AcDbLine
 10
47.9999999999824
 20
146.999992370609
 30
0.0
 11
48.0000000000045
 21
135.53589838486
 31
0.0
  0
LINE
  5
16F
330
1F
100
AcDbEntity
  8
2
  6
Continuous
 62
     3
100
AcDbLine
 10
54.25
 20
162.45
 30
0.0
 11
54.25
 21
159.0
 31
0.0
  0
LINE
  5
170
330
1F
100
AcDbEntity
  8
2
  6
Continuous
 62
     3
100
AcDbLine
 10
41.75
 20
162.45
 30
0.0
 11
41.75
 21
159.0
 31
0.0
  0
LINE
  5
171
330
1F
100
AcDbEntity
  8
2
  6
Continuous
 62
     3
100
AcDbLine
 10
35.5
 20
186.45
 30
0.0
 11
60.5
 21
186.45
 31
0.0
  0
LINE
  5
172
330
1F
100
AcDbEntity
  8
2
  6
Continuous
 62
     3
100
AcDbLine
 10
33.0
 20
162.45
 30
0.0
 11
63.0
 21
162.45
 31
0.0
  0
LINE
  5
173
330
1F
100
AcDbEntity
  8
2
  6
Continuous
 62
     3
100
AcDbLine
 10
33.0
 20
162.45
 30
0.0
 11
33.0
 21
183.95
 31
0.0
  0
LINE
  5
174
330
1F
100
AcDbEntity
  8
2
  6
Continuous
 62
     3
100
AcDbLine
 10
63.0
 20
162.45
 30
0.0
 11
63.0
 21
183.95
 31
0.0
  0
LINE
  5
175
330
1F
100
AcDbEntity
  8
2
  6
Continuous
 62
     3
100
AcDbLine
 10
44.5
 20
186.5
 30
0.0
 11
44.5
 21
187.0
 31
0.0
  0
LINE
  5
176
330
1F
100
AcDbEntity
  8
2
  6
Continuous
 62
     3
100
AcDbLine
 10
51.5
 20
186.5
 30
0.0
 11
51.5
 21
187.0
 31
0.0
  0
LINE
  5
177
330
1F
100
AcDbEntity
  8
3
  6
Continuous
 62
     3
100
AcDbLine
 10
19.0000000000002
 20
187.0
 30
0.0
 11
77.0
 21
187.0
 31
0.0
  0
LINE
  5
178
330
1F
100
AcDbEntity
  8
3
  6
Continuous
 62
     3
100
AcDbLine
 10
44.3999938964844
 20
198.699996948242
 30
0.0
 11
44.3999938964844
 21
197.5
 31
0.0
  0
LINE
  5
179
330
1F
100
AcDbEntity
  8
3
  6
Continuous
 62
     3
100
AcDbLine
 10
51.5999984741211
 20
198.699996948242
 30
0.0
 11
51.5999984741211
 21
197.5
 31
0.0
  0
LINE
  5
17A
330
1F
100
AcDbEntity
  8
3
  6
Continuous
 62
     3
100
AcDbLine
 10
48.4999923706055
 20
197.5
 30
0.0
 11
47.9999923706055
 21
198.699996948242
 31
0.0
  0
LINE
  5
17B
330
1F
100
AcDbEntity
  8
3
  6
Continuous
 62
     3
100
AcDbLine
 10
47.9999923706055
 20
197.5
 30
0.0
 11
47.4999923706055
 21
198.699996948242
 31
0.0
  0
LINE
  5
17C
330
1F
100
AcDbEntity
  8
3
  6
Continuous
 62
     3
100
AcDbLine
 10
44.25
 20
197.0
 30
0.0
 11
51.75
 21
197.0
 31
0.0
  0
LINE
  5
17D
330
1F
100
AcDbEntity
  8
3
  6
Continuous
 62
     3
100
AcDbLine
 10
77.0
 20
187.0
 30
0.0
 11
77.0
 21
195.976991029251
 31
0.0
  0
LINE
  5
17E
330
1F
100
AcDbEntity
  8
3
  6
Continuous
 62
     3
100
AcDbLine
 10
18.9999999999994
 20
195.976991029251
 30
0.0
 11
19.0000000000002
 21
187.0
 31
0.0
  0
LINE
  5
17F
330
1F
100
AcDbEntity
  8
3
  6
Continuous
 62
     3
100
AcDbLine
 10
51.75
 20
197.0
 30
0.0
 11
44.25
 21
197.0
 31
0.0
  0
LINE
  5
180
330
1F
100
AcDbEntity
  8
3
  6
Continuous
 62
     3
100
AcDbLine
 10
44.25
 20
197.5
 30
0.0
 11
51.75
 21
197.5
 31
0.0
  0
LINE
  5
181
330
1F
100
AcDbEntity
  8
3
  6
Continuous
 62
     3
100
AcDbLine
 10
71.941953620087
 20
189.5
 30
0.0
 11
71.941953620087
 21
195.976991029251
 31
0.0
  0
LINE
  5
182
330
1F
100
AcDbEntity
  8
3
  6
Continuous
 62
     3
100
AcDbLine
 10
63.9612979484558
 20
189.5
 30
0.0
 11
63.9612979484558
 21
195.976991029251
 31
0.0
  0
LINE
  5
183
330
1F
100
AcDbEntity
  8
3
  6
Continuous
 62
     3
100
AcDbLine
 10
53.6431757437253
 20
189.5
 30
0.0
 11
53.6431757437253
 21
195.976991029251
 31
0.0
  0
LINE
  5
184
330
1F
100
AcDbEntity
  8
3
  6
Continuous
 62
     3
100
AcDbLine
 10
42.3568242562746
 20
189.5
 30
0.0
 11
42.3568242562746
 21
195.976991029251
 31
0.0
  0
LINE
  5
185
330
1F
100
AcDbEntity
  8
3
  6
Continuous
 62
     3
100
AcDbLine
 10
32.0387020515442
 20
189.5
 30
0.0
 11
32.0387020515442
 21
195.976991029251
 31
0.0
  0
LINE
  5
186
330
1F
100
AcDbEntity
  8
3
  6
Continuous
 62
     3
100
AcDbLine
 10
24.058046379913
 20
189.5
 30
0.0
 11
24.058046379913
 21
195.976991029251
 31
0.0
  0
LINE
  5
187
330
1F
100
AcDbEntity
  8
3
  6
Continuous
 62
     3
100
AcDbLine
 10
76.2158597755094
 20
189.5
 30
0.0
 11
76.2158597755094
 21
195.976991029251
 31
0.0
  0
LINE
  5
188
330
1F
100
AcDbEntity
  8
3
  6
Continuous
 62
     3
100
AcDbLine
 10
19.7841402244906
 20
189.5
 30
0.0
 11
19.7841402244906
 21
195.976991029251
 31
0.0
  0
LINE
  5
189
330
1F
100
AcDbEntity
  8
3
  6
Continuous
 62
     3
100
AcDbLine
 10
51.75
 20
198.699996948242
 30
0.0
 11
44.25
 21
198.699996948242
 31
0.0
  0
LINE
  5
18A
330
1F
100
AcDbEntity
  8
3
  6
Continuous
 62
     3
100
AcDbLine
 10
54.2500000000005
 20
205.0
 30
0.0
 11
59.1836847107049
 21
205.0
 31
0.0
  0
LINE
  5
18B
330
1F
100
AcDbEntity
  8
3
  6
Continuous
 62
     3
100
AcDbLine
 10
51.75
 20
197.0
 30
0.0
 11
51.7500000000005
 21
202.5
 31
0.0
  0
LINE
  5
18C
330
1F
100
AcDbEntity
  8
3
  6
Continuous
 62
     3
100
AcDbLine
 10
41.7500000000006
 20
205.0
 30
0.0
 11
36.8163152892951
 21
205.0
 31
0.0
  0
LINE
  5
18D
330
1F
100
AcDbEntity
  8
3
  6
Continuous
 62
     3
100
AcDbLine
 10
44.25
 20
197.0
 30
0.0
 11
44.25
 21
202.5
 31
0.0
  0
LINE
  5
18E
330
1F
100
AcDbEntity
  8
2
  6
Continuous
 62
     3
100
AcDbLine
 10
220.0
 20
287.975943425581
 30
0.0
 11
220.0
 21
277.55
 31
0.0
  0
LINE
  5
18F
330
1F
100
AcDbEntity
  8
2
  6
Continuous
 62
     3
100
AcDbLine
 10
164.0
 20
300.024056574419
 30
0.0
 11
164.0
 21
310.45
 31
0.0
  0
LINE
  5
190
330
1F
100
AcDbEntity
  8
2
  6
Continuous
 62
     3
100
AcDbLine
 10
182.632503002403
 20
297.5
 30
0.0
 11
167.071527258725
 21
298.72067867176
 31
0.0
  0
LINE
  5
191
330
1F
100
AcDbEntity
  8
2
  6
Continuous
 62
     3
100
AcDbLine
 10
187.279321328239
 20
318.928472741274
 30
0.0
 11
188.5
 21
303.367496997597
 31
0.0
  0
LINE
  5
192
330
1F
100
AcDbEntity
  8
2
  6
Continuous
 62
     3
100
AcDbLine
 10
195.5
 20
303.367496997598
 30
0.0
 11
196.720678671761
 21
318.928472741274
 31
0.0
  0
LINE
  5
193
330
1F
100
AcDbEntity
  8
2
  6
Continuous
 62
     3
100
AcDbLine
 10
216.928472741274
 20
298.720678671761
 30
0.0
 11
201.367496997598
 21
297.5
 31
0.0
  0
LINE
  5
194
330
1F
100
AcDbEntity
  8
2
  6
Continuous
 62
     3
100
AcDbLine
 10
201.367496997597
 20
290.5
 30
0.0
 11
216.928472741274
 21
289.279321328239
 31
0.0
  0
LINE
  5
195
330
1F
100
AcDbEntity
  8
2
  6
Continuous
 62
     3
100
AcDbLine
 10
196.720678671761
 20
269.071527258725
 30
0.0
 11
195.5
 21
284.632503002403
 31
0.0
  0
LINE
  5
196
330
1F
100
AcDbEntity
  8
2
  6
Continuous
 62
     3
100
AcDbLine
 10
167.071527258726
 20
289.279321328239
 30
0.0
 11
182.632503002402
 21
290.499999999999
 31
0.0
  0
LINE
  5
197
330
1F
100
AcDbEntity
  8
2
  6
Continuous
 62
     3
100
AcDbLine
 10
188.5
 20
284.632503002402
 30
0.0
 11
187.279321328239
 21
269.071527258725
 31
0.0
  0
LINE
  5
198
330
1F
100
AcDbEntity
  8
3
  6
Continuous
 62
     3
100
AcDbLine
 10
375.75
 20
202.5
 30
0.0
 11
375.75
 21
197.0
 31
0.0
  0
LINE
  5
199
330
1F
100
AcDbEntity
  8
3
  6
Continuous
 62
     3
100
AcDbLine
 10
383.183684710705
 20
205.0
 30
0.0
 11
378.249999999999
 21
205.0
 31
0.0
  0
LINE
  5
19A
330
1F
100
AcDbEntity
  8
3
  6
Continuous
 62
     3
100
AcDbLine
 10
368.25
 20
202.5
 30
0.0
 11
368.25
 21
197.0
 31
0.0
  0
LINE
  5
19B
330
1F
100
AcDbEntity
  8
3
  6
Continuous
 62
     3
100
AcDbLine
 10
360.816315289295
 20
205.0
 30
0.0
 11
365.749999999999
 21
205.000000000001
 31
0.0
  0
LINE
  5
19C
330
1F
100
AcDbEntity
  8
3
  6
Continuous
 62
     3
100
AcDbLine
 10
375.75
 20
198.699996948242
 30
0.0
 11
368.25
 21
198.699996948242
 31
0.0
  0
LINE
  5
19D
330
1F
100
AcDbEntity
  8
3
  6
Continuous
 62
     3
100
AcDbLine
 10
400.215859775509
 20
195.976991029251
 30
0.0
 11
400.215859775509
 21
189.5
 31
0.0
  0
LINE
  5
19E
330
1F
100
AcDbEntity
  8
3
  6
Continuous
 62
     3
100
AcDbLine
 10
343.784140224491
 20
195.976991029251
 30
0.0
 11
343.784140224491
 21
189.5
 31
0.0
  0
LINE
  5
19F
330
1F
100
AcDbEntity
  8
3
  6
Continuous
 62
     3
100
AcDbLine
 10
395.941953620087
 20
195.976991029251
 30
0.0
 11
395.941953620087
 21
189.5
 31
0.0
  0
LINE
  5
1A0
330
1F
100
AcDbEntity
  8
3
  6
Continuous
 62
     3
100
AcDbLine
 10
387.961297948456
 20
195.976991029251
 30
0.0
 11
387.961297948456
 21
189.5
 31
0.0
  0
LINE
  5
1A1
330
1F
100
AcDbEntity
  8
3
  6
Continuous
 62
     3
100
AcDbLine
 10
366.356824256275
 20
195.976991029251
 30
0.0
 11
366.356824256275
 21
189.5
 31
0.0
  0
LINE
  5
1A2
330
1F
100
AcDbEntity
  8
3
  6
Continuous
 62
     3
100
AcDbLine
 10
356.038702051544
 20
195.976991029251
 30
0.0
 11
356.038702051544
 21
189.5
 31
0.0
  0
LINE
  5
1A3
330
1F
100
AcDbEntity
  8
3
  6
Continuous
 62
     3
100
AcDbLine
 10
348.058046379913
 20
195.976991029251
 30
0.0
 11
348.058046379913
 21
189.5
 31
0.0
  0
LINE
  5
1A4
330
1F
100
AcDbEntity
  8
3
  6
Continuous
 62
     3
100
AcDbLine
 10
368.25
 20
197.5
 30
0.0
 11
375.75
 21
197.5
 31
0.0
  0
LINE
  5
1A5
330
1F
100
AcDbEntity
  8
3
  6
Continuous
 62
     3
100
AcDbLine
 10
375.75
 20
197.0
 30
0.0
 11
368.25
 21
197.0
 31
0.0
  0
LINE
  5
1A6
330
1F
100
AcDbEntity
  8
3
  6
Continuous
 62
     3
100
AcDbLine
 10
401.0
 20
187.0
 30
0.0
 11
401.0
 21
195.976991029251
 31
0.0
  0
LINE
  5
1A7
330
1F
100
AcDbEntity
  8
3
  6
Continuous
 62
     3
100
AcDbLine
 10
342.999999999999
 20
195.976991029251
 30
0.0
 11
343.0
 21
187.0
 31
0.0
  0
LINE
  5
1A8
330
1F
100
AcDbEntity
  8
3
  6
Continuous
 62
     3
100
AcDbLine
 10
368.25
 20
197.0
 30
0.0
 11
375.75
 21
197.0
 31
0.0
  0
LINE
  5
1A9
330
1F
100
AcDbEntity
  8
3
  6
Continuous
 62
     3
100
AcDbLine
 10
372.500007629394
 20
198.699996948242
 30
0.0
 11
372.000007629394
 21
197.5
 31
0.0
  0
LINE
  5
1AA
330
1F
100
AcDbEntity
  8
3
  6
Continuous
 62
     3
100
AcDbLine
 10
372.000007629394
 20
198.699996948242
 30
0.0
 11
371.500007629394
 21
197.5
 31
0.0
  0
LINE
  5
1AB
330
1F
100
AcDbEntity
  8
3
  6
Continuous
 62
     3
100
AcDbLine
 10
368.400001525879
 20
197.5
 30
0.0
 11
368.400001525879
 21
198.699996948242
 31
0.0
  0
LINE
  5
1AC
330
1F
100
AcDbEntity
  8
3
  6
Continuous
 62
     3
100
AcDbLine
 10
375.600006103516
 20
197.5
 30
0.0
 11
375.600006103516
 21
198.699996948242
 31
0.0
  0
LINE
  5
1AD
330
1F
100
AcDbEntity
  8
3
  6
Continuous
 62
     3
100
AcDbLine
 10
343.0
 20
187.0
 30
0.0
 11
401.0
 21
187.0
 31
0.0
  0
LINE
  5
1AE
330
1F
100
AcDbEntity
  8
2
  6
Continuous
 62
     3
100
AcDbLine
 10
368.5
 20
187.0
 30
0.0
 11
368.5
 21
186.5
 31
0.0
  0
LINE
  5
1AF
330
1F
100
AcDbEntity
  8
2
  6
Continuous
 62
     3
100
AcDbLine
 10
375.5
 20
187.0
 30
0.0
 11
375.5
 21
186.5
 31
0.0
  0
LINE
  5
1B0
330
1F
100
AcDbEntity
  8
2
  6
Continuous
 62
     3
100
AcDbLine
 10
357.0
 20
183.95
 30
0.0
 11
357.0
 21
162.45
 31
0.0
  0
LINE
  5
1B1
330
1F
100
AcDbEntity
  8
2
  6
Continuous
 62
     3
100
AcDbLine
 10
387.0
 20
183.95
 30
0.0
 11
387.0
 21
162.45
 31
0.0
  0
LINE
  5
1B2
330
1F
100
AcDbEntity
  8
2
  6
Continuous
 62
     3
100
AcDbLine
 10
357.0
 20
162.45
 30
0.0
 11
387.0
 21
162.45
 31
0.0
  0
LINE
  5
1B3
330
1F
100
AcDbEntity
  8
2
  6
Continuous
 62
     3
100
AcDbLine
 10
359.5
 20
186.45
 30
0.0
 11
384.5
 21
186.45
 31
0.0
  0
LINE
  5
1B4
330
1F
100
AcDbEntity
  8
2
  6
Continuous
 62
     3
100
AcDbLine
 10
378.25
 20
159.0
 30
0.0
 11
378.25
 21
162.45
 31
0.0
  0
LINE
  5
1B5
330
1F
100
AcDbEntity
  8
2
  6
Continuous
 62
     3
100
AcDbLine
 10
365.75
 20
159.0
 30
0.0
 11
365.75
 21
162.45
 31
0.0
  0
LINE
  5
1B6
330
1F
100
AcDbEntity
  8
2
  6
Continuous
 62
     3
100
AcDbLine
 10
185.75
 20
159.0
 30
0.0
 11
185.75
 21
162.45
 31
0.0
  0
LINE
  5
1B7
330
1F
100
AcDbEntity
  8
2
  6
Continuous
 62
     3
100
AcDbLine
 10
198.25
 20
159.0
 30
0.0
 11
198.25
 21
162.45
 31
0.0
  0
LINE
  5
1B8
330
1F
100
AcDbEntity
  8
2
  6
Continuous
 62
     3
100
AcDbLine
 10
179.5
 20
186.45
 30
0.0
 11
204.5
 21
186.45
 31
0.0
  0
LINE
  5
1B9
330
1F
100
AcDbEntity
  8
2
  6
Continuous
 62
     3
100
AcDbLine
 10
177.0
 20
162.45
 30
0.0
 11
207.0
 21
162.45
 31
0.0
  0
LINE
  5
1BA
330
1F
100
AcDbEntity
  8
2
  6
Continuous
 62
     3
100
AcDbLine
 10
207.0
 20
183.95
 30
0.0
 11
207.0
 21
162.45
 31
0.0
  0
LINE
  5
1BB
330
1F
100
AcDbEntity
  8
2
  6
Continuous
 62
     3
100
AcDbLine
 10
177.0
 20
183.95
 30
0.0
 11
177.0
 21
162.45
 31
0.0
  0
LINE
  5
1BC
330
1F
100
AcDbEntity
  8
2
  6
Continuous
 62
     3
100
AcDbLine
 10
195.5
 20
187.0
 30
0.0
 11
195.5
 21
186.5
 31
0.0
  0
LINE
  5
1BD
330
1F
100
AcDbEntity
  8
2
  6
Continuous
 62
     3
100
AcDbLine
 10
188.5
 20
187.0
 30
0.0
 11
188.5
 21
186.5
 31
0.0
  0
LINE
  5
1BE
330
1F
100
AcDbEntity
  8
3
  6
Continuous
 62
     3
100
AcDbLine
 10
163.0
 20
187.0
 30
0.0
 11
221.0
 21
187.0
 31
0.0
  0
LINE
  5
1BF
330
1F
100
AcDbEntity
  8
3
  6
Continuous
 62
     3
100
AcDbLine
 10
195.600006103516
 20
197.5
 30
0.0
 11
195.600006103516
 21
198.699996948242
 31
0.0
  0
LINE
  5
1C0
330
1F
100
AcDbEntity
  8
3
  6
Continuous
 62
     3
100
AcDbLine
 10
188.400001525879
 20
197.5
 30
0.0
 11
188.400001525879
 21
198.699996948242
 31
0.0
  0
LINE
  5
1C1
330
1F
100
AcDbEntity
  8
3
  6
Continuous
 62
     3
100
AcDbLine
 10
192.000007629395
 20
198.699996948242
 30
0.0
 11
191.500007629395
 21
197.5
 31
0.0
  0
LINE
  5
1C2
330
1F
100
AcDbEntity
  8
3
  6
Continuous
 62
     3
100
AcDbLine
 10
192.500007629395
 20
198.699996948242
 30
0.0
 11
192.000007629395
 21
197.5
 31
0.0
  0
LINE
  5
1C3
330
1F
100
AcDbEntity
  8
3
  6
Continuous
 62
     3
100
AcDbLine
 10
188.25
 20
197.0
 30
0.0
 11
195.75
 21
197.0
 31
0.0
  0
LINE
  5
1C4
330
1F
100
AcDbEntity
  8
3
  6
Continuous
 62
     3
100
AcDbLine
 10
162.999999999999
 20
195.976991029251
 30
0.0
 11
163.0
 21
187.0
 31
0.0
  0
LINE
  5
1C5
330
1F
100
AcDbEntity
  8
3
  6
Continuous
 62
     3
100
AcDbLine
 10
221.0
 20
187.0
 30
0.0
 11
221.0
 21
195.976991029251
 31
0.0
  0
LINE
  5
1C6
330
1F
100
AcDbEntity
  8
3
  6
Continuous
 62
     3
100
AcDbLine
 10
195.75
 20
197.0
 30
0.0
 11
188.25
 21
197.0
 31
0.0
  0
LINE
  5
1C7
330
1F
100
AcDbEntity
  8
3
  6
Continuous
 62
     3
100
AcDbLine
 10
188.25
 20
197.5
 30
0.0
 11
195.75
 21
197.5
 31
0.0
  0
LINE
  5
1C8
330
1F
100
AcDbEntity
  8
3
  6
Continuous
 62
     3
100
AcDbLine
 10
168.058046379913
 20
195.976991029251
 30
0.0
 11
168.058046379913
 21
189.5
 31
0.0
  0
LINE
  5
1C9
330
1F
100
AcDbEntity
  8
3
  6
Continuous
 62
     3
100
AcDbLine
 10
176.038702051544
 20
195.976991029251
 30
0.0
 11
176.038702051544
 21
189.5
 31
0.0
  0
LINE
  5
1CA
330
1F
100
AcDbEntity
  8
3
  6
Continuous
 62
     3
100
AcDbLine
 10
186.356824256275
 20
195.976991029251
 30
0.0
 11
186.356824256275
 21
189.5
 31
0.0
  0
LINE
  5
1CB
330
1F
100
AcDbEntity
  8
3
  6
Continuous
 62
     3
100
AcDbLine
 10
197.643175743725
 20
195.976991029251
 30
0.0
 11
197.643175743725
 21
189.5
 31
0.0
  0
LINE
  5
1CC
330
1F
100
AcDbEntity
  8
3
  6
Continuous
 62
     3
100
AcDbLine
 10
207.961297948456
 20
195.976991029251
 30
0.0
 11
207.961297948456
 21
189.5
 31
0.0
  0
LINE
  5
1CD
330
1F
100
AcDbEntity
  8
3
  6
Continuous
 62
     3
100
AcDbLine
 10
215.941953620087
 20
195.976991029251
 30
0.0
 11
215.941953620087
 21
189.5
 31
0.0
  0
LINE
  5
1CE
330
1F
100
AcDbEntity
  8
3
  6
Continuous
 62
     3
100
AcDbLine
 10
163.784140224491
 20
195.976991029251
 30
0.0
 11
163.784140224491
 21
189.5
 31
0.0
  0
LINE
  5
1CF
330
1F
100
AcDbEntity
  8
3
  6
Continuous
 62
     3
100
AcDbLine
 10
220.215859775509
 20
195.976991029251
 30
0.0
 11
220.215859775509
 21
189.5
 31
0.0
  0
LINE
  5
1D0
330
1F
100
AcDbEntity
  8
3
  6
PHANTOM
 62
     6
100
AcDbLine
 10
162.999999999999
 20
185.976991029251
 30
0.0
 11
163.0
 21
177.0
 31
0.0
  0
LINE
  5
1D1
330
1F
100
AcDbEntity
  8
3
  6
PHANTOM
 62
     6
100
AcDbLine
 10
221.0
 20
177.0
 30
0.0
 11
221.0
 21
185.976991029251
 31
0.0
  0
LINE
  5
1D2
330
1F
100
AcDbEntity
  8
3
  6
PHANTOM
 62
     6
100
AcDbLine
 10
163.0
 20
177.0
 30
0.0
 11
221.0
 21
177.0
 31
0.0
  0
LINE
  5
1D3
330
1F
100
AcDbEntity
  8
3
  6
PHANTOM
 62
     6
100
AcDbLine
 10
180.816315289295
 20
195.0
 30
0.0
 11
203.183684710705
 21
195.0
 31
0.0
  0
LINE
  5
1D4
330
1F
100
AcDbEntity
  8
3
  6
Continuous
 62
     3
100
AcDbLine
 10
195.75
 20
198.699996948242
 30
0.0
 11
188.25
 21
198.699996948242
 31
0.0
  0
LINE
  5
1D5
330
1F
100
AcDbEntity
  8
3
  6
Continuous
 62
     3
100
AcDbLine
 10
180.816315289295
 20
205.0
 30
0.0
 11
185.749999999999
 21
205.0
 31
0.0
  0
LINE
  5
1D6
330
1F
100
AcDbEntity
  8
3
  6
Continuous
 62
     3
100
AcDbLine
 10
188.25
 20
202.5
 30
0.0
 11
188.25
 21
197.0
 31
0.0
  0
LINE
  5
1D7
330
1F
100
AcDbEntity
  8
3
  6
Continuous
 62
     3
100
AcDbLine
 10
203.183684710705
 20
205.0
 30
0.0
 11
198.249999999999
 21
205.0
 31
0.0
  0
LINE
  5
1D8
330
1F
100
AcDbEntity
  8
3
  6
Continuous
 62
     3
100
AcDbLine
 10
195.75
 20
202.5
 30
0.0
 11
195.75
 21
197.0
 31
0.0
  0
LINE
  5
1D9
330
1F
100
AcDbEntity
  8
2
  6
PHANTOM
 62
     6
100
AcDbLine
 10
177.0
 20
152.45
 30
0.0
 11
207.0
 21
152.45
 31
0.0
  0
LINE
  5
1DA
330
1F
100
AcDbEntity
  8
2
  6
PHANTOM
 62
     6
100
AcDbLine
 10
207.0
 20
160.717091891215
 30
0.0
 11
207.0
 21
152.45
 31
0.0
  0
LINE
  5
1DB
330
1F
100
AcDbEntity
  8
2
  6
PHANTOM
 62
     6
100
AcDbLine
 10
177.0
 20
160.717091891215
 30
0.0
 11
177.0
 21
152.45
 31
0.0
  0
LINE
  5
1DC
330
1F
100
AcDbEntity
  8
2
  6
Continuous
 62
     3
100
AcDbLine
 10
164.0
 20
277.55
 30
0.0
 11
164.0
 21
287.975943425581
 31
0.0
  0
LINE
  5
1DD
330
1F
100
AcDbEntity
  8
2
  6
Continuous
 62
     3
100
AcDbLine
 10
220.0
 20
310.45
 30
0.0
 11
220.0
 21
300.024056574419
 31
0.0
  0
LINE
  5
1DE
330
1F
100
AcDbEntity
  8
2
  6
Continuous
 62
     3
100
AcDbLine
 10
371.999999999996
 20
135.53589838486
 30
0.0
 11
372.000000000018
 21
146.999992370609
 31
0.0
  0
LINE
  5
1DF
330
1F
100
AcDbEntity
  8
2
  6
Continuous
 62
     3
100
AcDbLine
 10
362.5
 20
159.0
 30
0.0
 11
381.5
 21
159.0
 31
0.0
  0
LINE
  5
1E0
330
1F
100
AcDbEntity
  8
2
  6
Continuous
 62
     3
100
AcDbLine
 10
382.66439898731
 20
158.01360607617
 30
0.0
 11
384.0
 21
150.0
 31
0.0
  0
LINE
  5
1E1
330
1F
100
AcDbEntity
  8
2
  6
Continuous
 62
     3
100
AcDbLine
 10
361.33560101269
 20
158.01360607617
 30
0.0
 11
360.0
 21
150.0
 31
0.0
  0
LINE
  5
1E2
330
1F
100
AcDbEntity
  8
2
  6
Continuous
 62
     3
100
AcDbLine
 10
381.5
 20
159.0
 30
0.0
 11
382.66439898731
 21
158.01360607617
 31
0.0
  0
LINE
  5
1E3
330
1F
100
AcDbEntity
  8
2
  6
Continuous
 62
     3
100
AcDbLine
 10
362.5
 20
159.0
 30
0.0
 11
361.33560101269
 21
158.01360607617
 31
0.0
  0
LINE
  5
1E4
330
1F
100
AcDbEntity
  8
2
  6
Continuous
 62
     3
100
AcDbLine
 10
392.0
 20
133.77029414592
 30
0.0
 11
391.999999999997
 21
132.64575131106
 31
0.0
  0
LINE
  5
1E5
330
1F
100
AcDbEntity
  8
2
  6
Continuous
 62
     3
100
AcDbLine
 10
357.0
 20
148.3084322264
 30
0.0
 11
357.0
 21
135.53589838486
 31
0.0
  0
LINE
  5
1E6
330
1F
100
AcDbEntity
  8
2
  6
Continuous
 62
     3
100
AcDbLine
 10
384.0
 20
150.0
 30
0.0
 11
387.0
 21
148.308432226403
 31
0.0
  0
LINE
  5
1E7
330
1F
100
AcDbEntity
  8
2
  6
Continuous
 62
     3
100
AcDbLine
 10
360.0
 20
150.0
 30
0.0
 11
357.0
 21
148.3084322264
 31
0.0
  0
LINE
  5
1E8
330
1F
100
AcDbEntity
  8
2
  6
Continuous
 62
     3
100
AcDbLine
 10
387.0
 20
148.308432226403
 30
0.0
 11
387.000000000003
 21
135.53589838486
 31
0.0
  0
LINE
  5
1E9
330
1F
100
AcDbEntity
  8
2
  6
Continuous
 62
     3
100
AcDbLine
 10
387.0
 20
135.999999999998
 30
0.0
 11
390.794174202709
 21
135.241165159456
 31
0.0
  0
LINE
  5
1EA
330
1F
100
AcDbEntity
  8
2
  6
Continuous
 62
     3
100
AcDbLine
 10
353.205825797291
 20
135.241165159456
 30
0.0
 11
357.0
 21
135.999999999998
 31
0.0
  0
LINE
  5
1EB
330
1F
100
AcDbEntity
  8
2
  6
Continuous
 62
     3
100
AcDbLine
 10
352.0
 20
133.77029414592
 30
0.0
 11
352.0
 21
132.64575131106
 31
0.0
  0
LINE
  5
1EC
330
1F
100
AcDbEntity
  8
2
  6
Continuous
 62
     3
100
AcDbLine
 10
384.0
 20
150.0
 30
0.0
 11
360.0
 21
150.0
 31
0.0
  0
LINE
  5
1ED
330
1F
100
AcDbEntity
  8
2
  6
Continuous
 62
     3
100
AcDbLine
 10
382.66439898731
 20
158.01360607617
 30
0.0
 11
361.33560101269
 21
158.01360607617
 31
0.0
  0
LINE
  5
1EE
330
1F
100
AcDbEntity
  8
2
  6
Continuous
 62
     3
100
AcDbLine
 10
202.66439898731
 20
158.01360607617
 30
0.0
 11
181.33560101269
 21
158.01360607617
 31
0.0
  0
LINE
  5
1EF
330
1F
100
AcDbEntity
  8
2
  6
Continuous
 62
     3
100
AcDbLine
 10
204.0
 20
150.0
 30
0.0
 11
180.0
 21
150.0
 31
0.0
  0
LINE
  5
1F0
330
1F
100
AcDbEntity
  8
2
  6
Continuous
 62
     3
100
AcDbLine
 10
183.339745962174
 20
147.000000000004
 30
0.0
 11
183.339745962162
 21
135.53589838486
 31
0.0
  0
LINE
  5
1F1
330
1F
100
AcDbEntity
  8
2
  6
Continuous
 62
     3
100
AcDbLine
 10
200.660254037819
 20
147.0
 30
0.0
 11
200.660254037835
 21
135.53589838486
 31
0.0
  0
LINE
  5
1F2
330
1F
100
AcDbEntity
  8
2
  6
Continuous
 62
     3
100
AcDbLine
 10
172.0
 20
133.77029414592
 30
0.0
 11
172.0
 21
132.64575131106
 31
0.0
  0
LINE
  5
1F3
330
1F
100
AcDbEntity
  8
2
  6
Continuous
 62
     3
100
AcDbLine
 10
173.205825797291
 20
135.241165159456
 30
0.0
 11
174.679491924273
 21
135.535898384853
 31
0.0
  0
LINE
  5
1F4
330
1F
100
AcDbEntity
  8
2
  6
Continuous
 62
     3
100
AcDbLine
 10
209.32050807569
 20
135.53589838486
 30
0.0
 11
210.794174202709
 21
135.241165159456
 31
0.0
  0
LINE
  5
1F5
330
1F
100
AcDbEntity
  8
2
  6
Continuous
 62
     3
100
AcDbLine
 10
174.67949192431
 20
147.0
 30
0.0
 11
174.679491924273
 21
135.535898384853
 31
0.0
  0
LINE
  5
1F6
330
1F
100
AcDbEntity
  8
2
  6
Continuous
 62
     3
100
AcDbLine
 10
180.0
 20
150.0
 30
0.0
 11
174.67949192431
 21
147.0
 31
0.0
  0
LINE
  5
1F7
330
1F
100
AcDbEntity
  8
2
  6
Continuous
 62
     3
100
AcDbLine
 10
204.0
 20
150.0
 30
0.0
 11
209.32050807569
 21
147.0
 31
0.0
  0
LINE
  5
1F8
330
1F
100
AcDbEntity
  8
2
  6
Continuous
 62
     3
100
AcDbLine
 10
212.0
 20
133.77029414592
 30
0.0
 11
211.999999999997
 21
132.64575131106
 31
0.0
  0
LINE
  5
1F9
330
1F
100
AcDbEntity
  8
2
  6
Continuous
 62
     3
100
AcDbLine
 10
209.32050807569
 20
147.0
 30
0.0
 11
209.32050807569
 21
135.53589838486
 31
0.0
  0
LINE
  5
1FA
330
1F
100
AcDbEntity
  8
2
  6
Continuous
 62
     3
100
AcDbLine
 10
182.5
 20
159.0
 30
0.0
 11
181.33560101269
 21
158.01360607617
 31
0.0
  0
LINE
  5
1FB
330
1F
100
AcDbEntity
  8
2
  6
Continuous
 62
     3
100
AcDbLine
 10
201.5
 20
159.0
 30
0.0
 11
202.66439898731
 21
158.01360607617
 31
0.0
  0
LINE
  5
1FC
330
1F
100
AcDbEntity
  8
2
  6
Continuous
 62
     3
100
AcDbLine
 10
181.33560101269
 20
158.01360607617
 30
0.0
 11
180.0
 21
150.0
 31
0.0
  0
LINE
  5
1FD
330
1F
100
AcDbEntity
  8
2
  6
Continuous
 62
     3
100
AcDbLine
 10
202.66439898731
 20
158.01360607617
 30
0.0
 11
204.0
 21
150.0
 31
0.0
  0
LINE
  5
1FE
330
1F
100
AcDbEntity
  8
2
  6
Continuous
 62
     3
100
AcDbLine
 10
182.5
 20
159.0
 30
0.0
 11
201.5
 21
159.0
 31
0.0
  0
LINE
  5
1FF
330
1F
100
AcDbEntity
  8
2
  6
DOT_CENTER
 62
     1
100
AcDbLine
 10
146.0
 20
294.0
 30
0.0
 11
295.2
 21
294.0
 31
0.0
  0
LINE
  5
200
330
1F
100
AcDbEntity
  8
2
  6
Continuous
 62
     3
100
AcDbLine
 10
152.0
 20
277.55
 30
0.0
 11
152.0
 21
310.45
 31
0.0
  0
LINE
  5
201
330
1F
100
AcDbEntity
  8
2
  6
Continuous
 62
     3
100
AcDbLine
 10
152.0
 20
310.45
 30
0.0
 11
164.0
 21
310.45
 31
0.0
  0
LINE
  5
202
330
1F
100
AcDbEntity
  8
2
  6
Continuous
 62
     3
100
AcDbLine
 10
152.0
 20
309.35
 30
0.0
 11
165.1
 21
309.35
 31
0.0
  0
LINE
  5
203
330
1F
100
AcDbEntity
  8
2
  6
Continuous
 62
     3
100
AcDbLine
 10
164.0
 20
310.45
 30
0.0
 11
165.26066017178
 21
309.18933982822
 31
0.0
  0
LINE
  5
204
330
1F
100
AcDbEntity
  8
2
  6
Continuous
 62
     3
100
AcDbLine
 10
166.32132034356
 20
308.75
 30
0.0
 11
167.11149863893
 21
308.75
 31
0.0
  0
LINE
  5
205
330
1F
100
AcDbEntity
  8
2
  6
Continuous
 62
     3
100
AcDbLine
 10
164.0
 20
277.55
 30
0.0
 11
165.26066017178
 21
278.81066017178
 31
0.0
  0
LINE
  5
206
330
1F
100
AcDbEntity
  8
2
  6
Continuous
 62
     3
100
AcDbLine
 10
152.0
 20
277.55
 30
0.0
 11
164.0
 21
277.55
 31
0.0
  0
LINE
  5
207
330
1F
100
AcDbEntity
  8
2
  6
Continuous
 62
     3
100
AcDbLine
 10
152.0
 20
278.65
 30
0.0
 11
165.1
 21
278.65
 31
0.0
  0
LINE
  5
208
330
1F
100
AcDbEntity
  8
2
  6
Continuous
 62
     3
100
AcDbLine
 10
166.32132034356
 20
279.25
 30
0.0
 11
167.11149863893
 21
279.25
 31
0.0
  0
LINE
  5
209
330
1F
100
AcDbEntity
  8
2
  6
Continuous
 62
     3
100
AcDbLine
 10
217.67867965644
 20
308.75
 30
0.0
 11
216.88850136107
 21
308.75
 31
0.0
  0
LINE
  5
20A
330
1F
100
AcDbEntity
  8
2
  6
Continuous
 62
     3
100
AcDbLine
 10
220.0
 20
310.45
 30
0.0
 11
218.73933982822
 21
309.18933982822
 31
0.0
  0
LINE
  5
20B
330
1F
100
AcDbEntity
  8
2
  6
Continuous
 62
     3
100
AcDbLine
 10
221.1875
 20
310.45
 30
0.0
 11
220.0
 21
310.45
 31
0.0
  0
LINE
  5
20C
330
1F
100
AcDbEntity
  8
2
  6
Continuous
 62
     3
100
AcDbLine
 10
221.1875
 20
309.35
 30
0.0
 11
218.9
 21
309.35
 31
0.0
  0
LINE
  5
20D
330
1F
100
AcDbEntity
  8
2
  6
Continuous
 62
     3
100
AcDbLine
 10
220.0
 20
277.55
 30
0.0
 11
218.73933982822
 21
278.81066017178
 31
0.0
  0
LINE
  5
20E
330
1F
100
AcDbEntity
  8
2
  6
Continuous
 62
     3
100
AcDbLine
 10
221.1875
 20
277.55
 30
0.0
 11
220.0
 21
277.55
 31
0.0
  0
LINE
  5
20F
330
1F
100
AcDbEntity
  8
2
  6
Continuous
 62
     3
100
AcDbLine
 10
221.1875
 20
278.65
 30
0.0
 11
218.9
 21
278.65
 31
0.0
  0
LINE
  5
210
330
1F
100
AcDbEntity
  8
2
  6
Continuous
 62
     3
100
AcDbLine
 10
217.67867965644
 20
279.25
 30
0.0
 11
216.88850136107
 21
279.25
 31
0.0
  0
LINE
  5
211
330
1F
100
AcDbEntity
  8
2
  6
DOT_CENTER
 62
     1
100
AcDbLine
 10
192.0
 20
259.0
 30
0.0
 11
192.0
 21
329.0
 31
0.0
  0
LINE
  5
212
330
1F
100
AcDbEntity
  8
2
  6
Continuous
 62
     3
100
AcDbLine
 10
164.0
 20
118.45
 30
0.0
 11
164.0
 21
85.55
 31
0.0
  0
LINE
  5
213
330
1F
100
AcDbEntity
  8
2
  6
Continuous
 62
     3
100
AcDbLine
 10
220.0
 20
85.55
 30
0.0
 11
220.0
 21
118.45
 31
0.0
  0
LINE
  5
214
330
1F
100
AcDbEntity
  8
2
  6
Continuous
 62
     3
100
AcDbLine
 10
363.5330052557
 20
104.0
 30
0.0
 11
380.4669947443
 21
104.0
 31
0.0
  0
LINE
  5
215
330
1F
100
AcDbEntity
  8
2
  6
Continuous
 62
     3
100
AcDbLine
 10
352.999999999998
 20
129.999999999998
 30
0.0
 11
391.0
 21
130.0
 31
0.0
  0
LINE
  5
216
330
1F
100
AcDbEntity
  8
2
  6
DOT_CENTER
 62
     1
100
AcDbLine
 10
372.0
 20
74.0606897707944
 30
0.0
 11
372.0
 21
211.0
 31
0.0
  0
LINE
  5
217
330
1F
100
AcDbEntity
  8
2
  6
DOT_CENTER
 62
     1
100
AcDbLine
 10
346.999999999999
 20
102.0
 30
0.0
 11
397.0
 21
102.0
 31
0.0
  0
LINE
  5
218
330
1F
100
AcDbEntity
  8
2
  6
Continuous
 62
     3
100
AcDbLine
 10
177.0
 20
97.0
 30
0.0
 11
188.0
 21
97.0
 31
0.0
  0
LINE
  5
219
330
1F
100
AcDbEntity
  8
2
  6
Continuous
 62
     3
100
AcDbLine
 10
181.0
 20
102.0
 30
0.0
 11
177.0
 21
97.0
 31
0.0
  0
LINE
  5
21A
330
1F
100
AcDbEntity
  8
2
  6
Continuous
 62
     3
100
AcDbLine
 10
207.0
 20
102.0
 30
0.0
 11
181.0
 21
102.0
 31
0.0
  0
LINE
  5
21B
330
1F
100
AcDbEntity
  8
2
  6
Continuous
 62
     3
100
AcDbLine
 10
197.2
 20
97.0
 30
0.0
 11
207.0
 21
102.0
 31
0.0
  0
LINE
  5
21C
330
1F
100
AcDbEntity
  8
2
  6
Continuous
 62
     3
100
AcDbLine
 10
200.0
 20
100.5
 30
0.0
 11
197.2
 21
97.0
 31
0.0
  0
LINE
  5
21D
330
1F
100
AcDbEntity
  8
2
  6
Continuous
 62
     3
100
AcDbLine
 10
190.8
 20
100.5
 30
0.0
 11
200.0
 21
100.5
 31
0.0
  0
LINE
  5
21E
330
1F
100
AcDbEntity
  8
2
  6
Continuous
 62
     3
100
AcDbLine
 10
188.0
 20
97.0
 30
0.0
 11
190.8
 21
100.5
 31
0.0
  0
LINE
  5
21F
330
1F
100
AcDbEntity
  8
2
  6
Continuous
 62
     3
100
AcDbLine
 10
194.107360876872
 20
104.443121196994
 30
0.0
 11
194.083631558827
 21
104.490996863096
 31
0.0
  0
LINE
  5
220
330
1F
100
AcDbEntity
  8
2
  6
Continuous
 62
     3
100
AcDbLine
 10
194.159101243734
 20
104.397272112855
 30
0.0
 11
194.107360876872
 21
104.443121196994
 31
0.0
  0
LINE
  5
221
330
1F
100
AcDbEntity
  8
2
  6
Continuous
 62
     3
100
AcDbLine
 10
194.22816859655
 20
104.356770204398
 30
0.0
 11
194.159101243734
 21
104.397272112855
 31
0.0
  0
LINE
  5
222
330
1F
100
AcDbEntity
  8
2
  6
Continuous
 62
     3
100
AcDbLine
 10
194.326153449761
 20
104.298683267746
 30
0.0
 11
194.22816859655
 21
104.356770204398
 31
0.0
  0
LINE
  5
223
330
1F
100
AcDbEntity
  8
2
  6
Continuous
 62
     3
100
AcDbLine
 10
194.426755113456
 20
104.240778303601
 30
0.0
 11
194.326153449761
 21
104.298683267746
 31
0.0
  0
LINE
  5
224
330
1F
100
AcDbEntity
  8
2
  6
Continuous
 62
     3
100
AcDbLine
 10
194.527640295255
 20
104.18442200938
 30
0.0
 11
194.426755113456
 21
104.240778303601
 31
0.0
  0
LINE
  5
225
330
1F
100
AcDbEntity
  8
2
  6
Continuous
 62
     3
100
AcDbLine
 10
194.626475702777
 20
104.130981082502
 30
0.0
 11
194.527640295255
 21
104.18442200938
 31
0.0
  0
LINE
  5
226
330
1F
100
AcDbEntity
  8
2
  6
Continuous
 62
     3
100
AcDbLine
 10
194.72092804364
 20
104.081822220385
 30
0.0
 11
194.626475702777
 21
104.130981082502
 31
0.0
  0
LINE
  5
227
330
1F
100
AcDbEntity
  8
2
  6
Continuous
 62
     3
100
AcDbLine
 10
194.808664025463
 20
104.038312120447
 30
0.0
 11
194.72092804364
 21
104.081822220385
 31
0.0
  0
LINE
  5
228
330
1F
100
AcDbEntity
  8
2
  6
Continuous
 62
     3
100
AcDbLine
 10
194.887350355866
 20
104.001817480107
 30
0.0
 11
194.808664025463
 21
104.038312120447
 31
0.0
  0
LINE
  5
229
330
1F
100
AcDbEntity
  8
2
  6
Continuous
 62
     3
100
AcDbLine
 10
194.954653742467
 20
103.973704996783
 30
0.0
 11
194.887350355866
 21
104.001817480107
 31
0.0
  0
LINE
  5
22A
330
1F
100
AcDbEntity
  8
2
  6
Continuous
 62
     3
100
AcDbLine
 10
194.978483295346
 20
103.978141436014
 30
0.0
 11
194.954653742467
 21
103.973704996783
 31
0.0
  0
LINE
  5
22B
330
1F
100
AcDbEntity
  8
2
  6
Continuous
 62
     3
100
AcDbLine
 10
195.005382331406
 20
103.982672233045
 30
0.0
 11
194.978483295346
 21
103.978141436014
 31
0.0
  0
LINE
  5
22C
330
1F
100
AcDbEntity
  8
2
  6
Continuous
 62
     3
100
AcDbLine
 10
195.035015752865
 20
103.987085985571
 30
0.0
 11
195.005382331406
 21
103.982672233045
 31
0.0
  0
LINE
  5
22D
330
1F
100
AcDbEntity
  8
2
  6
Continuous
 62
     3
100
AcDbLine
 10
195.06704846194
 20
103.991171291289
 30
0.0
 11
195.035015752865
 21
103.987085985571
 31
0.0
  0
LINE
  5
22E
330
1F
100
AcDbEntity
  8
2
  6
Continuous
 62
     3
100
AcDbLine
 10
195.101145360849
 20
103.994716747894
 30
0.0
 11
195.06704846194
 21
103.991171291289
 31
0.0
  0
LINE
  5
22F
330
1F
100
AcDbEntity
  8
2
  6
Continuous
 62
     3
100
AcDbLine
 10
195.13697135181
 20
103.997510953084
 30
0.0
 11
195.101145360849
 21
103.994716747894
 31
0.0
  0
LINE
  5
230
330
1F
100
AcDbEntity
  8
2
  6
Continuous
 62
     3
100
AcDbLine
 10
195.174191337041
 20
103.999342504554
 30
0.0
 11
195.13697135181
 21
103.997510953084
 31
0.0
  0
LINE
  5
231
330
1F
100
AcDbEntity
  8
2
  6
Continuous
 62
     3
100
AcDbLine
 10
195.212470218758
 20
104.0
 30
0.0
 11
195.174191337041
 21
103.999342504554
 31
0.0
  0
LINE
  5
232
330
1F
100
AcDbEntity
  8
2
  6
Continuous
 62
     3
100
AcDbLine
 10
195.250749100476
 20
103.999342504554
 30
0.0
 11
195.212470218758
 21
104.0
 31
0.0
  0
LINE
  5
233
330
1F
100
AcDbEntity
  8
2
  6
Continuous
 62
     3
100
AcDbLine
 10
195.287969085707
 20
103.997510953084
 30
0.0
 11
195.250749100476
 21
103.999342504554
 31
0.0
  0
LINE
  5
234
330
1F
100
AcDbEntity
  8
2
  6
Continuous
 62
     3
100
AcDbLine
 10
195.323795076667
 20
103.994716747894
 30
0.0
 11
195.287969085707
 21
103.997510953084
 31
0.0
  0
LINE
  5
235
330
1F
100
AcDbEntity
  8
2
  6
Continuous
 62
     3
100
AcDbLine
 10
195.357891975577
 20
103.991171291289
 30
0.0
 11
195.323795076667
 21
103.994716747894
 31
0.0
  0
LINE
  5
236
330
1F
100
AcDbEntity
  8
2
  6
Continuous
 62
     3
100
AcDbLine
 10
195.389924684652
 20
103.987085985571
 30
0.0
 11
195.357891975577
 21
103.991171291289
 31
0.0
  0
LINE
  5
237
330
1F
100
AcDbEntity
  8
2
  6
Continuous
 62
     3
100
AcDbLine
 10
195.41955810611
 20
103.982672233045
 30
0.0
 11
195.389924684652
 21
103.987085985571
 31
0.0
  0
LINE
  5
238
330
1F
100
AcDbEntity
  8
2
  6
Continuous
 62
     3
100
AcDbLine
 10
195.446457142171
 20
103.978141436014
 30
0.0
 11
195.41955810611
 21
103.982672233045
 31
0.0
  0
LINE
  5
239
330
1F
100
AcDbEntity
  8
2
  6
Continuous
 62
     3
100
AcDbLine
 10
195.47028669505
 20
103.973704996783
 30
0.0
 11
195.446457142171
 21
103.978141436014
 31
0.0
  0
LINE
  5
23A
330
1F
100
AcDbEntity
  8
2
  6
Continuous
 62
     3
100
AcDbLine
 10
195.537590081651
 20
104.001817480107
 30
0.0
 11
195.47028669505
 21
103.973704996783
 31
0.0
  0
LINE
  5
23B
330
1F
100
AcDbEntity
  8
2
  6
Continuous
 62
     3
100
AcDbLine
 10
195.616276412054
 20
104.038312120447
 30
0.0
 11
195.537590081651
 21
104.001817480107
 31
0.0
  0
LINE
  5
23C
330
1F
100
AcDbEntity
  8
2
  6
Continuous
 62
     3
100
AcDbLine
 10
195.704012393877
 20
104.081822220385
 30
0.0
 11
195.616276412054
 21
104.038312120447
 31
0.0
  0
LINE
  5
23D
330
1F
100
AcDbEntity
  8
2
  6
Continuous
 62
     3
100
AcDbLine
 10
195.79846473474
 20
104.130981082502
 30
0.0
 11
195.704012393877
 21
104.081822220385
 31
0.0
  0
LINE
  5
23E
330
1F
100
AcDbEntity
  8
2
  6
Continuous
 62
     3
100
AcDbLine
 10
195.897300142262
 20
104.18442200938
 30
0.0
 11
195.79846473474
 21
104.130981082502
 31
0.0
  0
LINE
  5
23F
330
1F
100
AcDbEntity
  8
2
  6
Continuous
 62
     3
100
AcDbLine
 10
195.998185324061
 20
104.240778303601
 30
0.0
 11
195.897300142262
 21
104.18442200938
 31
0.0
  0
LINE
  5
240
330
1F
100
AcDbEntity
  8
2
  6
Continuous
 62
     3
100
AcDbLine
 10
196.098786987756
 20
104.298683267746
 30
0.0
 11
195.998185324061
 21
104.240778303601
 31
0.0
  0
LINE
  5
241
330
1F
100
AcDbEntity
  8
2
  6
Continuous
 62
     3
100
AcDbLine
 10
196.196771840967
 20
104.356770204398
 30
0.0
 11
196.098786987756
 21
104.298683267746
 31
0.0
  0
LINE
  5
242
330
1F
100
AcDbEntity
  8
2
  6
Continuous
 62
     3
100
AcDbLine
 10
196.265839193783
 20
104.397272112855
 30
0.0
 11
196.196771840967
 21
104.356770204398
 31
0.0
  0
LINE
  5
243
330
1F
100
AcDbEntity
  8
2
  6
Continuous
 62
     3
100
AcDbLine
 10
196.317579560644
 20
104.443121196994
 30
0.0
 11
196.265839193783
 21
104.397272112855
 31
0.0
  0
LINE
  5
244
330
1F
100
AcDbEntity
  8
2
  6
Continuous
 62
     3
100
AcDbLine
 10
196.34130887869
 20
104.490996863096
 30
0.0
 11
196.317579560644
 21
104.443121196994
 31
0.0
  0
LINE
  5
245
330
1F
100
AcDbEntity
  8
2
  6
Continuous
 62
     3
100
AcDbLine
 10
196.381880733575
 20
104.564787476694
 30
0.0
 11
196.34130887869
 21
104.490996863096
 31
0.0
  0
LINE
  5
246
330
1F
100
AcDbEntity
  8
2
  6
Continuous
 62
     3
100
AcDbLine
 10
196.425937034418
 20
104.648026883268
 30
0.0
 11
196.381880733575
 21
104.564787476694
 31
0.0
  0
LINE
  5
247
330
1F
100
AcDbEntity
  8
2
  6
Continuous
 62
     3
100
AcDbLine
 10
196.472567460043
 20
104.738584107989
 30
0.0
 11
196.425937034418
 21
104.648026883268
 31
0.0
  0
LINE
  5
248
330
1F
100
AcDbEntity
  8
2
  6
Continuous
 62
     3
100
AcDbLine
 10
196.520861689274
 20
104.834328176025
 30
0.0
 11
196.472567460043
 21
104.738584107989
 31
0.0
  0
LINE
  5
249
330
1F
100
AcDbEntity
  8
2
  6
Continuous
 62
     3
100
AcDbLine
 10
196.569909400937
 20
104.933128112547
 30
0.0
 11
196.520861689274
 21
104.834328176025
 31
0.0
  0
LINE
  5
24A
330
1F
100
AcDbEntity
  8
2
  6
Continuous
 62
     3
100
AcDbLine
 10
196.618800273856
 20
105.032852942724
 30
0.0
 11
196.569909400937
 21
104.933128112547
 31
0.0
  0
LINE
  5
24B
330
1F
100
AcDbEntity
  8
2
  6
Continuous
 62
     3
100
AcDbLine
 10
196.666623986855
 20
105.131371691725
 30
0.0
 11
196.618800273856
 21
105.032852942724
 31
0.0
  0
LINE
  5
24C
330
1F
100
AcDbEntity
  8
2
  6
Continuous
 62
     3
100
AcDbLine
 10
196.712470218758
 20
105.226553384722
 30
0.0
 11
196.666623986855
 21
105.131371691725
 31
0.0
  0
LINE
  5
24D
330
1F
100
AcDbEntity
  8
2
  6
Continuous
 62
     3
100
AcDbLine
 10
196.712470218758
 20
108.773446615279
 30
0.0
 11
196.712470218758
 21
105.226553384722
 31
0.0
  0
LINE
  5
24E
330
1F
100
AcDbEntity
  8
2
  6
Continuous
 62
     3
100
AcDbLine
 10
196.666623986855
 20
108.868628308275
 30
0.0
 11
196.712470218758
 21
108.773446615279
 31
0.0
  0
LINE
  5
24F
330
1F
100
AcDbEntity
  8
2
  6
Continuous
 62
     3
100
AcDbLine
 10
196.618800273856
 20
108.967147057277
 30
0.0
 11
196.666623986855
 21
108.868628308275
 31
0.0
  0
LINE
  5
250
330
1F
100
AcDbEntity
  8
2
  6
Continuous
 62
     3
100
AcDbLine
 10
196.569909400937
 20
109.066871887454
 30
0.0
 11
196.618800273856
 21
108.967147057277
 31
0.0
  0
LINE
  5
251
330
1F
100
AcDbEntity
  8
2
  6
Continuous
 62
     3
100
AcDbLine
 10
196.520861689274
 20
109.165671823975
 30
0.0
 11
196.569909400937
 21
109.066871887454
 31
0.0
  0
LINE
  5
252
330
1F
100
AcDbEntity
  8
2
  6
Continuous
 62
     3
100
AcDbLine
 10
196.472567460043
 20
109.261415892012
 30
0.0
 11
196.520861689274
 21
109.165671823975
 31
0.0
  0
LINE
  5
253
330
1F
100
AcDbEntity
  8
2
  6
Continuous
 62
     3
100
AcDbLine
 10
196.425937034418
 20
109.351973116732
 30
0.0
 11
196.472567460043
 21
109.261415892012
 31
0.0
  0
LINE
  5
254
330
1F
100
AcDbEntity
  8
2
  6
Continuous
 62
     3
100
AcDbLine
 10
196.381880733575
 20
109.435212523307
 30
0.0
 11
196.425937034418
 21
109.351973116732
 31
0.0
  0
LINE
  5
255
330
1F
100
AcDbEntity
  8
2
  6
Continuous
 62
     3
100
AcDbLine
 10
196.34130887869
 20
109.509003136905
 30
0.0
 11
196.381880733575
 21
109.435212523307
 31
0.0
  0
LINE
  5
256
330
1F
100
AcDbEntity
  8
2
  6
Continuous
 62
     3
100
AcDbLine
 10
196.317579560644
 20
109.556878803007
 30
0.0
 11
196.34130887869
 21
109.509003136905
 31
0.0
  0
LINE
  5
257
330
1F
100
AcDbEntity
  8
2
  6
Continuous
 62
     3
100
AcDbLine
 10
196.265839193783
 20
109.602727887145
 30
0.0
 11
196.317579560644
 21
109.556878803007
 31
0.0
  0
LINE
  5
258
330
1F
100
AcDbEntity
  8
2
  6
Continuous
 62
     3
100
AcDbLine
 10
196.196771840967
 20
109.643229795603
 30
0.0
 11
196.265839193783
 21
109.602727887145
 31
0.0
  0
LINE
  5
259
330
1F
100
AcDbEntity
  8
2
  6
Continuous
 62
     3
100
AcDbLine
 10
196.098786987756
 20
109.701316732254
 30
0.0
 11
196.196771840967
 21
109.643229795603
 31
0.0
  0
LINE
  5
25A
330
1F
100
AcDbEntity
  8
2
  6
Continuous
 62
     3
100
AcDbLine
 10
195.998185324061
 20
109.759221696399
 30
0.0
 11
196.098786987756
 21
109.701316732254
 31
0.0
  0
LINE
  5
25B
330
1F
100
AcDbEntity
  8
2
  6
Continuous
 62
     3
100
AcDbLine
 10
195.897300142262
 20
109.815577990621
 30
0.0
 11
195.998185324061
 21
109.759221696399
 31
0.0
  0
LINE
  5
25C
330
1F
100
AcDbEntity
  8
2
  6
Continuous
 62
     3
100
AcDbLine
 10
195.79846473474
 20
109.869018917499
 30
0.0
 11
195.897300142262
 21
109.815577990621
 31
0.0
  0
LINE
  5
25D
330
1F
100
AcDbEntity
  8
2
  6
Continuous
 62
     3
100
AcDbLine
 10
195.704012393877
 20
109.918177779616
 30
0.0
 11
195.79846473474
 21
109.869018917499
 31
0.0
  0
LINE
  5
25E
330
1F
100
AcDbEntity
  8
2
  6
Continuous
 62
     3
100
AcDbLine
 10
195.616276412054
 20
109.961687879554
 30
0.0
 11
195.704012393877
 21
109.918177779616
 31
0.0
  0
LINE
  5
25F
330
1F
100
AcDbEntity
  8
2
  6
Continuous
 62
     3
100
AcDbLine
 10
195.537590081651
 20
109.998182519894
 30
0.0
 11
195.616276412054
 21
109.961687879554
 31
0.0
  0
LINE
  5
260
330
1F
100
AcDbEntity
  8
2
  6
Continuous
 62
     3
100
AcDbLine
 10
195.47028669505
 20
110.026295003218
 30
0.0
 11
195.537590081651
 21
109.998182519894
 31
0.0
  0
LINE
  5
261
330
1F
100
AcDbEntity
  8
2
  6
Continuous
 62
     3
100
AcDbLine
 10
195.446457142171
 20
110.021858563987
 30
0.0
 11
195.47028669505
 21
110.026295003218
 31
0.0
  0
LINE
  5
262
330
1F
100
AcDbEntity
  8
2
  6
Continuous
 62
     3
100
AcDbLine
 10
195.41955810611
 20
110.017327766956
 30
0.0
 11
195.446457142171
 21
110.021858563987
 31
0.0
  0
LINE
  5
263
330
1F
100
AcDbEntity
  8
2
  6
Continuous
 62
     3
100
AcDbLine
 10
195.389924684652
 20
110.01291401443
 30
0.0
 11
195.41955810611
 21
110.017327766956
 31
0.0
  0
LINE
  5
264
330
1F
100
AcDbEntity
  8
2
  6
Continuous
 62
     3
100
AcDbLine
 10
195.357891975577
 20
110.008828708712
 30
0.0
 11
195.389924684652
 21
110.01291401443
 31
0.0
  0
LINE
  5
265
330
1F
100
AcDbEntity
  8
2
  6
Continuous
 62
     3
100
AcDbLine
 10
195.323795076668
 20
110.005283252106
 30
0.0
 11
195.357891975577
 21
110.008828708712
 31
0.0
  0
LINE
  5
266
330
1F
100
AcDbEntity
  8
2
  6
Continuous
 62
     3
100
AcDbLine
 10
195.287969085707
 20
110.002489046917
 30
0.0
 11
195.323795076668
 21
110.005283252106
 31
0.0
  0
LINE
  5
267
330
1F
100
AcDbEntity
  8
2
  6
Continuous
 62
     3
100
AcDbLine
 10
195.250749100476
 20
110.000657495447
 30
0.0
 11
195.287969085707
 21
110.002489046917
 31
0.0
  0
LINE
  5
268
330
1F
100
AcDbEntity
  8
2
  6
Continuous
 62
     3
100
AcDbLine
 10
195.212470218758
 20
110.0
 30
0.0
 11
195.250749100476
 21
110.000657495447
 31
0.0
  0
LINE
  5
269
330
1F
100
AcDbEntity
  8
2
  6
Continuous
 62
     3
100
AcDbLine
 10
195.174191337041
 20
110.000657495447
 30
0.0
 11
195.212470218758
 21
110.0
 31
0.0
  0
LINE
  5
26A
330
1F
100
AcDbEntity
  8
2
  6
Continuous
 62
     3
100
AcDbLine
 10
195.13697135181
 20
110.002489046917
 30
0.0
 11
195.174191337041
 21
110.000657495447
 31
0.0
  0
LINE
  5
26B
330
1F
100
AcDbEntity
  8
2
  6
Continuous
 62
     3
100
AcDbLine
 10
195.101145360849
 20
110.005283252106
 30
0.0
 11
195.13697135181
 21
110.002489046917
 31
0.0
  0
LINE
  5
26C
330
1F
100
AcDbEntity
  8
2
  6
Continuous
 62
     3
100
AcDbLine
 10
195.06704846194
 20
110.008828708712
 30
0.0
 11
195.101145360849
 21
110.005283252106
 31
0.0
  0
LINE
  5
26D
330
1F
100
AcDbEntity
  8
2
  6
Continuous
 62
     3
100
AcDbLine
 10
195.035015752865
 20
110.01291401443
 30
0.0
 11
195.06704846194
 21
110.008828708712
 31
0.0
  0
LINE
  5
26E
330
1F
100
AcDbEntity
  8
2
  6
Continuous
 62
     3
100
AcDbLine
 10
195.005382331406
 20
110.017327766956
 30
0.0
 11
195.035015752865
 21
110.01291401443
 31
0.0
  0
LINE
  5
26F
330
1F
100
AcDbEntity
  8
2
  6
Continuous
 62
     3
100
AcDbLine
 10
194.978483295346
 20
110.021858563987
 30
0.0
 11
195.005382331406
 21
110.017327766956
 31
0.0
  0
LINE
  5
270
330
1F
100
AcDbEntity
  8
2
  6
Continuous
 62
     3
100
AcDbLine
 10
194.954653742467
 20
110.026295003218
 30
0.0
 11
194.978483295346
 21
110.021858563987
 31
0.0
  0
LINE
  5
271
330
1F
100
AcDbEntity
  8
2
  6
Continuous
 62
     3
100
AcDbLine
 10
194.887350355866
 20
109.998182519894
 30
0.0
 11
194.954653742467
 21
110.026295003218
 31
0.0
  0
LINE
  5
272
330
1F
100
AcDbEntity
  8
2
  6
Continuous
 62
     3
100
AcDbLine
 10
194.808664025463
 20
109.961687879554
 30
0.0
 11
194.887350355866
 21
109.998182519894
 31
0.0
  0
LINE
  5
273
330
1F
100
AcDbEntity
  8
2
  6
Continuous
 62
     3
100
AcDbLine
 10
194.72092804364
 20
109.918177779616
 30
0.0
 11
194.808664025463
 21
109.961687879554
 31
0.0
  0
LINE
  5
274
330
1F
100
AcDbEntity
  8
2
  6
Continuous
 62
     3
100
AcDbLine
 10
194.626475702777
 20
109.869018917499
 30
0.0
 11
194.72092804364
 21
109.918177779616
 31
0.0
  0
LINE
  5
275
330
1F
100
AcDbEntity
  8
2
  6
Continuous
 62
     3
100
AcDbLine
 10
194.527640295255
 20
109.815577990621
 30
0.0
 11
194.626475702777
 21
109.869018917499
 31
0.0
  0
LINE
  5
276
330
1F
100
AcDbEntity
  8
2
  6
Continuous
 62
     3
100
AcDbLine
 10
194.426755113456
 20
109.759221696399
 30
0.0
 11
194.527640295255
 21
109.815577990621
 31
0.0
  0
LINE
  5
277
330
1F
100
AcDbEntity
  8
2
  6
Continuous
 62
     3
100
AcDbLine
 10
194.326153449761
 20
109.701316732254
 30
0.0
 11
194.426755113456
 21
109.759221696399
 31
0.0
  0
LINE
  5
278
330
1F
100
AcDbEntity
  8
2
  6
Continuous
 62
     3
100
AcDbLine
 10
194.22816859655
 20
109.643229795603
 30
0.0
 11
194.326153449761
 21
109.701316732254
 31
0.0
  0
LINE
  5
279
330
1F
100
AcDbEntity
  8
2
  6
Continuous
 62
     3
100
AcDbLine
 10
194.159101243734
 20
109.602727887145
 30
0.0
 11
194.22816859655
 21
109.643229795603
 31
0.0
  0
LINE
  5
27A
330
1F
100
AcDbEntity
  8
2
  6
Continuous
 62
     3
100
AcDbLine
 10
194.107360876872
 20
109.556878803007
 30
0.0
 11
194.159101243734
 21
109.602727887145
 31
0.0
  0
LINE
  5
27B
330
1F
100
AcDbEntity
  8
2
  6
Continuous
 62
     3
100
AcDbLine
 10
194.083631558827
 20
109.509003136905
 30
0.0
 11
194.107360876872
 21
109.556878803007
 31
0.0
  0
LINE
  5
27C
330
1F
100
AcDbEntity
  8
2
  6
Continuous
 62
     3
100
AcDbLine
 10
194.043059703942
 20
109.435212523307
 30
0.0
 11
194.083631558827
 21
109.509003136905
 31
0.0
  0
LINE
  5
27D
330
1F
100
AcDbEntity
  8
2
  6
Continuous
 62
     3
100
AcDbLine
 10
193.999003403099
 20
109.351973116732
 30
0.0
 11
194.043059703942
 21
109.435212523307
 31
0.0
  0
LINE
  5
27E
330
1F
100
AcDbEntity
  8
2
  6
Continuous
 62
     3
100
AcDbLine
 10
193.952372977474
 20
109.261415892012
 30
0.0
 11
193.999003403099
 21
109.351973116732
 31
0.0
  0
LINE
  5
27F
330
1F
100
AcDbEntity
  8
2
  6
Continuous
 62
     3
100
AcDbLine
 10
193.904078748242
 20
109.165671823975
 30
0.0
 11
193.952372977474
 21
109.261415892012
 31
0.0
  0
LINE
  5
280
330
1F
100
AcDbEntity
  8
2
  6
Continuous
 62
     3
100
AcDbLine
 10
193.855031036579
 20
109.066871887454
 30
0.0
 11
193.904078748242
 21
109.165671823975
 31
0.0
  0
LINE
  5
281
330
1F
100
AcDbEntity
  8
2
  6
Continuous
 62
     3
100
AcDbLine
 10
193.806140163661
 20
108.967147057277
 30
0.0
 11
193.855031036579
 21
109.066871887454
 31
0.0
  0
LINE
  5
282
330
1F
100
AcDbEntity
  8
2
  6
Continuous
 62
     3
100
AcDbLine
 10
193.758316450662
 20
108.868628308275
 30
0.0
 11
193.806140163661
 21
108.967147057277
 31
0.0
  0
LINE
  5
283
330
1F
100
AcDbEntity
  8
2
  6
Continuous
 62
     3
100
AcDbLine
 10
193.712470218758
 20
108.773446615278
 30
0.0
 11
193.758316450662
 21
108.868628308275
 31
0.0
  0
LINE
  5
284
330
1F
100
AcDbEntity
  8
2
  6
Continuous
 62
     3
100
AcDbLine
 10
193.712470218758
 20
105.226553384722
 30
0.0
 11
193.712470218758
 21
108.773446615278
 31
0.0
  0
LINE
  5
285
330
1F
100
AcDbEntity
  8
2
  6
Continuous
 62
     3
100
AcDbLine
 10
193.758316450662
 20
105.131371691726
 30
0.0
 11
193.712470218758
 21
105.226553384722
 31
0.0
  0
LINE
  5
286
330
1F
100
AcDbEntity
  8
2
  6
Continuous
 62
     3
100
AcDbLine
 10
193.806140163661
 20
105.032852942724
 30
0.0
 11
193.758316450662
 21
105.131371691726
 31
0.0
  0
LINE
  5
287
330
1F
100
AcDbEntity
  8
2
  6
Continuous
 62
     3
100
AcDbLine
 10
193.855031036579
 20
104.933128112547
 30
0.0
 11
193.806140163661
 21
105.032852942724
 31
0.0
  0
LINE
  5
288
330
1F
100
AcDbEntity
  8
2
  6
Continuous
 62
     3
100
AcDbLine
 10
193.904078748242
 20
104.834328176025
 30
0.0
 11
193.855031036579
 21
104.933128112547
 31
0.0
  0
LINE
  5
289
330
1F
100
AcDbEntity
  8
2
  6
Continuous
 62
     3
100
AcDbLine
 10
193.952372977474
 20
104.738584107989
 30
0.0
 11
193.904078748242
 21
104.834328176025
 31
0.0
  0
LINE
  5
28A
330
1F
100
AcDbEntity
  8
2
  6
Continuous
 62
     3
100
AcDbLine
 10
193.999003403099
 20
104.648026883268
 30
0.0
 11
193.952372977474
 21
104.738584107989
 31
0.0
  0
LINE
  5
28B
330
1F
100
AcDbEntity
  8
2
  6
Continuous
 62
     3
100
AcDbLine
 10
194.043059703942
 20
104.564787476694
 30
0.0
 11
193.999003403099
 21
104.648026883268
 31
0.0
  0
LINE
  5
28C
330
1F
100
AcDbEntity
  8
2
  6
Continuous
 62
     3
100
AcDbLine
 10
194.083631558827
 20
104.490996863096
 30
0.0
 11
194.043059703942
 21
104.564787476694
 31
0.0
  0
LINE
  5
28D
330
1F
100
AcDbEntity
  8
2
  6
Continuous
 62
     3
100
AcDbLine
 10
194.919276598041
 20
102.9626834317
 30
0.0
 11
194.712470218758
 21
103.0
 31
0.0
  0
LINE
  5
28E
330
1F
100
AcDbEntity
  8
2
  6
Continuous
 62
     3
100
AcDbLine
 10
195.113260461704
 20
102.984821207952
 30
0.0
 11
194.919276598041
 21
102.9626834317
 31
0.0
  0
LINE
  5
28F
330
1F
100
AcDbEntity
  8
2
  6
Continuous
 62
     3
100
AcDbLine
 10
195.212470218758
 20
103.0
 30
0.0
 11
195.113260461704
 21
102.984821207952
 31
0.0
  0
LINE
  5
290
330
1F
100
AcDbEntity
  8
2
  6
Continuous
 62
     3
100
AcDbLine
 10
195.311679975813
 20
102.984821207952
 30
0.0
 11
195.212470218758
 21
103.0
 31
0.0
  0
LINE
  5
291
330
1F
100
AcDbEntity
  8
2
  6
Continuous
 62
     3
100
AcDbLine
 10
195.505663839475
 20
102.9626834317
 30
0.0
 11
195.311679975813
 21
102.984821207952
 31
0.0
  0
LINE
  5
292
330
1F
100
AcDbEntity
  8
2
  6
Continuous
 62
     3
100
AcDbLine
 10
195.712470218758
 20
103.0
 30
0.0
 11
195.505663839475
 21
102.9626834317
 31
0.0
  0
LINE
  5
293
330
1F
100
AcDbEntity
  8
2
  6
Continuous
 62
     3
100
AcDbLine
 10
196.131473875266
 20
103.177613902803
 30
0.0
 11
195.712470218758
 21
103.0
 31
0.0
  0
LINE
  5
294
330
1F
100
AcDbEntity
  8
2
  6
Continuous
 62
     3
100
AcDbLine
 10
196.712470218758
 20
103.5
 30
0.0
 11
196.131473875266
 21
103.177613902803
 31
0.0
  0
LINE
  5
295
330
1F
100
AcDbEntity
  8
2
  6
Continuous
 62
     3
100
AcDbLine
 10
197.010840262008
 20
103.713652663581
 30
0.0
 11
196.712470218758
 21
103.5
 31
0.0
  0
LINE
  5
296
330
1F
100
AcDbEntity
  8
2
  6
Continuous
 62
     3
100
AcDbLine
 10
197.212470218758
 20
104.0
 30
0.0
 11
197.010840262008
 21
103.713652663581
 31
0.0
  0
LINE
  5
297
330
1F
100
AcDbEntity
  8
2
  6
Continuous
 62
     3
100
AcDbLine
 10
197.273654623239
 20
104.111864276961
 30
0.0
 11
197.212470218758
 21
104.0
 31
0.0
  0
LINE
  5
298
330
1F
100
AcDbEntity
  8
2
  6
Continuous
 62
     3
100
AcDbLine
 10
197.339681303664
 20
104.238051470588
 30
0.0
 11
197.273654623239
 21
104.111864276961
 31
0.0
  0
LINE
  5
299
330
1F
100
AcDbEntity
  8
2
  6
Continuous
 62
     3
100
AcDbLine
 10
197.408317064277
 20
104.373276654412
 30
0.0
 11
197.339681303664
 21
104.238051470588
 31
0.0
  0
LINE
  5
29A
330
1F
100
AcDbEntity
  8
2
  6
Continuous
 62
     3
100
AcDbLine
 10
197.477328709324
 20
104.512254901961
 30
0.0
 11
197.408317064277
 21
104.373276654412
 31
0.0
  0
LINE
  5
29B
330
1F
100
AcDbEntity
  8
2
  6
Continuous
 62
     3
100
AcDbLine
 10
197.544483043051
 20
104.649701286765
 30
0.0
 11
197.477328709324
 21
104.512254901961
 31
0.0
  0
LINE
  5
29C
330
1F
100
AcDbEntity
  8
2
  6
Continuous
 62
     3
100
AcDbLine
 10
197.607546869702
 20
104.780330882353
 30
0.0
 11
197.544483043051
 21
104.649701286765
 31
0.0
  0
LINE
  5
29D
330
1F
100
AcDbEntity
  8
2
  6
Continuous
 62
     3
100
AcDbLine
 10
197.664286993522
 20
104.898858762255
 30
0.0
 11
197.607546869702
 21
104.780330882353
 31
0.0
  0
LINE
  5
29E
330
1F
100
AcDbEntity
  8
2
  6
Continuous
 62
     3
100
AcDbLine
 10
197.712470218758
 20
105.0
 30
0.0
 11
197.664286993522
 21
104.898858762255
 31
0.0
  0
LINE
  5
29F
330
1F
100
AcDbEntity
  8
2
  6
Continuous
 62
     3
100
AcDbLine
 10
197.712470218758
 20
109.0
 30
0.0
 11
197.712470218758
 21
105.0
 31
0.0
  0
LINE
  5
2A0
330
1F
100
AcDbEntity
  8
2
  6
Continuous
 62
     3
100
AcDbLine
 10
197.664286993523
 20
109.101141237746
 30
0.0
 11
197.712470218758
 21
109.0
 31
0.0
  0
LINE
  5
2A1
330
1F
100
AcDbEntity
  8
2
  6
Continuous
 62
     3
100
AcDbLine
 10
197.607546869702
 20
109.219669117647
 30
0.0
 11
197.664286993523
 21
109.101141237746
 31
0.0
  0
LINE
  5
2A2
330
1F
100
AcDbEntity
  8
2
  6
Continuous
 62
     3
100
AcDbLine
 10
197.544483043051
 20
109.350298713236
 30
0.0
 11
197.607546869702
 21
109.219669117647
 31
0.0
  0
LINE
  5
2A3
330
1F
100
AcDbEntity
  8
2
  6
Continuous
 62
     3
100
AcDbLine
 10
197.477328709324
 20
109.48774509804
 30
0.0
 11
197.544483043051
 21
109.350298713236
 31
0.0
  0
LINE
  5
2A4
330
1F
100
AcDbEntity
  8
2
  6
Continuous
 62
     3
100
AcDbLine
 10
197.408317064277
 20
109.626723345588
 30
0.0
 11
197.477328709324
 21
109.48774509804
 31
0.0
  0
LINE
  5
2A5
330
1F
100
AcDbEntity
  8
2
  6
Continuous
 62
     3
100
AcDbLine
 10
197.339681303664
 20
109.761948529412
 30
0.0
 11
197.408317064277
 21
109.626723345588
 31
0.0
  0
LINE
  5
2A6
330
1F
100
AcDbEntity
  8
2
  6
Continuous
 62
     3
100
AcDbLine
 10
197.273654623239
 20
109.88813572304
 30
0.0
 11
197.339681303664
 21
109.761948529412
 31
0.0
  0
LINE
  5
2A7
330
1F
100
AcDbEntity
  8
2
  6
Continuous
 62
     3
100
AcDbLine
 10
197.212470218758
 20
110.0
 30
0.0
 11
197.273654623239
 21
109.88813572304
 31
0.0
  0
LINE
  5
2A8
330
1F
100
AcDbEntity
  8
2
  6
Continuous
 62
     3
100
AcDbLine
 10
197.010840262008
 20
110.28634733642
 30
0.0
 11
197.212470218758
 21
110.0
 31
0.0
  0
LINE
  5
2A9
330
1F
100
AcDbEntity
  8
2
  6
Continuous
 62
     3
100
AcDbLine
 10
196.712470218758
 20
110.5
 30
0.0
 11
197.010840262008
 21
110.28634733642
 31
0.0
  0
LINE
  5
2AA
330
1F
100
AcDbEntity
  8
2
  6
Continuous
 62
     3
100
AcDbLine
 10
196.131473875266
 20
110.822386097198
 30
0.0
 11
196.712470218758
 21
110.5
 31
0.0
  0
LINE
  5
2AB
330
1F
100
AcDbEntity
  8
2
  6
Continuous
 62
     3
100
AcDbLine
 10
195.712470218759
 20
111.0
 30
0.0
 11
196.131473875266
 21
110.822386097198
 31
0.0
  0
LINE
  5
2AC
330
1F
100
AcDbEntity
  8
2
  6
Continuous
 62
     3
100
AcDbLine
 10
195.505663839476
 20
111.0373165683
 30
0.0
 11
195.712470218759
 21
111.0
 31
0.0
  0
LINE
  5
2AD
330
1F
100
AcDbEntity
  8
2
  6
Continuous
 62
     3
100
AcDbLine
 10
195.311679975813
 20
111.015178792049
 30
0.0
 11
195.505663839476
 21
111.0373165683
 31
0.0
  0
LINE
  5
2AE
330
1F
100
AcDbEntity
  8
2
  6
Continuous
 62
     3
100
AcDbLine
 10
195.212470218758
 20
111.0
 30
0.0
 11
195.311679975813
 21
111.015178792049
 31
0.0
  0
LINE
  5
2AF
330
1F
100
AcDbEntity
  8
2
  6
Continuous
 62
     3
100
AcDbLine
 10
195.113260461704
 20
111.015178792049
 30
0.0
 11
195.212470218758
 21
111.0
 31
0.0
  0
LINE
  5
2B0
330
1F
100
AcDbEntity
  8
2
  6
Continuous
 62
     3
100
AcDbLine
 10
194.919276598041
 20
111.0373165683
 30
0.0
 11
195.113260461704
 21
111.015178792049
 31
0.0
  0
LINE
  5
2B1
330
1F
100
AcDbEntity
  8
2
  6
Continuous
 62
     3
100
AcDbLine
 10
194.712470218758
 20
111.0
 30
0.0
 11
194.919276598041
 21
111.0373165683
 31
0.0
  0
LINE
  5
2B2
330
1F
100
AcDbEntity
  8
2
  6
Continuous
 62
     3
100
AcDbLine
 10
194.293466562251
 20
110.822386097198
 30
0.0
 11
194.712470218758
 21
111.0
 31
0.0
  0
LINE
  5
2B3
330
1F
100
AcDbEntity
  8
2
  6
Continuous
 62
     3
100
AcDbLine
 10
193.712470218758
 20
110.5
 30
0.0
 11
194.293466562251
 21
110.822386097198
 31
0.0
  0
LINE
  5
2B4
330
1F
100
AcDbEntity
  8
2
  6
Continuous
 62
     3
100
AcDbLine
 10
193.414100175509
 20
110.286347336419
 30
0.0
 11
193.712470218758
 21
110.5
 31
0.0
  0
LINE
  5
2B5
330
1F
100
AcDbEntity
  8
2
  6
Continuous
 62
     3
100
AcDbLine
 10
193.212470218758
 20
110.0
 30
0.0
 11
193.414100175509
 21
110.286347336419
 31
0.0
  0
LINE
  5
2B6
330
1F
100
AcDbEntity
  8
2
  6
Continuous
 62
     3
100
AcDbLine
 10
193.151285814277
 20
109.888135723039
 30
0.0
 11
193.212470218758
 21
110.0
 31
0.0
  0
LINE
  5
2B7
330
1F
100
AcDbEntity
  8
2
  6
Continuous
 62
     3
100
AcDbLine
 10
193.085259133853
 20
109.761948529412
 30
0.0
 11
193.151285814277
 21
109.888135723039
 31
0.0
  0
LINE
  5
2B8
330
1F
100
AcDbEntity
  8
2
  6
Continuous
 62
     3
100
AcDbLine
 10
193.01662337324
 20
109.626723345588
 30
0.0
 11
193.085259133853
 21
109.761948529412
 31
0.0
  0
LINE
  5
2B9
330
1F
100
AcDbEntity
  8
2
  6
Continuous
 62
     3
100
AcDbLine
 10
192.947611728192
 20
109.487745098039
 30
0.0
 11
193.01662337324
 21
109.626723345588
 31
0.0
  0
LINE
  5
2BA
330
1F
100
AcDbEntity
  8
2
  6
Continuous
 62
     3
100
AcDbLine
 10
192.880457394466
 20
109.350298713236
 30
0.0
 11
192.947611728192
 21
109.487745098039
 31
0.0
  0
LINE
  5
2BB
330
1F
100
AcDbEntity
  8
2
  6
Continuous
 62
     3
100
AcDbLine
 10
192.817393567815
 20
109.219669117647
 30
0.0
 11
192.880457394466
 21
109.350298713236
 31
0.0
  0
LINE
  5
2BC
330
1F
100
AcDbEntity
  8
2
  6
Continuous
 62
     3
100
AcDbLine
 10
192.760653443994
 20
109.101141237745
 30
0.0
 11
192.817393567815
 21
109.219669117647
 31
0.0
  0
LINE
  5
2BD
330
1F
100
AcDbEntity
  8
2
  6
Continuous
 62
     3
100
AcDbLine
 10
192.712470218758
 20
109.0
 30
0.0
 11
192.760653443994
 21
109.101141237745
 31
0.0
  0
LINE
  5
2BE
330
1F
100
AcDbEntity
  8
2
  6
Continuous
 62
     3
100
AcDbLine
 10
192.712470218758
 20
105.0
 30
0.0
 11
192.712470218758
 21
109.0
 31
0.0
  0
LINE
  5
2BF
330
1F
100
AcDbEntity
  8
2
  6
Continuous
 62
     3
100
AcDbLine
 10
192.760653443994
 20
104.898858762255
 30
0.0
 11
192.712470218758
 21
105.0
 31
0.0
  0
LINE
  5
2C0
330
1F
100
AcDbEntity
  8
2
  6
Continuous
 62
     3
100
AcDbLine
 10
192.817393567815
 20
104.780330882353
 30
0.0
 11
192.760653443994
 21
104.898858762255
 31
0.0
  0
LINE
  5
2C1
330
1F
100
AcDbEntity
  8
2
  6
Continuous
 62
     3
100
AcDbLine
 10
192.880457394466
 20
104.649701286765
 30
0.0
 11
192.817393567815
 21
104.780330882353
 31
0.0
  0
LINE
  5
2C2
330
1F
100
AcDbEntity
  8
2
  6
Continuous
 62
     3
100
AcDbLine
 10
192.947611728192
 20
104.512254901961
 30
0.0
 11
192.880457394466
 21
104.649701286765
 31
0.0
  0
LINE
  5
2C3
330
1F
100
AcDbEntity
  8
2
  6
Continuous
 62
     3
100
AcDbLine
 10
193.01662337324
 20
104.373276654412
 30
0.0
 11
192.947611728192
 21
104.512254901961
 31
0.0
  0
LINE
  5
2C4
330
1F
100
AcDbEntity
  8
2
  6
Continuous
 62
     3
100
AcDbLine
 10
193.085259133853
 20
104.238051470589
 30
0.0
 11
193.01662337324
 21
104.373276654412
 31
0.0
  0
LINE
  5
2C5
330
1F
100
AcDbEntity
  8
2
  6
Continuous
 62
     3
100
AcDbLine
 10
193.151285814277
 20
104.111864276961
 30
0.0
 11
193.085259133853
 21
104.238051470589
 31
0.0
  0
LINE
  5
2C6
330
1F
100
AcDbEntity
  8
2
  6
Continuous
 62
     3
100
AcDbLine
 10
193.212470218758
 20
104.0
 30
0.0
 11
193.151285814277
 21
104.111864276961
 31
0.0
  0
LINE
  5
2C7
330
1F
100
AcDbEntity
  8
2
  6
Continuous
 62
     3
100
AcDbLine
 10
193.414100175509
 20
103.713652663581
 30
0.0
 11
193.212470218758
 21
104.0
 31
0.0
  0
LINE
  5
2C8
330
1F
100
AcDbEntity
  8
2
  6
Continuous
 62
     3
100
AcDbLine
 10
193.712470218758
 20
103.5
 30
0.0
 11
193.414100175509
 21
103.713652663581
 31
0.0
  0
LINE
  5
2C9
330
1F
100
AcDbEntity
  8
2
  6
Continuous
 62
     3
100
AcDbLine
 10
194.293466562251
 20
103.177613902803
 30
0.0
 11
193.712470218758
 21
103.5
 31
0.0
  0
LINE
  5
2CA
330
1F
100
AcDbEntity
  8
2
  6
Continuous
 62
     3
100
AcDbLine
 10
194.712470218758
 20
103.0
 30
0.0
 11
194.293466562251
 21
103.177613902803
 31
0.0
  0
LINE
  5
2CB
330
1F
100
AcDbEntity
  8
2
  6
Continuous
 62
     3
100
AcDbLine
 10
187.29670583929
 20
104.0
 30
0.0
 11
190.212470218758
 21
104.0
 31
0.0
  0
LINE
  5
2CC
330
1F
100
AcDbEntity
  8
2
  6
Continuous
 62
     3
100
AcDbLine
 10
187.324556730607
 20
104.064544202901
 30
0.0
 11
187.29670583929
 21
104.0
 31
0.0
  0
LINE
  5
2CD
330
1F
100
AcDbEntity
  8
2
  6
Continuous
 62
     3
100
AcDbLine
 10
187.350838360745
 20
104.122959512945
 30
0.0
 11
187.324556730607
 21
104.064544202901
 31
0.0
  0
LINE
  5
2CE
330
1F
100
AcDbEntity
  8
2
  6
Continuous
 62
     3
100
AcDbLine
 10
187.376181379882
 20
104.176195113474
 30
0.0
 11
187.350838360745
 21
104.122959512945
 31
0.0
  0
LINE
  5
2CF
330
1F
100
AcDbEntity
  8
2
  6
Continuous
 62
     3
100
AcDbLine
 10
187.401216438196
 20
104.225200187828
 30
0.0
 11
187.376181379882
 21
104.176195113474
 31
0.0
  0
LINE
  5
2D0
330
1F
100
AcDbEntity
  8
2
  6
Continuous
 62
     3
100
AcDbLine
 10
187.426574185866
 20
104.270923919349
 30
0.0
 11
187.401216438196
 21
104.225200187828
 31
0.0
  0
LINE
  5
2D1
330
1F
100
AcDbEntity
  8
2
  6
Continuous
 62
     3
100
AcDbLine
 10
187.452885273068
 20
104.314315491377
 30
0.0
 11
187.426574185866
 21
104.270923919349
 31
0.0
  0
LINE
  5
2D2
330
1F
100
AcDbEntity
  8
2
  6
Continuous
 62
     3
100
AcDbLine
 10
187.480780349981
 20
104.356324087253
 30
0.0
 11
187.452885273068
 21
104.314315491377
 31
0.0
  0
LINE
  5
2D3
330
1F
100
AcDbEntity
  8
2
  6
Continuous
 62
     3
100
AcDbLine
 10
187.510890066784
 20
104.397898890319
 30
0.0
 11
187.480780349981
 21
104.356324087253
 31
0.0
  0
LINE
  5
2D4
330
1F
100
AcDbEntity
  8
2
  6
Continuous
 62
     3
100
AcDbLine
 10
187.554550807289
 20
104.453188982074
 30
0.0
 11
187.510890066784
 21
104.397898890319
 31
0.0
  0
LINE
  5
2D5
330
1F
100
AcDbEntity
  8
2
  6
Continuous
 62
     3
100
AcDbLine
 10
187.604323350215
 20
104.511534805303
 30
0.0
 11
187.554550807289
 21
104.453188982074
 31
0.0
  0
LINE
  5
2D6
330
1F
100
AcDbEntity
  8
2
  6
Continuous
 62
     3
100
AcDbLine
 10
187.660555584992
 20
104.573643887104
 30
0.0
 11
187.604323350215
 21
104.511534805303
 31
0.0
  0
LINE
  5
2D7
330
1F
100
AcDbEntity
  8
2
  6
Continuous
 62
     3
100
AcDbLine
 10
187.723595401049
 20
104.640223754574
 30
0.0
 11
187.660555584992
 21
104.573643887104
 31
0.0
  0
LINE
  5
2D8
330
1F
100
AcDbEntity
  8
2
  6
Continuous
 62
     3
100
AcDbLine
 10
187.793790687816
 20
104.71198193481
 30
0.0
 11
187.723595401049
 21
104.640223754574
 31
0.0
  0
LINE
  5
2D9
330
1F
100
AcDbEntity
  8
2
  6
Continuous
 62
     3
100
AcDbLine
 10
187.871489334723
 20
104.78962595491
 30
0.0
 11
187.793790687816
 21
104.71198193481
 31
0.0
  0
LINE
  5
2DA
330
1F
100
AcDbEntity
  8
2
  6
Continuous
 62
     3
100
AcDbLine
 10
187.9570392312
 20
104.87386334197
 30
0.0
 11
187.871489334723
 21
104.78962595491
 31
0.0
  0
LINE
  5
2DB
330
1F
100
AcDbEntity
  8
2
  6
Continuous
 62
     3
100
AcDbLine
 10
188.050788266677
 20
104.965401623088
 30
0.0
 11
187.9570392312
 21
104.87386334197
 31
0.0
  0
LINE
  5
2DC
330
1F
100
AcDbEntity
  8
2
  6
Continuous
 62
     3
100
AcDbLine
 10
188.15506468924
 20
105.06810373971
 30
0.0
 11
188.050788266677
 21
104.965401623088
 31
0.0
  0
LINE
  5
2DD
330
1F
100
AcDbEntity
  8
2
  6
Continuous
 62
     3
100
AcDbLine
 10
188.263512259888
 20
105.177007625794
 30
0.0
 11
188.15506468924
 21
105.06810373971
 31
0.0
  0
LINE
  5
2DE
330
1F
100
AcDbEntity
  8
2
  6
Continuous
 62
     3
100
AcDbLine
 10
188.374334536918
 20
105.290183540932
 30
0.0
 11
188.263512259888
 21
105.177007625794
 31
0.0
  0
LINE
  5
2DF
330
1F
100
AcDbEntity
  8
2
  6
Continuous
 62
     3
100
AcDbLine
 10
188.485735078625
 20
105.405701744714
 30
0.0
 11
188.374334536918
 21
105.290183540932
 31
0.0
  0
LINE
  5
2E0
330
1F
100
AcDbEntity
  8
2
  6
Continuous
 62
     3
100
AcDbLine
 10
188.595917443306
 20
105.521632496731
 30
0.0
 11
188.485735078625
 21
105.405701744714
 31
0.0
  0
LINE
  5
2E1
330
1F
100
AcDbEntity
  8
2
  6
Continuous
 62
     3
100
AcDbLine
 10
188.703085189258
 20
105.636046056576
 30
0.0
 11
188.595917443306
 21
105.521632496731
 31
0.0
  0
LINE
  5
2E2
330
1F
100
AcDbEntity
  8
2
  6
Continuous
 62
     3
100
AcDbLine
 10
188.805441874776
 20
105.747012683839
 30
0.0
 11
188.703085189258
 21
105.636046056576
 31
0.0
  0
LINE
  5
2E3
330
1F
100
AcDbEntity
  8
2
  6
Continuous
 62
     3
100
AcDbLine
 10
188.901191058158
 20
105.852602638112
 30
0.0
 11
188.805441874776
 21
105.747012683839
 31
0.0
  0
LINE
  5
2E4
330
1F
100
AcDbEntity
  8
2
  6
Continuous
 62
     3
100
AcDbLine
 10
188.952118741436
 20
105.909252002523
 30
0.0
 11
188.901191058158
 21
105.852602638112
 31
0.0
  0
LINE
  5
2E5
330
1F
100
AcDbEntity
  8
2
  6
Continuous
 62
     3
100
AcDbLine
 10
189.000308350169
 20
105.962702138364
 30
0.0
 11
188.952118741436
 21
105.909252002523
 31
0.0
  0
LINE
  5
2E6
330
1F
100
AcDbEntity
  8
2
  6
Continuous
 62
     3
100
AcDbLine
 10
189.045897041732
 20
106.013034079471
 30
0.0
 11
189.000308350169
 21
105.962702138364
 31
0.0
  0
LINE
  5
2E7
330
1F
100
AcDbEntity
  8
2
  6
Continuous
 62
     3
100
AcDbLine
 10
189.089021973497
 20
106.060328859679
 30
0.0
 11
189.045897041732
 21
106.013034079471
 31
0.0
  0
LINE
  5
2E8
330
1F
100
AcDbEntity
  8
2
  6
Continuous
 62
     3
100
AcDbLine
 10
189.129820302837
 20
106.104667512824
 30
0.0
 11
189.089021973497
 21
106.060328859679
 31
0.0
  0
LINE
  5
2E9
330
1F
100
AcDbEntity
  8
2
  6
Continuous
 62
     3
100
AcDbLine
 10
189.168429187124
 20
106.146131072743
 30
0.0
 11
189.129820302837
 21
106.104667512824
 31
0.0
  0
LINE
  5
2EA
330
1F
100
AcDbEntity
  8
2
  6
Continuous
 62
     3
100
AcDbLine
 10
189.20498578373
 20
106.184800573272
 30
0.0
 11
189.168429187124
 21
106.146131072743
 31
0.0
  0
LINE
  5
2EB
330
1F
100
AcDbEntity
  8
2
  6
Continuous
 62
     3
100
AcDbLine
 10
189.23962725003
 20
106.220757048246
 30
0.0
 11
189.20498578373
 21
106.184800573272
 31
0.0
  0
LINE
  5
2EC
330
1F
100
AcDbEntity
  8
2
  6
Continuous
 62
     3
100
AcDbLine
 10
188.974685299347
 20
107.295337638126
 30
0.0
 11
189.273130390538
 21
107.43933982822
 31
0.0
  0
LINE
  5
2ED
330
1F
100
AcDbEntity
  8
2
  6
Continuous
 62
     3
100
AcDbLine
 10
188.686811867784
 20
107.076975052925
 30
0.0
 11
188.974685299347
 21
107.295337638126
 31
0.0
  0
LINE
  5
2EE
330
1F
100
AcDbEntity
  8
2
  6
Continuous
 62
     3
100
AcDbLine
 10
188.157224723184
 20
106.520819737883
 30
0.0
 11
188.686811867784
 21
107.076975052925
 31
0.0
  0
LINE
  5
2EF
330
1F
100
AcDbEntity
  8
2
  6
Continuous
 62
     3
100
AcDbLine
 10
187.722179880913
 20
106.048548310773
 30
0.0
 11
188.157224723184
 21
106.520819737883
 31
0.0
  0
LINE
  5
2F0
330
1F
100
AcDbEntity
  8
2
  6
Continuous
 62
     3
100
AcDbLine
 10
187.353028897122
 20
105.681733852015
 30
0.0
 11
187.722179880913
 21
106.048548310773
 31
0.0
  0
LINE
  5
2F1
330
1F
100
AcDbEntity
  8
2
  6
Continuous
 62
     3
100
AcDbLine
 10
186.712470218758
 20
105.0
 30
0.0
 11
187.353028897122
 21
105.681733852015
 31
0.0
  0
LINE
  5
2F2
330
1F
100
AcDbEntity
  8
2
  6
Continuous
 62
     3
100
AcDbLine
 10
186.510882563518
 20
104.68047743437
 30
0.0
 11
186.712470218758
 21
105.0
 31
0.0
  0
LINE
  5
2F3
330
1F
100
AcDbEntity
  8
2
  6
Continuous
 62
     3
100
AcDbLine
 10
186.31420689671
 20
104.241911134105
 30
0.0
 11
186.510882563518
 21
104.68047743437
 31
0.0
  0
LINE
  5
2F4
330
1F
100
AcDbEntity
  8
2
  6
Continuous
 62
     3
100
AcDbLine
 10
186.212470218758
 20
104.0
 30
0.0
 11
186.31420689671
 21
104.241911134105
 31
0.0
  0
LINE
  5
2F5
330
1F
100
AcDbEntity
  8
2
  6
Continuous
 62
     3
100
AcDbLine
 10
186.1496660501
 20
103.860775540115
 30
0.0
 11
186.212470218758
 21
104.0
 31
0.0
  0
LINE
  5
2F6
330
1F
100
AcDbEntity
  8
2
  6
Continuous
 62
     3
100
AcDbLine
 10
186.082734826044
 20
103.719309283297
 30
0.0
 11
186.1496660501
 21
103.860775540115
 31
0.0
  0
LINE
  5
2F7
330
1F
100
AcDbEntity
  8
2
  6
Continuous
 62
     3
100
AcDbLine
 10
186.013783526954
 20
103.578754193709
 30
0.0
 11
186.082734826044
 21
103.719309283297
 31
0.0
  0
LINE
  5
2F8
330
1F
100
AcDbEntity
  8
2
  6
Continuous
 62
     3
100
AcDbLine
 10
185.944919133196
 20
103.442263235516
 30
0.0
 11
186.013783526954
 21
103.578754193709
 31
0.0
  0
LINE
  5
2F9
330
1F
100
AcDbEntity
  8
2
  6
Continuous
 62
     3
100
AcDbLine
 10
185.878248625133
 20
103.312989372884
 30
0.0
 11
185.944919133196
 21
103.442263235516
 31
0.0
  0
LINE
  5
2FA
330
1F
100
AcDbEntity
  8
2
  6
Continuous
 62
     3
100
AcDbLine
 10
185.81587898313
 20
103.194085569978
 30
0.0
 11
185.878248625133
 21
103.312989372884
 31
0.0
  0
LINE
  5
2FB
330
1F
100
AcDbEntity
  8
2
  6
Continuous
 62
     3
100
AcDbLine
 10
185.75991718755
 20
103.088704790962
 30
0.0
 11
185.81587898313
 21
103.194085569978
 31
0.0
  0
LINE
  5
2FC
330
1F
100
AcDbEntity
  8
2
  6
Continuous
 62
     3
100
AcDbLine
 10
185.712470218758
 20
103.0
 30
0.0
 11
185.75991718755
 21
103.088704790962
 31
0.0
  0
LINE
  5
2FD
330
1F
100
AcDbEntity
  8
2
  6
Continuous
 62
     3
100
AcDbLine
 10
190.212470218758
 20
103.0
 30
0.0
 11
185.712470218758
 21
103.0
 31
0.0
  0
LINE
  5
2FE
330
1F
100
AcDbEntity
  8
2
  6
DOT_CENTER
 62
     1
100
AcDbLine
 10
192.0
 20
74.0606897707941
 30
0.0
 11
192.0
 21
211.0
 31
0.0
  0
LINE
  5
2FF
330
1F
100
AcDbEntity
  8
2
  6
Continuous
 62
     3
100
AcDbLine
 10
211.0
 20
130.0
 30
0.0
 11
172.999999999998
 21
129.999999999998
 31
0.0
  0
LINE
  5
300
330
1F
100
AcDbEntity
  8
2
  6
Continuous
 62
     3
100
AcDbLine
 10
211.0
 20
119.26136261574
 30
0.0
 11
211.0
 21
130.0
 31
0.0
  0
LINE
  5
301
330
1F
100
AcDbEntity
  8
2
  6
Continuous
 62
     3
100
AcDbLine
 10
217.67867965644
 20
87.2500000000003
 30
0.0
 11
216.88850136107
 21
87.25
 31
0.0
  0
LINE
  5
302
330
1F
100
AcDbEntity
  8
2
  6
Continuous
 62
     3
100
AcDbLine
 10
220.0
 20
85.55
 30
0.0
 11
218.73933982822
 21
86.81066017178
 31
0.0
  0
LINE
  5
303
330
1F
100
AcDbEntity
  8
2
  6
Continuous
 62
     3
100
AcDbLine
 10
220.0
 20
118.45
 30
0.0
 11
218.73933982822
 21
117.18933982822
 31
0.0
  0
LINE
  5
304
330
1F
100
AcDbEntity
  8
2
  6
Continuous
 62
     3
100
AcDbLine
 10
217.67867965644
 20
116.75
 30
0.0
 11
216.88850136107
 21
116.75
 31
0.0
  0
LINE
  5
305
330
1F
100
AcDbEntity
  8
2
  6
Continuous
 62
     3
100
AcDbLine
 10
173.000000000001
 20
119.26136261574
 30
0.0
 11
172.999999999998
 21
129.999999999998
 31
0.0
  0
LINE
  5
306
330
1F
100
AcDbEntity
  8
2
  6
Continuous
 62
     3
100
AcDbLine
 10
166.32132034356
 20
87.25
 30
0.0
 11
167.11149863893
 21
87.2499999999999
 31
0.0
  0
LINE
  5
307
330
1F
100
AcDbEntity
  8
2
  6
Continuous
 62
     3
100
AcDbLine
 10
152.0
 20
86.65
 30
0.0
 11
165.1
 21
86.65
 31
0.0
  0
LINE
  5
308
330
1F
100
AcDbEntity
  8
2
  6
Continuous
 62
     3
100
AcDbLine
 10
152.0
 20
85.55
 30
0.0
 11
164.0
 21
85.55
 31
0.0
  0
LINE
  5
309
330
1F
100
AcDbEntity
  8
2
  6
Continuous
 62
     3
100
AcDbLine
 10
164.0
 20
85.55
 30
0.0
 11
165.26066017178
 21
86.8106601717798
 31
0.0
  0
LINE
  5
30A
330
1F
100
AcDbEntity
  8
2
  6
Continuous
 62
     3
100
AcDbLine
 10
166.32132034356
 20
116.75
 30
0.0
 11
167.11149863893
 21
116.75
 31
0.0
  0
LINE
  5
30B
330
1F
100
AcDbEntity
  8
2
  6
Continuous
 62
     3
100
AcDbLine
 10
164.0
 20
118.45
 30
0.0
 11
165.26066017178
 21
117.18933982822
 31
0.0
  0
LINE
  5
30C
330
1F
100
AcDbEntity
  8
2
  6
Continuous
 62
     3
100
AcDbLine
 10
152.0
 20
117.35
 30
0.0
 11
165.1
 21
117.35
 31
0.0
  0
LINE
  5
30D
330
1F
100
AcDbEntity
  8
2
  6
Continuous
 62
     3
100
AcDbLine
 10
152.0
 20
118.45
 30
0.0
 11
164.0
 21
118.45
 31
0.0
  0
LINE
  5
30E
330
1F
100
AcDbEntity
  8
2
  6
Continuous
 62
     3
100
AcDbLine
 10
152.0
 20
85.55
 30
0.0
 11
152.0
 21
118.45
 31
0.0
  0
LINE
  5
30F
330
1F
100
AcDbEntity
  8
2
  6
DOT_CENTER
 62
     1
100
AcDbLine
 10
146.0
 20
102.0
 30
0.0
 11
295.2
 21
102.0
 31
0.0
  0
LINE
  5
310
330
1F
100
AcDbEntity
  8
3
  6
Continuous
 62
     3
100
AcDbLine
 10
377.643175743726
 20
195.976991029251
 30
0.0
 11
377.643175743725
 21
189.5
 31
0.0
  0
LINE
  5
311
330
1F
100
AcDbEntity
  8
2
  6
Continuous
 62
     3
100
AcDbLine
 10
268.697011552062
 20
294.0
 30
0.0
 11
287.302988447935
 21
293.999999999993
 31
0.0
  0
LINE
  5
312
330
1F
100
AcDbEntity
  8
2
  6
Continuous
 62
     3
100
AcDbLine
 10
267.2
 20
275.0
 30
0.0
 11
289.2
 21
275.0
 31
0.0
  0
LINE
  5
313
330
1F
100
AcDbEntity
  8
3
  6
Continuous
 62
     3
100
AcDbLine
 10
289.2
 20
313.0
 30
0.0
 11
289.2
 21
275.0
 31
0.0
  0
LINE
  5
314
330
1F
100
AcDbEntity
  8
3
  6
Continuous
 62
     3
100
AcDbLine
 10
267.0
 20
281.35
 30
0.0
 11
265.85
 21
282.5
 31
0.0
  0
LINE
  5
315
330
1F
100
AcDbEntity
  8
3
  6
Continuous
 62
     3
100
AcDbLine
 10
267.0
 20
306.65
 30
0.0
 11
265.85
 21
305.5
 31
0.0
  0
LINE
  5
316
330
1F
100
AcDbEntity
  8
2
  6
Continuous
 62
     3
100
AcDbLine
 10
265.85
 20
305.5
 30
0.0
 11
265.85
 21
282.5
 31
0.0
  0
LINE
  5
317
330
1F
100
AcDbEntity
  8
2
  6
Continuous
 62
     3
100
AcDbLine
 10
289.2
 20
313.0
 30
0.0
 11
267.2
 21
313.0
 31
0.0
  0
LINE
  5
318
330
1F
100
AcDbEntity
  8
3
  6
Continuous
 62
     3
100
AcDbLine
 10
267.2
 20
313.0
 30
0.0
 11
267.2
 21
275.0
 31
0.0
  0
LINE
  5
319
330
1F
100
AcDbEntity
  8
1
  6
Continuous
 62
     4
100
AcDbLine
 10
289.2
 20
102.0
 30
0.0
 11
291.30688341467
 21
93.990253715669
 31
0.0
  0
LINE
  5
31A
330
1F
100
AcDbEntity
  8
1
  6
Continuous
 62
     4
100
AcDbLine
 10
289.2
 20
102.0
 30
0.0
 11
295.029487702082
 21
96.1167979472365
 31
0.0
  0
LINE
  5
31B
330
1F
100
AcDbEntity
  8
1
  6
Continuous
 62
     4
100
AcDbLine
 10
226.215490949426
 20
118.45
 30
0.0
 11
231.934578298669
 21
124.440578699433
 31
0.0
  0
LINE
  5
31C
330
1F
100
AcDbEntity
  8
1
  6
Continuous
 62
     4
100
AcDbLine
 10
226.215490949426
 20
118.45
 30
0.0
 11
228.173076530617
 21
126.4975370117
 31
0.0
  0
LINE
  5
31D
330
1F
100
AcDbEntity
  8
2
  6
Continuous
 62
     3
100
AcDbLine
 10
220.0
 20
118.45
 30
0.0
 11
218.73933982822
 21
117.18933982822
 31
0.0
  0
LINE
  5
31E
330
1F
100
AcDbEntity
  8
2
  6
Continuous
 62
     3
100
AcDbLine
 10
220.0
 20
85.55
 30
0.0
 11
218.73933982822
 21
86.81066017178
 31
0.0
  0
LINE
  5
31F
330
1F
100
AcDbEntity
  8
2
  6
Continuous
 62
     3
100
AcDbLine
 10
220.0
 20
85.55
 30
0.0
 11
220.0
 21
118.45
 31
0.0
  0
LINE
  5
320
330
1F
100
AcDbEntity
  8
2
  6
Continuous
 62
     3
100
AcDbLine
 10
222.884511552054
 20
91.0303448853949
 30
0.0
 11
241.490488447935
 21
91.0303448853992
 31
0.0
  0
LINE
  5
321
330
1F
100
AcDbEntity
  8
2
  6
Continuous
 62
     3
100
AcDbLine
 10
222.88451155206
 20
112.969655114607
 30
0.0
 11
241.490488447935
 21
112.9696551146
 31
0.0
  0
LINE
  5
322
330
1F
100
AcDbEntity
  8
2
  6
Continuous
 62
     3
100
AcDbLine
 10
268.697011552054
 20
91.030344885395
 30
0.0
 11
287.302988447935
 21
91.0303448853992
 31
0.0
  0
LINE
  5
323
330
1F
100
AcDbEntity
  8
2
  6
Continuous
 62
     3
100
AcDbLine
 10
268.697011552062
 20
112.969655114604
 30
0.0
 11
287.302988447935
 21
112.9696551146
 31
0.0
  0
LINE
  5
324
330
1F
100
AcDbEntity
  8
2
  6
Continuous
 62
     3
100
AcDbLine
 10
265.85
 20
113.5
 30
0.0
 11
265.85
 21
90.5
 31
0.0
  0
LINE
  5
325
330
1F
100
AcDbEntity
  8
3
  6
Continuous
 62
     3
100
AcDbLine
 10
267.0
 20
114.65
 30
0.0
 11
265.85
 21
113.5
 31
0.0
  0
LINE
  5
326
330
1F
100
AcDbEntity
  8
3
  6
Continuous
 62
     3
100
AcDbLine
 10
267.0
 20
89.35
 30
0.0
 11
265.85
 21
90.5
 31
0.0
  0
LINE
  5
327
330
1F
100
AcDbEntity
  8
3
  6
Continuous
 62
     3
100
AcDbLine
 10
244.1875
 20
90.3
 30
0.0
 11
244.1875
 21
113.7
 31
0.0
  0
LINE
  5
328
330
1F
100
AcDbEntity
  8
3
  6
Continuous
 62
     3
100
AcDbLine
 10
244.1875
 20
90.3
 30
0.0
 11
243.1875
 21
89.575
 31
0.0
  0
LINE
  5
329
330
1F
100
AcDbEntity
  8
3
  6
Continuous
 62
     3
100
AcDbLine
 10
244.1875
 20
113.7
 30
0.0
 11
243.1875
 21
114.425
 31
0.0
  0
LINE
  5
32A
330
1F
100
AcDbEntity
  8
3
  6
Continuous
 62
     3
100
AcDbLine
 10
265.85
 20
90.5
 30
0.0
 11
244.1875
 21
90.5
 31
0.0
  0
LINE
  5
32B
330
1F
100
AcDbEntity
  8
3
  6
Continuous
 62
     3
100
AcDbLine
 10
265.85
 20
113.5
 30
0.0
 11
244.1875
 21
113.5
 31
0.0
  0
LINE
  5
32C
330
1F
100
AcDbEntity
  8
3
  6
Continuous
 62
     3
100
AcDbLine
 10
267.2
 20
89.15
 30
0.0
 11
267.0
 21
89.35
 31
0.0
  0
LINE
  5
32D
330
1F
100
AcDbEntity
  8
3
  6
Continuous
 62
     3
100
AcDbLine
 10
267.2
 20
114.85
 30
0.0
 11
267.0
 21
114.65
 31
0.0
  0
LINE
  5
32E
330
1F
100
AcDbEntity
  8
3
  6
Continuous
 62
     3
100
AcDbLine
 10
241.490488447936
 20
123.939310229206
 30
0.0
 11
243.1875
 21
121.0
 31
0.0
  0
LINE
  5
32F
330
1F
100
AcDbEntity
  8
3
  6
Continuous
 62
     3
100
AcDbLine
 10
222.884511552064
 20
123.939310229206
 30
0.0
 11
241.490488447936
 21
123.939310229206
 31
0.0
  0
LINE
  5
330
330
1F
100
AcDbEntity
  8
3
  6
Continuous
 62
     3
100
AcDbLine
 10
221.1875
 20
121.0
 30
0.0
 11
222.884511552064
 21
123.939310229206
 31
0.0
  0
LINE
  5
331
330
1F
100
AcDbEntity
  8
3
  6
Continuous
 62
     3
100
AcDbLine
 10
221.1875
 20
121.0
 30
0.0
 11
221.1875
 21
83.0
 31
0.0
  0
LINE
  5
332
330
1F
100
AcDbEntity
  8
3
  6
Continuous
 62
     3
100
AcDbLine
 10
222.884511552064
 20
80.0606897707942
 30
0.0
 11
221.1875
 21
83.0
 31
0.0
  0
LINE
  5
333
330
1F
100
AcDbEntity
  8
3
  6
Continuous
 62
     3
100
AcDbLine
 10
243.1875
 20
83.0
 30
0.0
 11
241.490488447936
 21
80.0606897707942
 31
0.0
  0
LINE
  5
334
330
1F
100
AcDbEntity
  8
3
  6
Continuous
 62
     3
100
AcDbLine
 10
241.490488447936
 20
80.0606897707942
 30
0.0
 11
222.884511552064
 21
80.0606897707942
 31
0.0
  0
LINE
  5
335
330
1F
100
AcDbEntity
  8
3
  6
Continuous
 62
     3
100
AcDbLine
 10
243.1875
 20
121.0
 30
0.0
 11
243.1875
 21
83.0
 31
0.0
  0
LINE
  5
336
330
1F
100
AcDbEntity
  8
3
  6
Continuous
 62
     3
100
AcDbLine
 10
268.897011552064
 20
123.939310229206
 30
0.0
 11
267.2
 21
121.0
 31
0.0
  0
LINE
  5
337
330
1F
100
AcDbEntity
  8
3
  6
Continuous
 62
     3
100
AcDbLine
 10
267.2
 20
83.0
 30
0.0
 11
268.897011552064
 21
80.0606897707942
 31
0.0
  0
LINE
  5
338
330
1F
100
AcDbEntity
  8
3
  6
Continuous
 62
     3
100
AcDbLine
 10
267.2
 20
121.0
 30
0.0
 11
267.2
 21
83.0
 31
0.0
  0
LINE
  5
339
330
1F
100
AcDbEntity
  8
3
  6
Continuous
 62
     3
100
AcDbLine
 10
289.2
 20
121.0
 30
0.0
 11
287.502988447936
 21
123.939310229206
 31
0.0
  0
LINE
  5
33A
330
1F
100
AcDbEntity
  8
3
  6
Continuous
 62
     3
100
AcDbLine
 10
287.502988447936
 20
123.939310229206
 30
0.0
 11
268.897011552064
 21
123.939310229206
 31
0.0
  0
LINE
  5
33B
330
1F
100
AcDbEntity
  8
3
  6
Continuous
 62
     3
100
AcDbLine
 10
287.502988447936
 20
80.0606897707942
 30
0.0
 11
289.2
 21
83.0
 31
0.0
  0
LINE
  5
33C
330
1F
100
AcDbEntity
  8
3
  6
Continuous
 62
     3
100
AcDbLine
 10
268.897011552064
 20
80.0606897707942
 30
0.0
 11
287.502988447936
 21
80.0606897707942
 31
0.0
  0
LINE
  5
33D
330
1F
100
AcDbEntity
  8
3
  6
Continuous
 62
     3
100
AcDbLine
 10
289.2
 20
121.0
 30
0.0
 11
289.2
 21
83.0
 31
0.0
  0
LINE
  5
33E
330
1F
100
AcDbEntity
  8
2
  6
Continuous
 62
     3
100
AcDbLine
 10
221.187501034502
 20
118.45
 30
0.0
 11
220.0
 21
118.45
 31
0.0
  0
LINE
  5
33F
330
1F
100
AcDbEntity
  8
2
  6
Continuous
 62
     3
100
AcDbLine
 10
221.1875
 20
117.35
 30
0.0
 11
218.9
 21
117.35
 31
0.0
  0
LINE
  5
340
330
1F
100
AcDbEntity
  8
2
  6
Continuous
 62
     3
100
AcDbLine
 10
221.1875
 20
86.65
 30
0.0
 11
218.9
 21
86.65
 31
0.0
  0
LINE
  5
341
330
1F
100
AcDbEntity
  8
2
  6
Continuous
 62
     3
100
AcDbLine
 10
221.1875
 20
85.55
 30
0.0
 11
220.0
 21
85.55
 31
0.0
  0
LINE
  5
342
330
1F
100
AcDbEntity
  8
1
  6
DOTTED
 62
     4
100
AcDbLine
 10
221.187501034502
 20
118.45
 30
0.0
 11
232.0
 21
118.45
 31
0.0
  0
LINE
  5
343
330
1F
100
AcDbEntity
  8
1
  6
DOTTED
 62
     4
100
AcDbLine
 10
221.1875
 20
117.35
 30
0.0
 11
232.0
 21
117.35
 31
0.0
  0
LINE
  5
344
330
1F
100
AcDbEntity
  8
1
  6
DOTTED
 62
     4
100
AcDbLine
 10
221.1875
 20
86.65
 30
0.0
 11
232.0
 21
86.65
 31
0.0
  0
LINE
  5
345
330
1F
100
AcDbEntity
  8
1
  6
DOTTED
 62
     4
100
AcDbLine
 10
221.1875
 20
85.55
 30
0.0
 11
232.0
 21
85.55
 31
0.0
  0
LINE
  5
346
330
1F
100
AcDbEntity
  8
1
  6
DOTTED
 62
     4
100
AcDbLine
 10
232.0
 20
118.45
 30
0.0
 11
232.0
 21
85.55
 31
0.0
  0
LINE
  5
347
330
1F
100
AcDbEntity
  8
2
  6
DOTTED
 62
     4
100
AcDbLine
 10
275.2
 20
87.0
 30
0.0
 11
275.2
 21
117.0
 31
0.0
  0
LINE
  5
348
330
1F
100
AcDbEntity
  8
2
  6
DOTTED
 62
     4
100
AcDbLine
 10
275.2
 20
87.0
 30
0.0
 11
271.2
 21
87.0
 31
0.0
  0
LINE
  5
349
330
1F
100
AcDbEntity
  8
2
  6
DOTTED
 62
     4
100
AcDbLine
 10
271.2
 20
88.85
 30
0.0
 11
267.2
 21
88.85
 31
0.0
  0
LINE
  5
34A
330
1F
100
AcDbEntity
  8
2
  6
DOTTED
 62
     4
100
AcDbLine
 10
271.2
 20
87.0
 30
0.0
 11
271.2
 21
88.85
 31
0.0
  0
LINE
  5
34B
330
1F
100
AcDbEntity
  8
2
  6
DOTTED
 62
     4
100
AcDbLine
 10
275.2
 20
117.0
 30
0.0
 11
271.2
 21
117.0
 31
0.0
  0
LINE
  5
34C
330
1F
100
AcDbEntity
  8
2
  6
DOTTED
 62
     4
100
AcDbLine
 10
271.2
 20
115.15
 30
0.0
 11
271.2
 21
117.0
 31
0.0
  0
LINE
  5
34D
330
1F
100
AcDbEntity
  8
2
  6
DOTTED
 62
     4
100
AcDbLine
 10
271.2
 20
115.15
 30
0.0
 11
267.2
 21
115.15
 31
0.0
  0
LINE
  5
34E
330
1F
100
AcDbEntity
  8
2
  6
DOTTED
 62
     6
100
AcDbLine
 10
257.0
 20
115.15
 30
0.0
 11
253.0
 21
115.15
 31
0.0
  0
LINE
  5
34F
330
1F
100
AcDbEntity
  8
2
  6
DOTTED
 62
     6
100
AcDbLine
 10
257.0
 20
115.15
 30
0.0
 11
257.0
 21
117.0
 31
0.0
  0
LINE
  5
350
330
1F
100
AcDbEntity
  8
2
  6
DOTTED
 62
     6
100
AcDbLine
 10
261.0
 20
117.0
 30
0.0
 11
257.0
 21
117.0
 31
0.0
  0
LINE
  5
351
330
1F
100
AcDbEntity
  8
2
  6
DOTTED
 62
     6
100
AcDbLine
 10
257.0
 20
87.0
 30
0.0
 11
257.0
 21
88.85
 31
0.0
  0
LINE
  5
352
330
1F
100
AcDbEntity
  8
2
  6
DOTTED
 62
     6
100
AcDbLine
 10
257.0
 20
88.85
 30
0.0
 11
253.0
 21
88.85
 31
0.0
  0
LINE
  5
353
330
1F
100
AcDbEntity
  8
2
  6
DOTTED
 62
     6
100
AcDbLine
 10
261.0
 20
87.0
 30
0.0
 11
257.0
 21
87.0
 31
0.0
  0
LINE
  5
354
330
1F
100
AcDbEntity
  8
2
  6
DOTTED
 62
     6
100
AcDbLine
 10
261.0
 20
87.0
 30
0.0
 11
261.0
 21
117.0
 31
0.0
  0
LINE
  5
355
330
1F
100
AcDbEntity
  8
1
  6
Continuous
 62
     4
100
AcDbLine
 10
157.893527741557
 20
85.55
 30
0.0
 11
152.037121281006
 21
79.693593539449
 31
0.0
  0
LINE
  5
356
330
1F
100
AcDbEntity
  8
1
  6
Continuous
 62
     4
100
AcDbLine
 10
157.893527741557
 20
85.55
 30
0.0
 11
155.749934202108
 21
77.55
 31
0.0
  0
ARC
  5
357
330
1F
100
AcDbEntity
  8
2
  6
Continuous
 62
     3
100
AcDbCircle
 10
48.0
 20
102.0
 30
0.0
 40
19.0
100
AcDbArc
 50
180.0
 51
0.0
  0
ARC
  5
358
330
1F
100
AcDbEntity
  8
2
  6
Continuous
 62
     3
100
AcDbCircle
 10
29.5
 20
133.77029414592
 30
0.0
 40
1.499999999999964
100
AcDbArc
 50
101.3099324740877
 51
180.0
  0
ARC
  5
359
330
1F
100
AcDbEntity
  8
2
  6
Continuous
 62
     3
100
AcDbCircle
 10
66.5
 20
133.77029414592
 30
0.0
 40
1.5
100
AcDbArc
 50
0.0
 51
78.69006752590485
  0
ARC
  5
35A
330
1F
100
AcDbEntity
  8
2
  6
Continuous
 62
     3
100
AcDbCircle
 10
63.9999999999999
 20
132.64575131106
 30
0.0
 40
3.999999999997036
100
AcDbArc
 50
318.5903778907795
 51
0.0
  0
ARC
  5
35B
330
1F
100
AcDbEntity
  8
2
  6
Continuous
 62
     3
100
AcDbCircle
 10
32.0
 20
132.64575131106
 30
0.0
 40
4.0
100
AcDbArc
 50
180.0
 51
221.4096221092211
  0
ARC
  5
35C
330
1F
100
AcDbEntity
  8
2
  6
Continuous
 62
     3
100
AcDbCircle
 10
55.5000000000016
 20
75.1669965506771
 30
0.0
 40
60.8330034493217
100
AcDbArc
 50
82.91807970945352
 51
97.08192029054527
  0
ARC
  5
35D
330
1F
100
AcDbEntity
  8
2
  6
Continuous
 62
     3
100
AcDbCircle
 10
40.5
 20
75.1669965505528
 30
0.0
 40
60.83300344944581
100
AcDbArc
 50
82.91807970946226
 51
97.08192029053663
  0
ARC
  5
35E
330
1F
100
AcDbEntity
  8
2
  6
Continuous
 62
     3
100
AcDbCircle
 10
35.5
 20
183.95
 30
0.0
 40
2.5
100
AcDbArc
 50
90.0
 51
180.0
  0
ARC
  5
35F
330
1F
100
AcDbEntity
  8
2
  6
Continuous
 62
     3
100
AcDbCircle
 10
60.5
 20
183.95
 30
0.0
 40
2.5
100
AcDbArc
 50
0.0
 51
90.0
  0
ARC
  5
360
330
1F
100
AcDbEntity
  8
3
  6
Continuous
 62
     3
100
AcDbCircle
 10
48.5287199774544
 20
136.051691078822
 30
0.0
 40
70.0000000000039
100
AcDbArc
 50
69.44454780460589
 51
78.72583613511898
  0
ARC
  5
361
330
1F
100
AcDbEntity
  8
3
  6
Continuous
 62
     3
100
AcDbCircle
 10
71.0
 20
195.976991029251
 30
0.0
 40
6.0
100
AcDbArc
 50
0.0
 51
69.44454780460578
  0
ARC
  5
362
330
1F
100
AcDbEntity
  8
3
  6
Continuous
 62
     3
100
AcDbCircle
 10
25.0
 20
195.976991029251
 30
0.0
 40
6.000000000000512
100
AcDbArc
 50
110.5554521953891
 51
180.0
  0
ARC
  5
363
330
1F
100
AcDbEntity
  8
3
  6
Continuous
 62
     3
100
AcDbCircle
 10
47.4712800225443
 20
136.051691078827
 30
0.0
 40
69.9999999999993
100
AcDbArc
 50
101.2741638648806
 51
110.5554521953941
  0
ARC
  5
364
330
1F
100
AcDbEntity
  8
3
  6
Continuous
 62
     3
100
AcDbCircle
 10
36.8163152892951
 20
189.500000000001
 30
0.0
 40
15.49999999999901
100
AcDbArc
 50
90.0
 51
101.274163864881
  0
ARC
  5
365
330
1F
100
AcDbEntity
  8
3
  6
Continuous
 62
     3
100
AcDbCircle
 10
59.1836847107049
 20
189.500000000001
 30
0.0
 40
15.49999999999803
100
AcDbArc
 50
78.7258361351183
 51
90.0
  0
ARC
  5
366
330
1F
100
AcDbEntity
  8
3
  6
Continuous
 62
     3
100
AcDbCircle
 10
50.3000494682286
 20
199.842555467172
 30
0.0
 40
1.599926504619986
100
AcDbArc
 50
25.00638148212929
 51
77.22508553176797
  0
ARC
  5
367
330
1F
100
AcDbEntity
  8
3
  6
Continuous
 62
     3
100
AcDbCircle
 10
47.9999606317263
 20
189.699272237718
 30
0.0
 40
12.00072471053053
100
AcDbArc
 50
77.22386943550329
 51
102.7758011300189
  0
ARC
  5
368
330
1F
100
AcDbEntity
  8
3
  6
Continuous
 62
     3
100
AcDbCircle
 10
45.7000193178133
 20
199.842477497023
 30
0.0
 40
1.600035167440791
100
AcDbArc
 50
102.7769781170218
 51
154.9917497334992
  0
ARC
  5
369
330
1F
100
AcDbEntity
  8
3
  6
Continuous
 62
     3
100
AcDbCircle
 10
54.2500000000005
 20
202.5
 30
0.0
 40
2.5
100
AcDbArc
 50
90.0
 51
180.0
  0
ARC
  5
36A
330
1F
100
AcDbEntity
  8
3
  6
Continuous
 62
     3
100
AcDbCircle
 10
41.7500000000006
 20
202.500000000001
 30
0.0
 40
2.499999999999403
100
AcDbArc
 50
359.9999999999772
 51
90.0
  0
ARC
  5
36B
330
1F
100
AcDbEntity
  8
2
  6
Continuous
 62
     3
100
AcDbCircle
 10
216.88850136107
 20
269.249999999989
 30
0.0
 40
10.00000000001103
100
AcDbArc
 50
90.0
 51
94.10273771995796
  0
ARC
  5
36C
330
1F
100
AcDbEntity
  8
2
  6
Continuous
 62
     3
100
AcDbCircle
 10
167.11149863893
 20
269.249999999984
 30
0.0
 40
10.00000000001644
100
AcDbArc
 50
85.89726228003839
 51
90.0
  0
ARC
  5
36D
330
1F
100
AcDbEntity
  8
2
  6
Continuous
 62
     3
100
AcDbCircle
 10
167.11149863893
 20
318.750000000016
 30
0.0
 40
10.00000000001597
100
AcDbArc
 50
270.0
 51
274.1027377199616
  0
ARC
  5
36E
330
1F
100
AcDbEntity
  8
2
  6
Continuous
 62
     3
100
AcDbCircle
 10
168.23787657009
 20
290.629319044802
 30
0.0
 40
5.000000000000741
100
AcDbArc
 50
188.0735995924351
 51
225.991802248883
  0
ARC
  5
36F
330
1F
100
AcDbEntity
  8
2
  6
Continuous
 62
     3
100
AcDbCircle
 10
168.23787657009
 20
297.370680955197
 30
0.0
 40
5.000000000000413
100
AcDbArc
 50
134.0081977511089
 51
171.9264004075533
  0
ARC
  5
370
330
1F
100
AcDbEntity
  8
2
  6
Continuous
 62
     3
100
AcDbCircle
 10
192.0
 20
294.0
 30
0.0
 40
29.00000000000099
100
AcDbArc
 50
171.9264004075587
 51
188.0735995924413
  0
ARC
  5
371
330
1F
100
AcDbEntity
  8
2
  6
Continuous
 62
     3
100
AcDbCircle
 10
167.227936490984
 20
300.714553329823
 30
0.0
 40
2.000000000000363
100
AcDbArc
 50
141.6550533434949
 51
265.5146255463365
  0
ARC
  5
372
330
1F
100
AcDbEntity
  8
2
  6
Continuous
 62
     3
100
AcDbCircle
 10
192.0
 20
294.0
 30
0.0
 40
9.999999999999455
100
AcDbArc
 50
110.4873151147238
 51
159.5126848852761
  0
ARC
  5
373
330
1F
100
AcDbEntity
  8
2
  6
Continuous
 62
     3
100
AcDbCircle
 10
185.285446670176
 20
318.772063509016
 30
0.0
 40
2.000000000000366
100
AcDbArc
 50
4.48537445363501
 51
128.3449466564639
  0
ARC
  5
374
330
1F
100
AcDbEntity
  8
2
  6
Continuous
 62
     3
100
AcDbCircle
 10
198.714553329824
 20
318.772063509016
 30
0.0
 40
1.999999999999728
100
AcDbArc
 50
51.65505334351791
 51
175.514625546365
  0
ARC
  5
375
330
1F
100
AcDbEntity
  8
2
  6
Continuous
 62
     3
100
AcDbCircle
 10
192.0
 20
294.0
 30
0.0
 40
10.00000000000039
100
AcDbArc
 50
20.48731511472183
 51
69.5126848852781
  0
ARC
  5
376
330
1F
100
AcDbEntity
  8
2
  6
Continuous
 62
     3
100
AcDbCircle
 10
216.772063509016
 20
300.714553329823
 30
0.0
 40
1.999999999999346
100
AcDbArc
 50
274.4853744536373
 51
38.34494665649977
  0
ARC
  5
377
330
1F
100
AcDbEntity
  8
2
  6
Continuous
 62
     3
100
AcDbCircle
 10
216.772063509016
 20
287.285446670176
 30
0.0
 40
1.999999999999728
100
AcDbArc
 50
321.6550533435179
 51
85.51462554636501
  0
ARC
  5
378
330
1F
100
AcDbEntity
  8
2
  6
Continuous
 62
     3
100
AcDbCircle
 10
192.0
 20
294.0
 30
0.0
 40
9.999999999999455
100
AcDbArc
 50
290.4873151147239
 51
339.5126848852761
  0
ARC
  5
379
330
1F
100
AcDbEntity
  8
2
  6
Continuous
 62
     3
100
AcDbCircle
 10
198.714553329824
 20
269.227936490984
 30
0.0
 40
2.000000000000446
100
AcDbArc
 50
184.4853744536642
 51
308.3449466564639
  0
ARC
  5
37A
330
1F
100
AcDbEntity
  8
2
  6
Continuous
 62
     3
100
AcDbCircle
 10
215.76212342991
 20
290.629319044802
 30
0.0
 40
4.999999999999677
100
AcDbArc
 50
314.008197751117
 51
351.9264004075632
  0
ARC
  5
37B
330
1F
100
AcDbEntity
  8
2
  6
Continuous
 62
     3
100
AcDbCircle
 10
226.183542702918
 20
279.840713002491
 30
0.0
 40
10.00000000000074
100
AcDbArc
 50
134.0081977511093
 51
180.9918022488819
  0
ARC
  5
37C
330
1F
100
AcDbEntity
  8
2
  6
Continuous
 62
     3
100
AcDbCircle
 10
211.185789973317
 20
279.581072747956
 30
0.0
 40
5.00000000000087
100
AcDbArc
 50
323.0735995924385
 51
0.99180224888742
  0
ARC
  5
37D
330
1F
100
AcDbEntity
  8
2
  6
Continuous
 62
     3
100
AcDbCircle
 10
192.0
 20
294.0
 30
0.0
 40
28.99999999999962
100
AcDbArc
 50
306.9264004075572
 51
323.0735995924412
  0
ARC
  5
37E
330
1F
100
AcDbEntity
  8
2
  6
Continuous
 62
     3
100
AcDbCircle
 10
206.418927252044
 20
274.814210026682
 30
0.0
 40
4.999999999999352
100
AcDbArc
 50
269.0081977511122
 51
306.926400407559
  0
ARC
  5
37F
330
1F
100
AcDbEntity
  8
2
  6
Continuous
 62
     3
100
AcDbCircle
 10
206.159286997508
 20
259.816457297082
 30
0.0
 40
10.00000000000064
100
AcDbArc
 50
89.00819775111238
 51
135.991802248887
  0
ARC
  5
380
330
1F
100
AcDbEntity
  8
2
  6
Continuous
 62
     3
100
AcDbCircle
 10
195.370680955198
 20
270.23787657009
 30
0.0
 40
4.999999999999751
100
AcDbArc
 50
278.0735995924364
 51
315.9918022488826
  0
ARC
  5
381
330
1F
100
AcDbEntity
  8
2
  6
Continuous
 62
     3
100
AcDbCircle
 10
192.0
 20
294.0
 30
0.0
 40
29.0
100
AcDbArc
 50
261.9264004075584
 51
278.0735995924416
  0
ARC
  5
382
330
1F
100
AcDbEntity
  8
2
  6
Continuous
 62
     3
100
AcDbCircle
 10
188.629319044802
 20
270.23787657009
 30
0.0
 40
4.999999999999677
100
AcDbArc
 50
224.0081977511174
 51
261.9264004075636
  0
ARC
  5
383
330
1F
100
AcDbEntity
  8
2
  6
Continuous
 62
     3
100
AcDbCircle
 10
177.840713002492
 20
259.816457297082
 30
0.0
 40
9.99999999999999
100
AcDbArc
 50
44.00819775111302
 51
90.99180224888764
  0
ARC
  5
384
330
1F
100
AcDbEntity
  8
2
  6
Continuous
 62
     3
100
AcDbCircle
 10
177.581072747956
 20
274.814210026682
 30
0.0
 40
4.9999999999995
100
AcDbArc
 50
233.073599592441
 51
270.9918022488878
  0
ARC
  5
385
330
1F
100
AcDbEntity
  8
2
  6
Continuous
 62
     3
100
AcDbCircle
 10
192.0
 20
294.0
 30
0.0
 40
29.0000000000002
100
AcDbArc
 50
216.9264004075588
 51
233.0735995924428
  0
ARC
  5
386
330
1F
100
AcDbEntity
  8
2
  6
Continuous
 62
     3
100
AcDbCircle
 10
172.814210026682
 20
279.581072747955
 30
0.0
 40
4.999999999999341
100
AcDbArc
 50
179.0081977511005
 51
216.9264004075591
  0
ARC
  5
387
330
1F
100
AcDbEntity
  8
2
  6
Continuous
 62
     3
100
AcDbCircle
 10
157.816457297083
 20
279.840713002491
 30
0.0
 40
9.999999999999652
100
AcDbArc
 50
359.0081977511181
 51
45.9918022488948
  0
ARC
  5
388
330
1F
100
AcDbEntity
  8
2
  6
Continuous
 62
     3
100
AcDbCircle
 10
157.816457297083
 20
308.159286997508
 30
0.0
 40
9.999999999999316
100
AcDbArc
 50
314.0081977511092
 51
0.99180224888782
  0
ARC
  5
389
330
1F
100
AcDbEntity
  8
2
  6
Continuous
 62
     3
100
AcDbCircle
 10
172.814210026683
 20
308.418927252044
 30
0.0
 40
4.999999999999675
100
AcDbArc
 50
143.0735995924568
 51
180.9918022488874
  0
ARC
  5
38A
330
1F
100
AcDbEntity
  8
2
  6
Continuous
 62
     3
100
AcDbCircle
 10
192.0
 20
294.0
 30
0.0
 40
28.9999999999994
100
AcDbArc
 50
126.92640040756
 51
143.0735995924443
  0
ARC
  5
38B
330
1F
100
AcDbEntity
  8
2
  6
Continuous
 62
     3
100
AcDbCircle
 10
177.581072747956
 20
313.185789973318
 30
0.0
 40
4.999999999999352
100
AcDbArc
 50
89.00819775111218
 51
126.9264004075752
  0
ARC
  5
38C
330
1F
100
AcDbEntity
  8
2
  6
Continuous
 62
     3
100
AcDbCircle
 10
177.840713002492
 20
328.183542702917
 30
0.0
 40
9.99999999999967
100
AcDbArc
 50
269.0081977511123
 51
315.9918022488828
  0
ARC
  5
38D
330
1F
100
AcDbEntity
  8
2
  6
Continuous
 62
     3
100
AcDbCircle
 10
188.629319044802
 20
317.762123429909
 30
0.0
 40
5.000000000000709
100
AcDbArc
 50
98.07359959243485
 51
135.9918022488909
  0
ARC
  5
38E
330
1F
100
AcDbEntity
  8
2
  6
Continuous
 62
     3
100
AcDbCircle
 10
192.0
 20
294.0
 30
0.0
 40
29.0
100
AcDbArc
 50
81.92640040755845
 51
98.07359959244157
  0
ARC
  5
38F
330
1F
100
AcDbEntity
  8
2
  6
Continuous
 62
     3
100
AcDbCircle
 10
195.370680955197
 20
317.762123429909
 30
0.0
 40
5.000000000000353
100
AcDbArc
 50
44.00819775110907
 51
81.92640040755387
  0
ARC
  5
390
330
1F
100
AcDbEntity
  8
2
  6
Continuous
 62
     3
100
AcDbCircle
 10
206.159286997508
 20
328.183542702917
 30
0.0
 40
10.00000000000003
100
AcDbArc
 50
224.0081977511133
 51
270.9918022488877
  0
ARC
  5
391
330
1F
100
AcDbEntity
  8
2
  6
Continuous
 62
     3
100
AcDbCircle
 10
206.418927252044
 20
313.185789973318
 30
0.0
 40
4.9999999999995
100
AcDbArc
 50
53.073599592441
 51
90.99180224888782
  0
ARC
  5
392
330
1F
100
AcDbEntity
  8
2
  6
Continuous
 62
     3
100
AcDbCircle
 10
192.0
 20
294.0
 30
0.0
 40
28.99999999999958
100
AcDbArc
 50
36.92640040755722
 51
53.07359959244278
  0
ARC
  5
393
330
1F
100
AcDbEntity
  8
2
  6
Continuous
 62
     3
100
AcDbCircle
 10
211.185789973317
 20
308.418927252044
 30
0.0
 40
5.000000000000346
100
AcDbArc
 50
359.0081977511124
 51
36.92640040755209
  0
ARC
  5
394
330
1F
100
AcDbEntity
  8
2
  6
Continuous
 62
     3
100
AcDbCircle
 10
226.183542702918
 20
308.159286997508
 30
0.0
 40
10.00000000000017
100
AcDbArc
 50
202.5000000000001
 51
225.9918022488866
  0
ARC
  5
395
330
1F
100
AcDbEntity
  8
2
  6
Continuous
 62
     3
100
AcDbCircle
 10
215.76212342991
 20
297.370680955197
 30
0.0
 40
4.999999999999871
100
AcDbArc
 50
8.07359959244838
 51
45.99180224889115
  0
ARC
  5
396
330
1F
100
AcDbEntity
  8
2
  6
Continuous
 62
     3
100
AcDbCircle
 10
192.0
 20
294.0
 30
0.0
 40
28.99999999999998
100
AcDbArc
 50
351.9264004075584
 51
8.07359959244162
  0
ARC
  5
397
330
1F
100
AcDbEntity
  8
2
  6
Continuous
 62
     3
100
AcDbCircle
 10
192.0
 20
294.0
 30
0.0
 40
11.50000000000002
100
AcDbArc
 50
251.6450253534814
 51
288.3549746465186
  0
ARC
  5
398
330
1F
100
AcDbEntity
  8
2
  6
Continuous
 62
     3
100
AcDbCircle
 10
192.0
 20
294.0
 30
0.0
 40
11.50000000000001
100
AcDbArc
 50
161.6450253534815
 51
198.3549746465185
  0
ARC
  5
399
330
1F
100
AcDbEntity
  8
2
  6
Continuous
 62
     3
100
AcDbCircle
 10
192.0
 20
294.0
 30
0.0
 40
11.50000000000002
100
AcDbArc
 50
71.64502535348142
 51
108.3549746465186
  0
ARC
  5
39A
330
1F
100
AcDbEntity
  8
2
  6
Continuous
 62
     3
100
AcDbCircle
 10
192.0
 20
294.0
 30
0.0
 40
11.50000000000015
100
AcDbArc
 50
359.9999907415649
 51
18.35497464651845
  0
ARC
  5
39B
330
1F
100
AcDbEntity
  8
2
  6
Continuous
 62
     3
100
AcDbCircle
 10
192.0
 20
294.0
 30
0.0
 40
25.0000000000001
100
AcDbArc
 50
169.1838626983027
 51
190.8161373016973
  0
ARC
  5
39C
330
1F
100
AcDbEntity
  8
2
  6
Continuous
 62
     3
100
AcDbCircle
 10
192.0
 20
294.0
 30
0.0
 40
25.0000000000001
100
AcDbArc
 50
79.1838626983026
 51
100.8161373016974
  0
ARC
  5
39D
330
1F
100
AcDbEntity
  8
2
  6
Continuous
 62
     3
100
AcDbCircle
 10
192.0
 20
294.0
 30
0.0
 40
25.0000000000001
100
AcDbArc
 50
349.1838626983026
 51
10.81613730169734
  0
ARC
  5
39E
330
1F
100
AcDbEntity
  8
2
  6
Continuous
 62
     3
100
AcDbCircle
 10
192.0
 20
294.0
 30
0.0
 40
25.0000000000001
100
AcDbArc
 50
259.1838626983026
 51
280.8161373016974
  0
ARC
  5
39F
330
1F
100
AcDbEntity
  8
2
  6
Continuous
 62
     3
100
AcDbCircle
 10
226.183542702918
 20
308.159286997508
 30
0.0
 40
10.00000000000066
100
AcDbArc
 50
179.0081977511124
 51
202.5000000000001
  0
ARC
  5
3A0
330
1F
100
AcDbEntity
  8
2
  6
Continuous
 62
     3
100
AcDbCircle
 10
192.0
 20
294.0
 30
0.0
 40
11.50000000000001
100
AcDbArc
 50
341.6450253534816
 51
359.9999907415649
  0
ARC
  5
3A1
330
1F
100
AcDbEntity
  8
2
  6
Continuous
 62
     3
100
AcDbCircle
 10
167.227936490984
 20
287.285446670176
 30
0.0
 40
2.000000000000366
100
AcDbArc
 50
94.485374453635
 51
218.3449466564644
  0
ARC
  5
3A2
330
1F
100
AcDbEntity
  8
2
  6
Continuous
 62
     3
100
AcDbCircle
 10
192.0
 20
294.0
 30
0.0
 40
10.00000000000075
100
AcDbArc
 50
200.4873151147273
 51
249.5126848852781
  0
ARC
  5
3A3
330
1F
100
AcDbEntity
  8
2
  6
Continuous
 62
     3
100
AcDbCircle
 10
185.285446670176
 20
269.227936490984
 30
0.0
 40
1.999999999999728
100
AcDbArc
 50
231.6550533435179
 51
355.5146255463358
  0
ARC
  5
3A4
330
1F
100
AcDbEntity
  8
3
  6
Continuous
 62
     3
100
AcDbCircle
 10
378.249999999999
 20
202.500000000001
 30
0.0
 40
2.499999999999005
100
AcDbArc
 50
90.0
 51
180.0000000000228
  0
ARC
  5
3A5
330
1F
100
AcDbEntity
  8
3
  6
Continuous
 62
     3
100
AcDbCircle
 10
365.749999999999
 20
202.5
 30
0.0
 40
2.500000000001023
100
AcDbArc
 50
0.0
 51
90.0
  0
ARC
  5
3A6
330
1F
100
AcDbEntity
  8
3
  6
Continuous
 62
     3
100
AcDbCircle
 10
374.299980682187
 20
199.842477497023
 30
0.0
 40
1.600035167440321
100
AcDbArc
 50
25.00825026650845
 51
77.22302188299264
  0
ARC
  5
3A7
330
1F
100
AcDbEntity
  8
3
  6
Continuous
 62
     3
100
AcDbCircle
 10
372.000039368274
 20
189.699272237718
 30
0.0
 40
12.00072471053033
100
AcDbArc
 50
77.22419886998281
 51
102.7761305644961
  0
ARC
  5
3A8
330
1F
100
AcDbEntity
  8
3
  6
Continuous
 62
     3
100
AcDbCircle
 10
369.699950531771
 20
199.842555467172
 30
0.0
 40
1.599926504619624
100
AcDbArc
 50
102.774914468203
 51
154.9936185178644
  0
ARC
  5
3A9
330
1F
100
AcDbEntity
  8
3
  6
Continuous
 62
     3
100
AcDbCircle
 10
360.816315289295
 20
189.500000000002
 30
0.0
 40
15.49999999999801
100
AcDbArc
 50
90.0
 51
101.2741638648818
  0
ARC
  5
3AA
330
1F
100
AcDbEntity
  8
3
  6
Continuous
 62
     3
100
AcDbCircle
 10
383.183684710705
 20
189.500000000002
 30
0.0
 40
15.49999999999803
100
AcDbArc
 50
78.72583613511819
 51
90.0
  0
ARC
  5
3AB
330
1F
100
AcDbEntity
  8
3
  6
Continuous
 62
     3
100
AcDbCircle
 10
372.528719977455
 20
136.051691078823
 30
0.0
 40
70.00000000000293
100
AcDbArc
 50
69.44454780460562
 51
78.72583613511938
  0
ARC
  5
3AC
330
1F
100
AcDbEntity
  8
3
  6
Continuous
 62
     3
100
AcDbCircle
 10
395.0
 20
195.976991029251
 30
0.0
 40
6.0
100
AcDbArc
 50
0.0
 51
69.44454780460056
  0
ARC
  5
3AD
330
1F
100
AcDbEntity
  8
3
  6
Continuous
 62
     3
100
AcDbCircle
 10
349.0
 20
195.976991029251
 30
0.0
 40
5.999999999999857
100
AcDbArc
 50
110.5554521953994
 51
180.0
  0
ARC
  5
3AE
330
1F
100
AcDbEntity
  8
3
  6
Continuous
 62
     3
100
AcDbCircle
 10
371.471280022546
 20
136.051691078822
 30
0.0
 40
70.00000000000456
100
AcDbArc
 50
101.2741638648813
 51
110.5554521953949
  0
ARC
  5
3AF
330
1F
100
AcDbEntity
  8
2
  6
Continuous
 62
     3
100
AcDbCircle
 10
359.5
 20
183.95
 30
0.0
 40
2.5
100
AcDbArc
 50
90.0
 51
180.0
  0
ARC
  5
3B0
330
1F
100
AcDbEntity
  8
2
  6
Continuous
 62
     3
100
AcDbCircle
 10
384.5
 20
183.95
 30
0.0
 40
2.5
100
AcDbArc
 50
0.0
 51
90.0
  0
ARC
  5
3B1
330
1F
100
AcDbEntity
  8
2
  6
Continuous
 62
     3
100
AcDbCircle
 10
204.5
 20
183.95
 30
0.0
 40
2.5
100
AcDbArc
 50
0.0
 51
90.0
  0
ARC
  5
3B2
330
1F
100
AcDbEntity
  8
2
  6
Continuous
 62
     3
100
AcDbCircle
 10
179.5
 20
183.95
 30
0.0
 40
2.5
100
AcDbArc
 50
90.0
 51
180.0
  0
ARC
  5
3B3
330
1F
100
AcDbEntity
  8
3
  6
Continuous
 62
     3
100
AcDbCircle
 10
191.471280022544
 20
136.051691078827
 30
0.0
 40
69.99999999999926
100
AcDbArc
 50
101.2741638648804
 51
110.5554521953937
  0
ARC
  5
3B4
330
1F
100
AcDbEntity
  8
3
  6
Continuous
 62
     3
100
AcDbCircle
 10
169.0
 20
195.976991029251
 30
0.0
 40
6.000000000000439
100
AcDbArc
 50
110.5554521953872
 51
180.0
  0
ARC
  5
3B5
330
1F
100
AcDbEntity
  8
3
  6
Continuous
 62
     3
100
AcDbCircle
 10
215.0
 20
195.976991029251
 30
0.0
 40
6.0
100
AcDbArc
 50
0.0
 51
69.44454780460947
  0
ARC
  5
3B6
330
1F
100
AcDbEntity
  8
3
  6
Continuous
 62
     3
100
AcDbCircle
 10
192.528719977454
 20
136.051691078822
 30
0.0
 40
70.0000000000039
100
AcDbArc
 50
69.44454780460589
 51
78.72583613511858
  0
ARC
  5
3B7
330
1F
100
AcDbEntity
  8
3
  6
Continuous
 62
     3
100
AcDbCircle
 10
203.183684710705
 20
189.500000000001
 30
0.0
 40
15.49999999999803
100
AcDbArc
 50
78.7258361351183
 51
90.0
  0
ARC
  5
3B8
330
1F
100
AcDbEntity
  8
3
  6
Continuous
 62
     3
100
AcDbCircle
 10
180.816315289295
 20
189.500000000001
 30
0.0
 40
15.49999999999901
100
AcDbArc
 50
90.0
 51
101.274163864881
  0
ARC
  5
3B9
330
1F
100
AcDbEntity
  8
3
  6
PHANTOM
 62
     6
100
AcDbCircle
 10
169.0
 20
185.976991029251
 30
0.0
 40
6.000000000000439
100
AcDbArc
 50
110.5554521953872
 51
180.0
  0
ARC
  5
3BA
330
1F
100
AcDbEntity
  8
3
  6
PHANTOM
 62
     6
100
AcDbCircle
 10
191.471280022545
 20
126.051691078826
 30
0.0
 40
70.00000000000044
100
AcDbArc
 50
101.2741638648811
 51
110.5554521953942
  0
ARC
  5
3BB
330
1F
100
AcDbEntity
  8
3
  6
PHANTOM
 62
     6
100
AcDbCircle
 10
180.816315289295
 20
179.5
 30
0.0
 40
15.5
100
AcDbArc
 50
90.0
 51
101.2741638648803
  0
ARC
  5
3BC
330
1F
100
AcDbEntity
  8
3
  6
PHANTOM
 62
     6
100
AcDbCircle
 10
203.183684710705
 20
179.500000000001
 30
0.0
 40
15.499999999999
100
AcDbArc
 50
78.72583613511901
 51
90.0
  0
ARC
  5
3BD
330
1F
100
AcDbEntity
  8
3
  6
PHANTOM
 62
     6
100
AcDbCircle
 10
192.528719977456
 20
126.051691078826
 30
0.0
 40
69.9999999999998
100
AcDbArc
 50
69.44454780460552
 51
78.72583613511972
  0
ARC
  5
3BE
330
1F
100
AcDbEntity
  8
3
  6
PHANTOM
 62
     6
100
AcDbCircle
 10
215.0
 20
185.976991029251
 30
0.0
 40
6.0
100
AcDbArc
 50
0.0
 51
69.4445478046003
  0
ARC
  5
3BF
330
1F
100
AcDbEntity
  8
3
  6
Continuous
 62
     3
100
AcDbCircle
 10
189.699950531771
 20
199.842555467172
 30
0.0
 40
1.599926504619631
100
AcDbArc
 50
102.774914468204
 51
154.9936185178648
  0
ARC
  5
3C0
330
1F
100
AcDbEntity
  8
3
  6
Continuous
 62
     3
100
AcDbCircle
 10
192.000039368274
 20
189.699272237718
 30
0.0
 40
12.00072471053033
100
AcDbArc
 50
77.22419886998294
 51
102.7761305644962
  0
ARC
  5
3C1
330
1F
100
AcDbEntity
  8
3
  6
Continuous
 62
     3
100
AcDbCircle
 10
194.299980682186
 20
199.842477497023
 30
0.0
 40
1.600035167441223
100
AcDbArc
 50
25.0082502664934
 51
77.22302188295691
  0
ARC
  5
3C2
330
1F
100
AcDbEntity
  8
3
  6
Continuous
 62
     3
100
AcDbCircle
 10
185.749999999999
 20
202.5
 30
0.0
 40
2.500000000000995
100
AcDbArc
 50
0.0
 51
90.0
  0
ARC
  5
3C3
330
1F
100
AcDbEntity
  8
3
  6
Continuous
 62
     3
100
AcDbCircle
 10
198.249999999999
 20
202.500000000001
 30
0.0
 40
2.499999999999005
100
AcDbArc
 50
90.0
 51
180.0000000000228
  0
ARC
  5
3C4
330
1F
100
AcDbEntity
  8
2
  6
Continuous
 62
     3
100
AcDbCircle
 10
379.5
 20
75.1669965505493
 30
0.0
 40
60.83300344944909
100
AcDbArc
 50
82.91807970946405
 51
97.08192029053684
  0
ARC
  5
3C5
330
1F
100
AcDbEntity
  8
2
  6
Continuous
 62
     3
100
AcDbCircle
 10
364.499999999998
 20
75.1669965506751
 30
0.0
 40
60.83300344932364
100
AcDbArc
 50
82.91807970945412
 51
97.08192029054588
  0
ARC
  5
3C6
330
1F
100
AcDbEntity
  8
2
  6
Continuous
 62
     3
100
AcDbCircle
 10
388.0
 20
132.64575131106
 30
0.0
 40
3.999999999996961
100
AcDbArc
 50
318.5903778907785
 51
0.0
  0
ARC
  5
3C7
330
1F
100
AcDbEntity
  8
2
  6
Continuous
 62
     3
100
AcDbCircle
 10
356.0
 20
132.64575131106
 30
0.0
 40
4.0
100
AcDbArc
 50
180.0
 51
221.409622109224
  0
ARC
  5
3C8
330
1F
100
AcDbEntity
  8
2
  6
Continuous
 62
     3
100
AcDbCircle
 10
353.5
 20
133.77029414592
 30
0.0
 40
1.499999999999958
100
AcDbArc
 50
101.3099324740867
 51
180.0
  0
ARC
  5
3C9
330
1F
100
AcDbEntity
  8
2
  6
Continuous
 62
     3
100
AcDbCircle
 10
390.5
 20
133.77029414592
 30
0.0
 40
1.5
100
AcDbArc
 50
0.0
 51
78.69006752591336
  0
ARC
  5
3CA
330
1F
100
AcDbEntity
  8
2
  6
Continuous
 62
     3
100
AcDbCircle
 10
179.009618943234
 20
115.567631645176
 30
0.0
 40
20.43236835482418
100
AcDbArc
 50
77.7648215274436
 51
102.2351784726509
  0
ARC
  5
3CB
330
1F
100
AcDbEntity
  8
2
  6
Continuous
 62
     3
100
AcDbCircle
 10
191.999999999998
 20
54.9666790037686
 30
0.0
 40
81.03332099623157
100
AcDbArc
 50
83.86492541601268
 51
96.13507458398665
  0
ARC
  5
3CC
330
1F
100
AcDbEntity
  8
2
  6
Continuous
 62
     3
100
AcDbCircle
 10
204.990381056765
 20
115.567631645161
 30
0.0
 40
20.43236835483819
100
AcDbArc
 50
77.76482152746077
 51
102.235178472553
  0
ARC
  5
3CD
330
1F
100
AcDbEntity
  8
2
  6
Continuous
 62
     3
100
AcDbCircle
 10
210.5
 20
133.77029414592
 30
0.0
 40
1.5
100
AcDbArc
 50
0.0
 51
78.6900675259123
  0
ARC
  5
3CE
330
1F
100
AcDbEntity
  8
2
  6
Continuous
 62
     3
100
AcDbCircle
 10
173.5
 20
133.77029414592
 30
0.0
 40
1.499999999999964
100
AcDbArc
 50
101.3099324740877
 51
180.0
  0
ARC
  5
3CF
330
1F
100
AcDbEntity
  8
2
  6
Continuous
 62
     3
100
AcDbCircle
 10
176.0
 20
132.64575131106
 30
0.0
 40
4.0
100
AcDbArc
 50
180.0
 51
221.409622109224
  0
ARC
  5
3D0
330
1F
100
AcDbEntity
  8
2
  6
Continuous
 62
     3
100
AcDbCircle
 10
208.0
 20
132.64575131106
 30
0.0
 40
3.999999999996961
100
AcDbArc
 50
318.5903778907785
 51
0.0
  0
ARC
  5
3D1
330
1F
100
AcDbEntity
  8
2
  6
Continuous
 62
     3
100
AcDbCircle
 10
166.32132034356
 20
310.25
 30
0.0
 40
1.500000000000253
100
AcDbArc
 50
225.0
 51
270.0
  0
ARC
  5
3D2
330
1F
100
AcDbEntity
  8
2
  6
Continuous
 62
     3
100
AcDbCircle
 10
166.32132034356
 20
277.75
 30
0.0
 40
1.5
100
AcDbArc
 50
90.0
 51
135.0
  0
ARC
  5
3D3
330
1F
100
AcDbEntity
  8
2
  6
Continuous
 62
     3
100
AcDbCircle
 10
217.67867965644
 20
310.25
 30
0.0
 40
1.5
100
AcDbArc
 50
270.0
 51
315.0
  0
ARC
  5
3D4
330
1F
100
AcDbEntity
  8
2
  6
Continuous
 62
     3
100
AcDbCircle
 10
217.67867965644
 20
277.75
 30
0.0
 40
1.500000000000253
100
AcDbArc
 50
45.0
 51
90.0
  0
ARC
  5
3D5
330
1F
100
AcDbEntity
  8
2
  6
Continuous
 62
     3
100
AcDbCircle
 10
216.88850136107
 20
318.750000000018
 30
0.0
 40
10.00000000001746
100
AcDbArc
 50
265.8972622800388
 51
270.0
  0
ARC
  5
3D6
330
1F
100
AcDbEntity
  8
2
  6
Continuous
 62
     3
100
AcDbCircle
 10
190.212470218758
 20
103.5
 30
0.0
 40
0.5
100
AcDbArc
 50
270.0
 51
90.0
  0
ARC
  5
3D7
330
1F
100
AcDbEntity
  8
2
  6
Continuous
 62
     3
100
AcDbCircle
 10
188.212470218758
 20
108.5
 30
0.0
 40
2.500000000002358
100
AcDbArc
 50
294.2590468646317
 51
49.89076733935198
  0
ARC
  5
3D8
330
1F
100
AcDbEntity
  8
2
  6
Continuous
 62
     3
100
AcDbCircle
 10
188.212470218758
 20
108.5
 30
0.0
 40
2.500000000003001
100
AcDbArc
 50
49.89076733935198
 51
165.5224878140893
  0
ARC
  5
3D9
330
1F
100
AcDbEntity
  8
2
  6
Continuous
 62
     3
100
AcDbCircle
 10
186.275978545653
 20
108.999999999999
 30
0.0
 40
0.5000000000022459
100
AcDbArc
 50
165.5224878140188
 51
345.522487814211
  0
ARC
  5
3DA
330
1F
100
AcDbEntity
  8
2
  6
Continuous
 62
     3
100
AcDbCircle
 10
188.212470218758
 20
108.5
 30
0.0
 40
1.500000000000346
100
AcDbArc
 50
60.26124390701954
 51
165.5224878140722
  0
ARC
  5
3DB
330
1F
100
AcDbEntity
  8
2
  6
Continuous
 62
     3
100
AcDbCircle
 10
188.212470218758
 20
108.5
 30
0.0
 40
1.500000000000253
100
AcDbArc
 50
315.0
 51
60.26124390701954
  0
ARC
  5
3DC
330
1F
100
AcDbEntity
  8
2
  6
Continuous
 62
     3
100
AcDbCircle
 10
216.88850136107
 20
77.2500000000003
 30
0.0
 40
9.999999999999702
100
AcDbArc
 50
90.0
 51
109.380900127127
  0
ARC
  5
3DD
330
1F
100
AcDbEntity
  8
2
  6
Continuous
 62
     3
100
AcDbCircle
 10
217.67867965644
 20
85.7499999999999
 30
0.0
 40
1.500000000000324
100
AcDbArc
 50
45.00000000000269
 51
90.0
  0
ARC
  5
3DE
330
1F
100
AcDbEntity
  8
2
  6
Continuous
 62
     3
100
AcDbCircle
 10
217.67867965644
 20
118.25
 30
0.0
 40
1.5
100
AcDbArc
 50
270.0
 51
315.0
  0
ARC
  5
3DF
330
1F
100
AcDbEntity
  8
2
  6
Continuous
 62
     3
100
AcDbCircle
 10
212.5
 20
119.26136261574
 30
0.0
 40
1.5
100
AcDbArc
 50
180.0
 51
252.0449556961161
  0
ARC
  5
3E0
330
1F
100
AcDbEntity
  8
2
  6
Continuous
 62
     3
100
AcDbCircle
 10
192.000000000027
 20
56.0000000000777
 30
0.0
 40
64.99999999991756
100
AcDbArc
 50
70.61909987286211
 51
72.04495569616321
  0
ARC
  5
3E1
330
1F
100
AcDbEntity
  8
2
  6
Continuous
 62
     3
100
AcDbCircle
 10
216.88850136107
 20
126.75
 30
0.0
 40
10.00000000000007
100
AcDbArc
 50
250.6190998728742
 51
270.0
  0
ARC
  5
3E2
330
1F
100
AcDbEntity
  8
2
  6
Continuous
 62
     3
100
AcDbCircle
 10
171.5
 20
119.26136261574
 30
0.0
 40
1.500000000000965
100
AcDbArc
 50
287.9550443038839
 51
0.0
  0
ARC
  5
3E3
330
1F
100
AcDbEntity
  8
2
  6
Continuous
 62
     3
100
AcDbCircle
 10
167.11149863893
 20
126.75
 30
0.0
 40
10.0
100
AcDbArc
 50
270.0
 51
289.3809001271239
  0
ARC
  5
3E4
330
1F
100
AcDbEntity
  8
2
  6
Continuous
 62
     3
100
AcDbCircle
 10
192.000000000027
 20
56.0000000000777
 30
0.0
 40
64.99999999993454
100
AcDbArc
 50
107.9550443038821
 51
109.3809001271831
  0
ARC
  5
3E5
330
1F
100
AcDbEntity
  8
2
  6
Continuous
 62
     3
100
AcDbCircle
 10
167.11149863893
 20
77.2500000000003
 30
0.0
 40
9.999999999999506
100
AcDbArc
 50
70.61909987287304
 51
90.0
  0
ARC
  5
3E6
330
1F
100
AcDbEntity
  8
2
  6
Continuous
 62
     3
100
AcDbCircle
 10
166.32132034356
 20
85.7500000000001
 30
0.0
 40
1.499999999999901
100
AcDbArc
 50
90.0
 51
135.0000000000081
  0
ARC
  5
3E7
330
1F
100
AcDbEntity
  8
2
  6
Continuous
 62
     3
100
AcDbCircle
 10
192.0
 20
148.0
 30
0.0
 40
65.0000000000001
100
AcDbArc
 50
250.6190998728625
 51
289.3809001271375
  0
ARC
  5
3E8
330
1F
100
AcDbEntity
  8
2
  6
Continuous
 62
     3
100
AcDbCircle
 10
166.32132034356
 20
118.25
 30
0.0
 40
1.500000000000253
100
AcDbArc
 50
225.0
 51
270.0
  0
CIRCLE
  5
3E9
330
1F
100
AcDbEntity
  8
2
  6
Continuous
 62
     3
100
AcDbCircle
 10
372.0
 20
102.0
 30
0.0
 40
15.35000000000002
  0
CIRCLE
  5
3EA
330
1F
100
AcDbEntity
  8
2
  6
Continuous
 62
     3
100
AcDbCircle
 10
372.0
 20
102.0
 30
0.0
 40
16.62450000000001
  0
CIRCLE
  5
3EB
330
1F
100
AcDbEntity
  8
2
  6
Continuous
 62
     3
100
AcDbCircle
 10
372.0
 20
102.0
 30
0.0
 40
8.699999999999989
  0
CIRCLE
  5
3EC
330
1F
100
AcDbEntity
  8
2
  6
Continuous
 62
     3
100
AcDbCircle
 10
372.0
 20
102.0
 30
0.0
 40
10.0
  0
CIRCLE
  5
3ED
330
1F
100
AcDbEntity
  8
2
  6
Continuous
 62
     3
100
AcDbCircle
 10
48.0
 20
102.0
 30
0.0
 40
16.45
  0
CIRCLE
  5
3EE
330
1F
100
AcDbEntity
  8
2
  6
Continuous
 62
     3
100
AcDbCircle
 10
48.0
 20
102.0
 30
0.0
 40
15.35
  0
CIRCLE
  5
3EF
330
1F
100
AcDbEntity
  8
2
  6
Continuous
 62
     3
100
AcDbCircle
 10
48.0
 20
102.0
 30
0.0
 40
13.4613189697266
  0
CIRCLE
  5
3F0
330
1F
100
AcDbEntity
  8
2
  6
Continuous
 62
     3
100
AcDbCircle
 10
48.0
 20
102.0
 30
0.0
 40
12.25
  0
CIRCLE
  5
3F1
330
1F
100
AcDbEntity
  8
2
  6
Continuous
 62
     3
100
AcDbCircle
 10
192.0
 20
294.0
 30
0.0
 40
9.0
  0
CIRCLE
  5
3F2
330
1F
100
AcDbEntity
  8
2
  6
Continuous
 62
     3
100
AcDbCircle
 10
192.0
 20
294.0
 30
0.0
 40
7.5
  0
CIRCLE
  5
3F3
330
1F
100
AcDbEntity
  8
2
  6
Continuous
 62
     3
100
AcDbCircle
 10
192.0
 20
294.0
 30
0.0
 40
4.599999999999994
  0
LEADER
  5
3F4
330
1F
100
AcDbEntity
  8
1
  6
Continuous
 62
     4
100
AcDbLeader
  3
Standard
 71
     0
 76
     3
 10
289.2
 20
102.0
 30
0.0
 10
307.934128255794
 20
69.2051278639381
 30
0.0
 10
323.133351168275
 20
69.2051278639381
 30
0.0
  0
LEADER
  5
3F5
330
1F
100
AcDbEntity
  8
1
  6
Continuous
 62
     4
100
AcDbLeader
  3
Standard
 71
     0
 76
     3
 10
226.215490949426
 20
118.45
 30
0.0
 10
238.0
 20
140.0
 30
0.0
 10
254.0
 20
140.0
 30
0.0
  0
LEADER
  5
3F6
330
1F
100
AcDbEntity
  8
1
  6
Continuous
 62
     4
100
AcDbLeader
  3
Standard
 71
     0
 76
     3
 10
157.893527741557
 20
85.55
 30
0.0
 10
143.622208458852
 20
60.8313499113171
 30
0.0
 10
126.800012580615
 20
60.8313499113171
 30
0.0
  0
DIMENSION
  5
42C
330
1F
100
AcDbEntity
  8
1
100
AcDbDimension
  2
*D1
 10
232.0
 20
38.5051826783531
 30
0.0
 11
192.0
 21
44.5051826783531
 31
0.0
 70
    32
  1
80
 71
     5
 42
-1.0
 53
0.00013888888889
  3
ME10_DIM_10
100
AcDbAlignedDimension
 13
152.0
 23
85.55
 33
0.0
 14
232.0
 24
85.55
 34
0.0
100
AcDbRotatedDimension
  0
DIMENSION
  5
439
330
1F
100
AcDbEntity
  8
1
100
AcDbDimension
  2
*D3
 10
275.1999999999996
 20
20.00010733773141
 30
0.0
 11
214.879985455459
 21
26.0001073377314
 31
0.0
 70
    32
  1
可動範囲　109～124
 71
     5
 42
-1.0
 53
0.00013888888889
  3
ME10_DIM_11
100
AcDbAlignedDimension
 13
152.0
 23
85.55
 33
0.0
 14
275.2
 24
87.0
 34
0.0
100
AcDbRotatedDimension
  0
DIMENSION
  5
446
330
1F
100
AcDbEntity
  8
1
100
AcDbDimension
  2
*D4
 10
141.060777512214
 20
205.0
 30
0.0
 11
135.060777512214
 21
156.976234277118
 31
0.0
 70
    32
  1
103
 71
     5
 42
-1.0
 53
90.0
  3
ME10_DIM_12
100
AcDbAlignedDimension
 13
146.0
 23
102.0
 33
0.0
 14
180.816315289295
 24
205.0
 34
0.0
 50
90.0
100
AcDbRotatedDimension
  0
ENDSEC
  0
SECTION
  2
OBJECTS
  0
DICTIONARY
  5
C
330
0
100
AcDbDictionary
281
     1
  3
ACAD_GROUP
350
D
  3
ACAD_LAYOUT
350
1A
  3
ACAD_MATERIAL
350
3B
  3
ACAD_MLEADERSTYLE
350
449
  3
ACAD_MLINESTYLE
350
17
  3
ACAD_PLOTSETTINGS
350
19
  3
ACAD_PLOTSTYLENAME
350
E
  3
ACAD_SCALELIST
350
400
  3
ACAD_VISUALSTYLE
350
2A
  3
AcDbVariableDictionary
350
447
  0
DICTIONARY
  5
D
102
{ACAD_REACTORS
330
C
102
}
330
C
100
AcDbDictionary
281
     1
  0
DICTIONARY
  5
1A
102
{ACAD_REACTORS
330
C
102
}
330
C
100
AcDbDictionary
281
     1
  3
Layout1
350
1E
  3
Layout2
350
26
  3
Model
350
22
  0
DICTIONARY
  5
3B
102
{ACAD_REACTORS
330
C
102
}
330
C
100
AcDbDictionary
281
     1
  3
ByBlock
350
3D
  3
ByLayer
350
3C
  3
Global
350
3E
  0
DICTIONARY
  5
449
102
{ACAD_REACTORS
330
C
102
}
330
C
100
AcDbDictionary
281
     1
  0
DICTIONARY
  5
17
102
{ACAD_REACTORS
330
C
102
}
330
C
100
AcDbDictionary
281
     1
  3
Standard
350
18
  0
DICTIONARY
  5
19
102
{ACAD_REACTORS
330
C
102
}
330
C
100
AcDbDictionary
281
     1
  0
ACDBDICTIONARYWDFLT
  5
E
102
{ACAD_REACTORS
330
C
102
}
330
C
100
AcDbDictionary
281
     1
  3
Normal
350
F
100
AcDbDictionaryWithDefault
340
F
  0
DICTIONARY
  5
400
102
{ACAD_REACTORS
330
C
102
}
330
C
100
AcDbDictionary
281
     1
  3
A0
350
401
  3
A1
350
402
  3
A2
350
403
  3
A3
350
404
  3
A4
350
405
  3
A5
350
406
  3
A6
350
407
  3
A7
350
408
  3
A8
350
409
  3
A9
350
40A
  3
B0
350
40B
  3
B1
350
40C
  3
B2
350
40D
  3
B3
350
40E
  3
B4
350
40F
  3
B5
350
410
  3
B6
350
411
  3
B7
350
412
  3
B8
350
413
  3
B9
350
414
  3
C0
350
415
  3
C1
350
416
  3
C2
350
417
  3
C3
350
418
  3
C4
350
419
  3
C5
350
41A
  3
C6
350
41B
  3
C7
350
41C
  3
C8
350
41D
  3
C9
350
41E
  3
D0
350
41F
  3
D1
350
420
  3
D2
350
421
  0
DICTIONARY
  5
2A
102
{ACAD_REACTORS
330
C
102
}
330
C
100
AcDbDictionary
281
     1
  3
2dWireframe
350
2F
  3
3D Hidden
350
31
  3
3dWireframe
350
30
  3
Basic
350
32
  3
Brighten
350
36
  3
ColorChange
350
3A
  3
Conceptual
350
34
  3
Dim
350
35
  3
Facepattern
350
39
  3
Flat
350
2B
  3
FlatWithEdges
350
2C
  3
Gouraud
350
2D
  3
GouraudWithEdges
350
2E
  3
Linepattern
350
38
  3
Realistic
350
33
  3
Thicken
350
37
  0
DICTIONARY
  5
447
102
{ACAD_REACTORS
330
C
102
}
330
C
100
AcDbDictionary
281
     1
  3
CANNOSCALE
350
44A
  3
DIMASSOC
350
44B
  3
HIDETEXT
350
44C
  0
LAYOUT
  5
1E
102
{ACAD_REACTORS
330
1A
102
}
330
1A
100
AcDbPlotSettings
  1

  2
none_device
  4

  6

 40
0.0
 41
0.0
 42
0.0
 43
0.0
 44
0.0
 45
0.0
 46
0.0
 47
0.0
 48
0.0
 49
0.0
140
0.0
141
0.0
142
1.0
143
1.0
 70
   688
 72
     0
 73
     0
 74
     5
  7

 75
    16
147
1.0
148
0.0
149
0.0
100
AcDbLayout
  1
Layout1
 70
     1
 71
     1
 10
0.0
 20
0.0
 11
12.0
 21
9.0
 12
0.0
 22
0.0
 32
0.0
 14
1.00000000000000E+20
 24
1.00000000000000E+20
 34
1.00000000000000E+20
 15
-1.00000000000000E+20
 25
-1.00000000000000E+20
 35
-1.00000000000000E+20
146
0.0
 13
0.0
 23
0.0
 33
0.0
 16
1.0
 26
0.0
 36
0.0
 17
0.0
 27
1.0
 37
0.0
 76
     0
330
1B
  0
LAYOUT
  5
26
102
{ACAD_REACTORS
330
1A
102
}
330
1A
100
AcDbPlotSettings
  1

  2
none_device
  4

  6

 40
0.0
 41
0.0
 42
0.0
 43
0.0
 44
0.0
 45
0.0
 46
0.0
 47
0.0
 48
0.0
 49
0.0
140
0.0
141
0.0
142
1.0
143
1.0
 70
   688
 72
     0
 73
     0
 74
     5
  7

 75
    16
147
1.0
148
0.0
149
0.0
100
AcDbLayout
  1
Layout2
 70
     1
 71
     2
 10
0.0
 20
0.0
 11
0.0
 21
0.0
 12
0.0
 22
0.0
 32
0.0
 14
0.0
 24
0.0
 34
0.0
 15
0.0
 25
0.0
 35
0.0
146
0.0
 13
0.0
 23
0.0
 33
0.0
 16
1.0
 26
0.0
 36
0.0
 17
0.0
 27
1.0
 37
0.0
 76
     0
330
23
  0
LAYOUT
  5
22
102
{ACAD_REACTORS
330
1A
102
}
330
1A
100
AcDbPlotSettings
  1

  2
none_device
  4

  6

 40
0.0
 41
0.0
 42
0.0
 43
0.0
 44
0.0
 45
0.0
 46
0.0
 47
0.0
 48
0.0
 49
0.0
140
0.0
141
0.0
142
1.0
143
1.0
 70
  1712
 72
     0
 73
     0
 74
     0
  7

 75
     0
147
1.0
148
0.0
149
0.0
100
AcDbLayout
  1
Model
 70
     1
 71
     0
 10
0.0
 20
0.0
 11
12.0
 21
9.0
 12
0.0
 22
0.0
 32
0.0
 14
18.9999999999994
 24
17.85651379828242
 34
0.0
 15
416.6260625000001
 25
329.0
 35
0.0
146
0.0
 13
0.0
 23
0.0
 33
0.0
 16
1.0
 26
0.0
 36
0.0
 17
0.0
 27
1.0
 37
0.0
 76
     0
330
1F
331
29
  0
MATERIAL
  5
3D
102
{ACAD_REACTORS
330
3B
102
}
102
{ACAD_XDICTIONARY
360
46F
102
}
330
3B
100
AcDbMaterial
  1
ByBlock
  0
MATERIAL
  5
3C
102
{ACAD_REACTORS
330
3B
102
}
102
{ACAD_XDICTIONARY
360
46D
102
}
330
3B
100
AcDbMaterial
  1
ByLayer
  0
MATERIAL
  5
3E
102
{ACAD_REACTORS
330
3B
102
}
102
{ACAD_XDICTIONARY
360
471
102
}
330
3B
100
AcDbMaterial
  1
Global
  0
MLINESTYLE
  5
18
102
{ACAD_REACTORS
330
17
102
}
330
17
100
AcDbMlineStyle
  2
Standard
 70
     0
  3

 62
   256
 51
90.0
 52
90.0
 71
     2
 49
0.5
 62
   256
  6
BYLAYER
 49
-0.5
 62
   256
  6
BYLAYER
  0
ACDBPLACEHOLDER
  5
F
102
{ACAD_REACTORS
330
E
102
}
330
E
  0
SCALE
  5
401
102
{ACAD_REACTORS
330
400
102
}
330
400
100
AcDbScale
 70
     0
300
1:1
140
1.0
141
1.0
290
     1
  0
SCALE
  5
402
102
{ACAD_REACTORS
330
400
102
}
330
400
100
AcDbScale
 70
     0
300
1:2
140
1.0
141
2.0
290
     0
  0
SCALE
  5
403
102
{ACAD_REACTORS
330
400
102
}
330
400
100
AcDbScale
 70
     0
300
1:4
140
1.0
141
4.0
290
     0
  0
SCALE
  5
404
102
{ACAD_REACTORS
330
400
102
}
330
400
100
AcDbScale
 70
     0
300
1:5
140
1.0
141
5.0
290
     0
  0
SCALE
  5
405
102
{ACAD_REACTORS
330
400
102
}
330
400
100
AcDbScale
 70
     0
300
1:8
140
1.0
141
8.0
290
     0
  0
SCALE
  5
406
102
{ACAD_REACTORS
330
400
102
}
330
400
100
AcDbScale
 70
     0
300
1:10
140
1.0
141
10.0
290
     0
  0
SCALE
  5
407
102
{ACAD_REACTORS
330
400
102
}
330
400
100
AcDbScale
 70
     0
300
1:16
140
1.0
141
16.0
290
     0
  0
SCALE
  5
408
102
{ACAD_REACTORS
330
400
102
}
330
400
100
AcDbScale
 70
     0
300
1:20
140
1.0
141
20.0
290
     0
  0
SCALE
  5
409
102
{ACAD_REACTORS
330
400
102
}
330
400
100
AcDbScale
 70
     0
300
1:30
140
1.0
141
30.0
290
     0
  0
SCALE
  5
40A
102
{ACAD_REACTORS
330
400
102
}
330
400
100
AcDbScale
 70
     0
300
1:40
140
1.0
141
40.0
290
     0
  0
SCALE
  5
40B
102
{ACAD_REACTORS
330
400
102
}
330
400
100
AcDbScale
 70
     0
300
1:50
140
1.0
141
50.0
290
     0
  0
SCALE
  5
40C
102
{ACAD_REACTORS
330
400
102
}
330
400
100
AcDbScale
 70
     0
300
1:100
140
1.0
141
100.0
290
     0
  0
SCALE
  5
40D
102
{ACAD_REACTORS
330
400
102
}
330
400
100
AcDbScale
 70
     0
300
2:1
140
2.0
141
1.0
290
     0
  0
SCALE
  5
40E
102
{ACAD_REACTORS
330
400
102
}
330
400
100
AcDbScale
 70
     0
300
4:1
140
4.0
141
1.0
290
     0
  0
SCALE
  5
40F
102
{ACAD_REACTORS
330
400
102
}
330
400
100
AcDbScale
 70
     0
300
8:1
140
8.0
141
1.0
290
     0
  0
SCALE
  5
410
102
{ACAD_REACTORS
330
400
102
}
330
400
100
AcDbScale
 70
     0
300
10:1
140
10.0
141
1.0
290
     0
  0
SCALE
  5
411
102
{ACAD_REACTORS
330
400
102
}
330
400
100
AcDbScale
 70
     0
300
100:1
140
100.0
141
1.0
290
     0
  0
SCALE
  5
412
102
{ACAD_REACTORS
330
400
102
}
330
400
100
AcDbScale
 70
     0
300
1/128" = 1'-0"
140
0.0078125
141
12.0
290
     0
  0
SCALE
  5
413
102
{ACAD_REACTORS
330
400
102
}
330
400
100
AcDbScale
 70
     0
300
1/64" = 1'-0"
140
0.015625
141
12.0
290
     0
  0
SCALE
  5
414
102
{ACAD_REACTORS
330
400
102
}
330
400
100
AcDbScale
 70
     0
300
1/32" = 1'-0"
140
0.03125
141
12.0
290
     0
  0
SCALE
  5
415
102
{ACAD_REACTORS
330
400
102
}
330
400
100
AcDbScale
 70
     0
300
1/16" = 1'-0"
140
0.0625
141
12.0
290
     0
  0
SCALE
  5
416
102
{ACAD_REACTORS
330
400
102
}
330
400
100
AcDbScale
 70
     0
300
3/32" = 1'-0"
140
0.09375
141
12.0
290
     0
  0
SCALE
  5
417
102
{ACAD_REACTORS
330
400
102
}
330
400
100
AcDbScale
 70
     0
300
1/8" = 1'-0"
140
0.125
141
12.0
290
     0
  0
SCALE
  5
418
102
{ACAD_REACTORS
330
400
102
}
330
400
100
AcDbScale
 70
     0
300
3/16" = 1'-0"
140
0.1875
141
12.0
290
     0
  0
SCALE
  5
419
102
{ACAD_REACTORS
330
400
102
}
330
400
100
AcDbScale
 70
     0
300
1/4" = 1'-0"
140
0.25
141
12.0
290
     0
  0
SCALE
  5
41A
102
{ACAD_REACTORS
330
400
102
}
330
400
100
AcDbScale
 70
     0
300
3/8" = 1'-0"
140
0.375
141
12.0
290
     0
  0
SCALE
  5
41B
102
{ACAD_REACTORS
330
400
102
}
330
400
100
AcDbScale
 70
     0
300
1/2" = 1'-0"
140
0.5
141
12.0
290
     0
  0
SCALE
  5
41C
102
{ACAD_REACTORS
330
400
102
}
330
400
100
AcDbScale
 70
     0
300
3/4" = 1'-0"
140
0.75
141
12.0
290
     0
  0
SCALE
  5
41D
102
{ACAD_REACTORS
330
400
102
}
330
400
100
AcDbScale
 70
     0
300
1" = 1'-0"
140
1.0
141
12.0
290
     0
  0
SCALE
  5
41E
102
{ACAD_REACTORS
330
400
102
}
330
400
100
AcDbScale
 70
     0
300
1-1/2" = 1'-0"
140
1.5
141
12.0
290
     0
  0
SCALE
  5
41F
102
{ACAD_REACTORS
330
400
102
}
330
400
100
AcDbScale
 70
     0
300
3" = 1'-0"
140
3.0
141
12.0
290
     0
  0
SCALE
  5
420
102
{ACAD_REACTORS
330
400
102
}
330
400
100
AcDbScale
 70
     0
300
6" = 1'-0"
140
6.0
141
12.0
290
     0
  0
SCALE
  5
421
102
{ACAD_REACTORS
330
400
102
}
330
400
100
AcDbScale
 70
     0
300
1'-0" = 1'-0"
140
12.0
141
12.0
290
     0
  0
VISUALSTYLE
  5
2F
102
{ACAD_REACTORS
330
2A
102
}
102
{ACAD_XDICTIONARY
360
455
102
}
330
2A
100
AcDbVisualStyle
  2
2dWireframe
 70
     4
 71
     0
 72
     2
 73
     0
 90
        0
 40
-0.6
 41
-30.0
 62
     5
 63
     7
 74
     1
 91
        4
 64
     7
 65
   257
 75
     1
175
     1
 42
1.0
 92
        0
 66
   257
 43
1.0
 76
     1
 77
     6
 78
     2
 67
     7
 79
     5
170
     0
171
     0
290
     0
174
     0
 93
        1
 44
0.0
173
     0
291
     0
 45
0.0
1001
ACAD
1000
AcDbSavedByObjectVersion
1070
     0
  0
VISUALSTYLE
  5
31
102
{ACAD_REACTORS
330
2A
102
}
102
{ACAD_XDICTIONARY
360
459
102
}
330
2A
100
AcDbVisualStyle
  2
3D Hidden
 70
     6
 71
     1
 72
     2
 73
     2
 90
        0
 40
-0.6
 41
-30.0
 62
     5
 63
     7
 74
     2
 91
        2
 64
     7
 65
   257
 75
     2
175
     1
 42
40.0
 92
        0
 66
   257
 43
1.0
 76
     1
 77
     6
 78
     2
 67
     7
 79
     3
170
     0
171
     0
290
     0
174
     0
 93
        1
 44
0.0
173
     0
291
     0
 45
0.0
1001
ACAD
1000
AcDbSavedByObjectVersion
1070
     0
  0
VISUALSTYLE
  5
30
102
{ACAD_REACTORS
330
2A
102
}
102
{ACAD_XDICTIONARY
360
457
102
}
330
2A
100
AcDbVisualStyle
  2
3dWireframe
 70
     5
 71
     0
 72
     2
 73
     0
 90
        0
 40
-0.6
 41
-30.0
 62
     5
 63
     7
 74
     1
 91
        4
 64
     7
 65
   257
 75
     1
175
     1
 42
1.0
 92
        0
 66
   257
 43
1.0
 76
     1
 77
     6
 78
     2
 67
     7
 79
     5
170
     0
171
     0
290
     0
174
     0
 93
        1
 44
0.0
173
     0
291
     0
 45
0.0
1001
ACAD
1000
AcDbSavedByObjectVersion
1070
     0
  0
VISUALSTYLE
  5
32
102
{ACAD_REACTORS
330
2A
102
}
102
{ACAD_XDICTIONARY
360
45B
102
}
330
2A
100
AcDbVisualStyle
  2
Basic
 70
     7
 71
     1
 72
     0
 73
     1
 90
        0
 40
-0.6
 41
-30.0
 62
     5
 63
     7
 74
     0
 91
        4
 64
     7
 65
   257
 75
     1
175
     1
 42
1.0
 92
        8
 66
     7
 43
1.0
 76
     1
 77
     6
 78
     2
 67
     7
 79
     5
170
     0
171
     0
290
     0
174
     0
 93
        1
 44
0.0
173
     0
291
     1
 45
0.0
1001
ACAD
1000
AcDbSavedByObjectVersion
1070
     0
  0
VISUALSTYLE
  5
36
102
{ACAD_REACTORS
330
2A
102
}
102
{ACAD_XDICTIONARY
360
463
102
}
330
2A
100
AcDbVisualStyle
  2
Brighten
 70
    12
 71
     2
 72
     2
 73
     0
 90
        0
 40
-0.6
 41
-30.0
 62
     5
 63
     7
 74
     1
 91
        4
 64
     7
 65
   257
 75
     1
175
     1
 42
1.0
 92
        8
 66
     7
 43
1.0
 76
     1
 77
     6
 78
     2
 67
     7
 79
     5
170
     0
171
     0
290
     0
174
     0
 93
        1
 44
50.0
173
     0
291
     1
 45
0.0
1001
ACAD
1000
AcDbSavedByObjectVersion
1070
     0
  0
VISUALSTYLE
  5
3A
102
{ACAD_REACTORS
330
2A
102
}
102
{ACAD_XDICTIONARY
360
46B
102
}
330
2A
100
AcDbVisualStyle
  2
ColorChange
 70
    16
 71
     2
 72
     2
 73
     3
 90
        0
 40
-0.6
 41
-30.0
 62
     5
 63
     8
 74
     1
 91
        4
 64
     7
 65
   257
 75
     1
175
     1
 42
1.0
 92
        8
 66
     8
 43
1.0
 76
     1
 77
     6
 78
     2
 67
     7
 79
     5
170
     0
171
     0
290
     0
174
     0
 93
        1
 44
0.0
173
     0
291
     1
 45
0.0
1001
ACAD
1000
AcDbSavedByObjectVersion
1070
     0
  0
VISUALSTYLE
  5
34
102
{ACAD_REACTORS
330
2A
102
}
102
{ACAD_XDICTIONARY
360
45F
102
}
330
2A
100
AcDbVisualStyle
  2
Conceptual
 70
     9
 71
     3
 72
     2
 73
     0
 90
        0
 40
-0.6
 41
-30.0
 62
     5
 63
     7
 74
     2
 91
        2
 64
     7
 65
   257
 75
     1
175
     1
 42
40.0
 92
        8
 66
     7
 43
1.0
 76
     1
 77
     6
 78
     2
 67
     7
 79
     3
170
     0
171
     0
290
     0
174
     0
 93
        1
 44
0.0
173
     0
291
     0
 45
0.0
1001
ACAD
1000
AcDbSavedByObjectVersion
1070
     0
  0
VISUALSTYLE
  5
35
102
{ACAD_REACTORS
330
2A
102
}
102
{ACAD_XDICTIONARY
360
461
102
}
330
2A
100
AcDbVisualStyle
  2
Dim
 70
    11
 71
     2
 72
     2
 73
     0
 90
        0
 40
-0.6
 41
-30.0
 62
     5
 63
     7
 74
     1
 91
        4
 64
     7
 65
   257
 75
     1
175
     1
 42
1.0
 92
        8
 66
     7
 43
1.0
 76
     1
 77
     6
 78
     2
 67
     7
 79
     5
170
     0
171
     0
290
     0
174
     0
 93
        1
 44
-50.0
173
     0
291
     1
 45
0.0
1001
ACAD
1000
AcDbSavedByObjectVersion
1070
     0
  0
VISUALSTYLE
  5
39
102
{ACAD_REACTORS
330
2A
102
}
102
{ACAD_XDICTIONARY
360
469
102
}
330
2A
100
AcDbVisualStyle
  2
Facepattern
 70
    15
 71
     2
 72
     2
 73
     0
 90
        0
 40
-0.6
 41
-30.0
 62
     5
 63
     7
 74
     1
 91
        4
 64
     7
 65
   257
 75
     1
175
     1
 42
1.0
 92
        8
 66
     7
 43
1.0
 76
     1
 77
     6
 78
     2
 67
     7
 79
     5
170
     0
171
     0
290
     0
174
     0
 93
        1
 44
0.0
173
     0
291
     1
 45
0.0
1001
ACAD
1000
AcDbSavedByObjectVersion
1070
     0
  0
VISUALSTYLE
  5
2B
102
{ACAD_REACTORS
330
2A
102
}
102
{ACAD_XDICTIONARY
360
44D
102
}
330
2A
100
AcDbVisualStyle
  2
Flat
 70
     0
 71
     2
 72
     1
 73
     1
 90
        2
 40
-0.6
 41
30.0
 62
     5
 63
     7
 74
     0
 91
        4
 64
     7
 65
   257
 75
     1
175
     1
 42
1.0
 92
        8
 66
     7
 43
1.0
 76
     1
 77
     6
 78
     2
 67
     7
 79
     5
170
     0
171
     0
290
     0
174
     0
 93
       13
 44
0.0
173
     0
291
     1
 45
0.0
1001
ACAD
1000
AcDbSavedByObjectVersion
1070
     0
  0
VISUALSTYLE
  5
2C
102
{ACAD_REACTORS
330
2A
102
}
102
{ACAD_XDICTIONARY
360
44F
102
}
330
2A
100
AcDbVisualStyle
  2
FlatWithEdges
 70
     1
 71
     2
 72
     1
 73
     1
 90
        2
 40
-0.6
 41
30.0
 62
     5
 63
     7
 74
     1
 91
        4
 64
     7
 65
   257
 75
     1
175
     1
 42
1.0
 92
        0
 66
   257
 43
1.0
 76
     1
 77
     6
 78
     2
 67
     7
 79
     5
170
     0
171
     0
290
     0
174
     0
 93
       13
 44
0.0
173
     0
291
     1
 45
0.0
1001
ACAD
1000
AcDbSavedByObjectVersion
1070
     0
  0
VISUALSTYLE
  5
2D
102
{ACAD_REACTORS
330
2A
102
}
102
{ACAD_XDICTIONARY
360
451
102
}
330
2A
100
AcDbVisualStyle
  2
Gouraud
 70
     2
 71
     2
 72
     2
 73
     1
 90
        2
 40
-0.6
 41
30.0
 62
     5
 63
     7
 74
     0
 91
        4
 64
     7
 65
   257
 75
     1
175
     1
 42
1.0
 92
        0
 66
     7
 43
1.0
 76
     1
 77
     6
 78
     2
 67
     7
 79
     5
170
     0
171
     0
290
     0
174
     0
 93
       13
 44
0.0
173
     0
291
     1
 45
0.0
1001
ACAD
1000
AcDbSavedByObjectVersion
1070
     0
  0
VISUALSTYLE
  5
2E
102
{ACAD_REACTORS
330
2A
102
}
102
{ACAD_XDICTIONARY
360
453
102
}
330
2A
100
AcDbVisualStyle
  2
GouraudWithEdges
 70
     3
 71
     2
 72
     2
 73
     1
 90
        2
 40
-0.6
 41
30.0
 62
     5
 63
     7
 74
     1
 91
        4
 64
     7
 65
   257
 75
     1
175
     1
 42
1.0
 92
        0
 66
   257
 43
1.0
 76
     1
 77
     6
 78
     2
 67
     7
 79
     5
170
     0
171
     0
290
     0
174
     0
 93
       13
 44
0.0
173
     0
291
     1
 45
0.0
1001
ACAD
1000
AcDbSavedByObjectVersion
1070
     0
  0
VISUALSTYLE
  5
38
102
{ACAD_REACTORS
330
2A
102
}
102
{ACAD_XDICTIONARY
360
467
102
}
330
2A
100
AcDbVisualStyle
  2
Linepattern
 70
    14
 71
     2
 72
     2
 73
     0
 90
        0
 40
-0.6
 41
-30.0
 62
     5
 63
     7
 74
     1
 91
        4
 64
     7
 65
   257
 75
     7
175
     7
 42
1.0
 92
        8
 66
     7
 43
1.0
 76
     1
 77
     6
 78
     2
 67
     7
 79
     5
170
     0
171
     0
290
     0
174
     0
 93
        1
 44
0.0
173
     0
291
     1
 45
0.0
1001
ACAD
1000
AcDbSavedByObjectVersion
1070
     0
  0
VISUALSTYLE
  5
33
102
{ACAD_REACTORS
330
2A
102
}
102
{ACAD_XDICTIONARY
360
45D
102
}
330
2A
100
AcDbVisualStyle
  2
Realistic
 70
     8
 71
     2
 72
     2
 73
     0
 90
        0
 40
-0.6
 41
-30.0
 62
     5
 63
     7
 74
     1
 91
        0
 64
     7
 65
   257
 75
     1
175
     1
 42
1.0
 92
        8
 66
     8
 43
1.0
 76
     1
 77
     6
 78
     2
 67
     7
 79
     5
170
     0
171
     0
290
     0
174
     0
 93
       13
 44
0.0
173
     0
291
     0
 45
0.0
1001
ACAD
1000
AcDbSavedByObjectVersion
1070
     0
  0
VISUALSTYLE
  5
37
102
{ACAD_REACTORS
330
2A
102
}
102
{ACAD_XDICTIONARY
360
465
102
}
330
2A
100
AcDbVisualStyle
  2
Thicken
 70
    13
 71
     2
 72
     2
 73
     0
 90
        0
 40
-0.6
 41
-30.0
 62
     5
 63
     7
 74
     1
 91
        4
 64
     7
 65
   257
 75
     1
175
     1
 42
1.0
 92
       12
 66
     7
 43
1.0
 76
     1
 77
     6
 78
     2
 67
     7
 79
     5
170
     0
171
     0
290
     0
174
     0
 93
        1
 44
0.0
173
     0
291
     1
 45
0.0
1001
ACAD
1000
AcDbSavedByObjectVersion
1070
     0
  0
DICTIONARYVAR
  5
44A
102
{ACAD_REACTORS
330
447
102
}
330
447
100
DictionaryVariables
280
     0
  1
1:1
  0
DICTIONARYVAR
  5
44B
102
{ACAD_REACTORS
330
447
102
}
330
447
100
DictionaryVariables
280
     0
  1
2
  0
DICTIONARYVAR
  5
44C
102
{ACAD_REACTORS
330
447
102
}
330
447
100
DictionaryVariables
280
     0
  1
1
  0
DICTIONARY
  5
46F
330
3D
100
AcDbDictionary
280
     1
281
     1
  3
ACAD_XREC_ROUNDTRIP
360
470
  0
DICTIONARY
  5
46D
330
3C
100
AcDbDictionary
280
     1
281
     1
  3
ACAD_XREC_ROUNDTRIP
360
46E
  0
DICTIONARY
  5
471
330
3E
100
AcDbDictionary
280
     1
281
     1
  3
ACAD_XREC_ROUNDTRIP
360
472
  0
DICTIONARY
  5
455
330
2F
100
AcDbDictionary
280
     1
281
     1
  3
ACAD_XREC_ROUNDTRIP
360
456
  0
DICTIONARY
  5
459
330
31
100
AcDbDictionary
280
     1
281
     1
  3
ACAD_XREC_ROUNDTRIP
360
45A
  0
DICTIONARY
  5
457
330
30
100
AcDbDictionary
280
     1
281
     1
  3
ACAD_XREC_ROUNDTRIP
360
458
  0
DICTIONARY
  5
45B
330
32
100
AcDbDictionary
280
     1
281
     1
  3
ACAD_XREC_ROUNDTRIP
360
45C
  0
DICTIONARY
  5
463
330
36
100
AcDbDictionary
280
     1
281
     1
  3
ACAD_XREC_ROUNDTRIP
360
464
  0
DICTIONARY
  5
46B
330
3A
100
AcDbDictionary
280
     1
281
     1
  3
ACAD_XREC_ROUNDTRIP
360
46C
  0
DICTIONARY
  5
45F
330
34
100
AcDbDictionary
280
     1
281
     1
  3
ACAD_XREC_ROUNDTRIP
360
460
  0
DICTIONARY
  5
461
330
35
100
AcDbDictionary
280
     1
281
     1
  3
ACAD_XREC_ROUNDTRIP
360
462
  0
DICTIONARY
  5
469
330
39
100
AcDbDictionary
280
     1
281
     1
  3
ACAD_XREC_ROUNDTRIP
360
46A
  0
DICTIONARY
  5
44D
330
2B
100
AcDbDictionary
280
     1
281
     1
  3
ACAD_XREC_ROUNDTRIP
360
44E
  0
DICTIONARY
  5
44F
330
2C
100
AcDbDictionary
280
     1
281
     1
  3
ACAD_XREC_ROUNDTRIP
360
450
  0
DICTIONARY
  5
451
330
2D
100
AcDbDictionary
280
     1
281
     1
  3
ACAD_XREC_ROUNDTRIP
360
452
  0
DICTIONARY
  5
453
330
2E
100
AcDbDictionary
280
     1
281
     1
  3
ACAD_XREC_ROUNDTRIP
360
454
  0
DICTIONARY
  5
467
330
38
100
AcDbDictionary
280
     1
281
     1
  3
ACAD_XREC_ROUNDTRIP
360
468
  0
DICTIONARY
  5
45D
330
33
100
AcDbDictionary
280
     1
281
     1
  3
ACAD_XREC_ROUNDTRIP
360
45E
  0
DICTIONARY
  5
465
330
37
100
AcDbDictionary
280
     1
281
     1
  3
ACAD_XREC_ROUNDTRIP
360
466
  0
XRECORD
  5
470
102
{ACAD_REACTORS
330
46F
102
}
330
46F
100
AcDbXrecord
280
     1
102
MATERIAL
148
0.0
149
0.0
149
0.0
 93
        0
 94
      127
282
     0
 72
     1
 77
     1
171
     1
175
     1
179
     1
273
     0
  0
XRECORD
  5
46E
102
{ACAD_REACTORS
330
46D
102
}
330
46D
100
AcDbXrecord
280
     1
102
MATERIAL
148
0.0
149
0.0
149
0.0
 93
        0
 94
      127
282
     0
 72
     1
 77
     1
171
     1
175
     1
179
     1
273
     0
  0
XRECORD
  5
472
102
{ACAD_REACTORS
330
471
102
}
330
471
100
AcDbXrecord
280
     1
102
MATERIAL
148
0.0
149
0.0
149
0.0
 93
        0
 94
      127
282
     0
 72
     1
 77
     1
171
     1
175
     1
179
     1
273
     0
  0
XRECORD
  5
456
102
{ACAD_REACTORS
330
455
102
}
330
455
100
AcDbXrecord
280
     1
102
RTVSPropertyOp0
 70
     1
102
RTVSPropertyOp1
 70
     1
102
RTVSPropertyOp2
 70
     1
102
RTVSPropertyOp3
 70
     1
102
RTVSPropertyOp4
 70
     1
102
RTVSPropertyOp5
 70
     1
102
RTVSPropertyOp6
 70
     1
102
RTVSPropertyOp7
 70
     1
102
RTVSPropertyOp8
 70
     1
102
RTVSPropertyOp9
 70
     1
102
RTVSPropertyOp10
 70
     1
102
RTVSPropertyOp11
 70
     1
102
RTVSPropertyOp12
 70
     1
102
RTVSPropertyOp13
 70
     1
102
RTVSPropertyOp14
 70
     1
102
RTVSPropertyOp15
 70
     1
102
RTVSPropertyOp16
 70
     1
102
RTVSPropertyOp17
 70
     1
102
RTVSPropertyOp18
 70
     1
102
RTVSPropertyOp19
 70
     1
102
RTVSPropertyOp20
 70
     1
102
RTVSPropertyOp21
 70
     1
102
RTVSPropertyOp22
 70
     1
102
RTVSPropertyOp23
 70
     1
102
RTVSPropertyOp24
 70
     1
102
RTVSPropertyOp25
 70
     1
102
RTVSPropertyOp26
 70
     1
102
RTVSPropertyOp27
 70
     1
  0
XRECORD
  5
45A
102
{ACAD_REACTORS
330
459
102
}
330
459
100
AcDbXrecord
280
     1
102
RTVSPropertyOp0
 70
     1
102
RTVSPropertyOp1
 70
     1
102
RTVSPropertyOp2
 70
     1
102
RTVSPropertyOp3
 70
     1
102
RTVSPropertyOp4
 70
     1
102
RTVSPropertyOp5
 70
     1
102
RTVSPropertyOp6
 70
     1
102
RTVSPropertyOp7
 70
     1
102
RTVSPropertyOp8
 70
     1
102
RTVSPropertyOp9
 70
     1
102
RTVSPropertyOp10
 70
     1
102
RTVSPropertyOp11
 70
     1
102
RTVSPropertyOp12
 70
     1
102
RTVSPropertyOp13
 70
     1
102
RTVSPropertyOp14
 70
     1
102
RTVSPropertyOp15
 70
     1
102
RTVSPropertyOp16
 70
     1
102
RTVSPropertyOp17
 70
     1
102
RTVSPropertyOp18
 70
     1
102
RTVSPropertyOp19
 70
     1
102
RTVSPropertyOp20
 70
     1
102
RTVSPropertyOp21
 70
     1
102
RTVSPropertyOp22
 70
     1
102
RTVSPropertyOp23
 70
     1
102
RTVSPropertyOp24
 70
     1
102
RTVSPropertyOp25
 70
     1
102
RTVSPropertyOp26
 70
     1
102
RTVSPropertyOp27
 70
     1
  0
XRECORD
  5
458
102
{ACAD_REACTORS
330
457
102
}
330
457
100
AcDbXrecord
280
     1
102
RTVSPropertyOp0
 70
     1
102
RTVSPropertyOp1
 70
     1
102
RTVSPropertyOp2
 70
     1
102
RTVSPropertyOp3
 70
     1
102
RTVSPropertyOp4
 70
     1
102
RTVSPropertyOp5
 70
     1
102
RTVSPropertyOp6
 70
     1
102
RTVSPropertyOp7
 70
     1
102
RTVSPropertyOp8
 70
     1
102
RTVSPropertyOp9
 70
     1
102
RTVSPropertyOp10
 70
     1
102
RTVSPropertyOp11
 70
     1
102
RTVSPropertyOp12
 70
     1
102
RTVSPropertyOp13
 70
     1
102
RTVSPropertyOp14
 70
     1
102
RTVSPropertyOp15
 70
     1
102
RTVSPropertyOp16
 70
     1
102
RTVSPropertyOp17
 70
     1
102
RTVSPropertyOp18
 70
     1
102
RTVSPropertyOp19
 70
     1
102
RTVSPropertyOp20
 70
     1
102
RTVSPropertyOp21
 70
     1
102
RTVSPropertyOp22
 70
     1
102
RTVSPropertyOp23
 70
     1
102
RTVSPropertyOp24
 70
     1
102
RTVSPropertyOp25
 70
     1
102
RTVSPropertyOp26
 70
     1
102
RTVSPropertyOp27
 70
     1
  0
XRECORD
  5
45C
102
{ACAD_REACTORS
330
45B
102
}
330
45B
100
AcDbXrecord
280
     1
102
RTVSPropertyOp0
 70
     1
102
RTVSPropertyOp1
 70
     1
102
RTVSPropertyOp2
 70
     1
102
RTVSPropertyOp3
 70
     1
102
RTVSPropertyOp4
 70
     1
102
RTVSPropertyOp5
 70
     1
102
RTVSPropertyOp6
 70
     1
102
RTVSPropertyOp7
 70
     1
102
RTVSPropertyOp8
 70
     1
102
RTVSPropertyOp9
 70
     1
102
RTVSPropertyOp10
 70
     1
102
RTVSPropertyOp11
 70
     1
102
RTVSPropertyOp12
 70
     1
102
RTVSPropertyOp13
 70
     1
102
RTVSPropertyOp14
 70
     1
102
RTVSPropertyOp15
 70
     1
102
RTVSPropertyOp16
 70
     1
102
RTVSPropertyOp17
 70
     1
102
RTVSPropertyOp18
 70
     1
102
RTVSPropertyOp19
 70
     1
102
RTVSPropertyOp20
 70
     1
102
RTVSPropertyOp21
 70
     1
102
RTVSPropertyOp22
 70
     1
102
RTVSPropertyOp23
 70
     1
102
RTVSPropertyOp24
 70
     1
102
RTVSPropertyOp25
 70
     1
102
RTVSPropertyOp26
 70
     1
102
RTVSPropertyOp27
 70
     1
  0
XRECORD
  5
464
102
{ACAD_REACTORS
330
463
102
}
330
463
100
AcDbXrecord
280
     1
102
RTVSPropertyOp0
 70
     1
102
RTVSPropertyOp1
 70
     1
102
RTVSPropertyOp2
 70
     1
102
RTVSPropertyOp3
 70
     1
102
RTVSPropertyOp4
 70
     1
102
RTVSPropertyOp5
 70
     1
102
RTVSPropertyOp6
 70
     1
102
RTVSPropertyOp7
 70
     1
102
RTVSPropertyOp8
 70
     1
102
RTVSPropertyOp9
 70
     1
102
RTVSPropertyOp10
 70
     1
102
RTVSPropertyOp11
 70
     1
102
RTVSPropertyOp12
 70
     1
102
RTVSPropertyOp13
 70
     1
102
RTVSPropertyOp14
 70
     1
102
RTVSPropertyOp15
 70
     1
102
RTVSPropertyOp16
 70
     1
102
RTVSPropertyOp17
 70
     1
102
RTVSPropertyOp18
 70
     1
102
RTVSPropertyOp19
 70
     1
102
RTVSPropertyOp20
 70
     1
102
RTVSPropertyOp21
 70
     1
102
RTVSPropertyOp22
 70
     1
102
RTVSPropertyOp23
 70
     1
102
RTVSPropertyOp24
 70
     1
102
RTVSPropertyOp25
 70
     1
102
RTVSPropertyOp26
 70
     1
102
RTVSPropertyOp27
 70
     1
  0
XRECORD
  5
46C
102
{ACAD_REACTORS
330
46B
102
}
330
46B
100
AcDbXrecord
280
     1
102
RTVSPropertyOp0
 70
     1
102
RTVSPropertyOp1
 70
     1
102
RTVSPropertyOp2
 70
     1
102
RTVSPropertyOp3
 70
     1
102
RTVSPropertyOp4
 70
     1
102
RTVSPropertyOp5
 70
     1
102
RTVSPropertyOp6
 70
     1
102
RTVSPropertyOp7
 70
     1
102
RTVSPropertyOp8
 70
     1
102
RTVSPropertyOp9
 70
     1
102
RTVSPropertyOp10
 70
     1
102
RTVSPropertyOp11
 70
     1
102
RTVSPropertyOp12
 70
     1
102
RTVSPropertyOp13
 70
     1
102
RTVSPropertyOp14
 70
     1
102
RTVSPropertyOp15
 70
     1
102
RTVSPropertyOp16
 70
     1
102
RTVSPropertyOp17
 70
     1
102
RTVSPropertyOp18
 70
     1
102
RTVSPropertyOp19
 70
     1
102
RTVSPropertyOp20
 70
     1
102
RTVSPropertyOp21
 70
     1
102
RTVSPropertyOp22
 70
     1
102
RTVSPropertyOp23
 70
     1
102
RTVSPropertyOp24
 70
     1
102
RTVSPropertyOp25
 70
     1
102
RTVSPropertyOp26
 70
     1
102
RTVSPropertyOp27
 70
     1
  0
XRECORD
  5
460
102
{ACAD_REACTORS
330
45F
102
}
330
45F
100
AcDbXrecord
280
     1
102
RTVSPropertyOp0
 70
     1
102
RTVSPropertyOp1
 70
     1
102
RTVSPropertyOp2
 70
     1
102
RTVSPropertyOp3
 70
     1
102
RTVSPropertyOp4
 70
     1
102
RTVSPropertyOp5
 70
     1
102
RTVSPropertyOp6
 70
     1
102
RTVSPropertyOp7
 70
     1
102
RTVSPropertyOp8
 70
     1
102
RTVSPropertyOp9
 70
     1
102
RTVSPropertyOp10
 70
     1
102
RTVSPropertyOp11
 70
     1
102
RTVSPropertyOp12
 70
     1
102
RTVSPropertyOp13
 70
     1
102
RTVSPropertyOp14
 70
     1
102
RTVSPropertyOp15
 70
     1
102
RTVSPropertyOp16
 70
     1
102
RTVSPropertyOp17
 70
     1
102
RTVSPropertyOp18
 70
     1
102
RTVSPropertyOp19
 70
     1
102
RTVSPropertyOp20
 70
     1
102
RTVSPropertyOp21
 70
     1
102
RTVSPropertyOp22
 70
     1
102
RTVSPropertyOp23
 70
     1
102
RTVSPropertyOp24
 70
     1
102
RTVSPropertyOp25
 70
     1
102
RTVSPropertyOp26
 70
     1
102
RTVSPropertyOp27
 70
     1
  0
XRECORD
  5
462
102
{ACAD_REACTORS
330
461
102
}
330
461
100
AcDbXrecord
280
     1
102
RTVSPropertyOp0
 70
     1
102
RTVSPropertyOp1
 70
     1
102
RTVSPropertyOp2
 70
     1
102
RTVSPropertyOp3
 70
     1
102
RTVSPropertyOp4
 70
     1
102
RTVSPropertyOp5
 70
     1
102
RTVSPropertyOp6
 70
     1
102
RTVSPropertyOp7
 70
     1
102
RTVSPropertyOp8
 70
     1
102
RTVSPropertyOp9
 70
     1
102
RTVSPropertyOp10
 70
     1
102
RTVSPropertyOp11
 70
     1
102
RTVSPropertyOp12
 70
     1
102
RTVSPropertyOp13
 70
     1
102
RTVSPropertyOp14
 70
     1
102
RTVSPropertyOp15
 70
     1
102
RTVSPropertyOp16
 70
     1
102
RTVSPropertyOp17
 70
     1
102
RTVSPropertyOp18
 70
     1
102
RTVSPropertyOp19
 70
     1
102
RTVSPropertyOp20
 70
     1
102
RTVSPropertyOp21
 70
     1
102
RTVSPropertyOp22
 70
     1
102
RTVSPropertyOp23
 70
     1
102
RTVSPropertyOp24
 70
     1
102
RTVSPropertyOp25
 70
     1
102
RTVSPropertyOp26
 70
     1
102
RTVSPropertyOp27
 70
     1
  0
XRECORD
  5
46A
102
{ACAD_REACTORS
330
469
102
}
330
469
100
AcDbXrecord
280
     1
102
RTVSPropertyOp0
 70
     1
102
RTVSPropertyOp1
 70
     1
102
RTVSPropertyOp2
 70
     1
102
RTVSPropertyOp3
 70
     1
102
RTVSPropertyOp4
 70
     1
102
RTVSPropertyOp5
 70
     1
102
RTVSPropertyOp6
 70
     1
102
RTVSPropertyOp7
 70
     1
102
RTVSPropertyOp8
 70
     1
102
RTVSPropertyOp9
 70
     1
102
RTVSPropertyOp10
 70
     1
102
RTVSPropertyOp11
 70
     1
102
RTVSPropertyOp12
 70
     1
102
RTVSPropertyOp13
 70
     1
102
RTVSPropertyOp14
 70
     1
102
RTVSPropertyOp15
 70
     1
102
RTVSPropertyOp16
 70
     1
102
RTVSPropertyOp17
 70
     1
102
RTVSPropertyOp18
 70
     1
102
RTVSPropertyOp19
 70
     1
102
RTVSPropertyOp20
 70
     1
102
RTVSPropertyOp21
 70
     1
102
RTVSPropertyOp22
 70
     1
102
RTVSPropertyOp23
 70
     1
102
RTVSPropertyOp24
 70
     1
102
RTVSPropertyOp25
 70
     1
102
RTVSPropertyOp26
 70
     1
102
RTVSPropertyOp27
 70
     1
  0
XRECORD
  5
44E
102
{ACAD_REACTORS
330
44D
102
}
330
44D
100
AcDbXrecord
280
     1
102
RTVSPropertyOp0
 70
     1
102
RTVSPropertyOp1
 70
     1
102
RTVSPropertyOp2
 70
     1
102
RTVSPropertyOp3
 70
     1
102
RTVSPropertyOp4
 70
     1
102
RTVSPropertyOp5
 70
     1
102
RTVSPropertyOp6
 70
     1
102
RTVSPropertyOp7
 70
     1
102
RTVSPropertyOp8
 70
     1
102
RTVSPropertyOp9
 70
     1
102
RTVSPropertyOp10
 70
     1
102
RTVSPropertyOp11
 70
     1
102
RTVSPropertyOp12
 70
     1
102
RTVSPropertyOp13
 70
     1
102
RTVSPropertyOp14
 70
     1
102
RTVSPropertyOp15
 70
     1
102
RTVSPropertyOp16
 70
     1
102
RTVSPropertyOp17
 70
     1
102
RTVSPropertyOp18
 70
     1
102
RTVSPropertyOp19
 70
     1
102
RTVSPropertyOp20
 70
     1
102
RTVSPropertyOp21
 70
     1
102
RTVSPropertyOp22
 70
     1
102
RTVSPropertyOp23
 70
     1
102
RTVSPropertyOp24
 70
     1
102
RTVSPropertyOp25
 70
     1
102
RTVSPropertyOp26
 70
     1
102
RTVSPropertyOp27
 70
     1
  0
XRECORD
  5
450
102
{ACAD_REACTORS
330
44F
102
}
330
44F
100
AcDbXrecord
280
     1
102
RTVSPropertyOp0
 70
     1
102
RTVSPropertyOp1
 70
     1
102
RTVSPropertyOp2
 70
     1
102
RTVSPropertyOp3
 70
     1
102
RTVSPropertyOp4
 70
     1
102
RTVSPropertyOp5
 70
     1
102
RTVSPropertyOp6
 70
     1
102
RTVSPropertyOp7
 70
     1
102
RTVSPropertyOp8
 70
     1
102
RTVSPropertyOp9
 70
     1
102
RTVSPropertyOp10
 70
     1
102
RTVSPropertyOp11
 70
     1
102
RTVSPropertyOp12
 70
     1
102
RTVSPropertyOp13
 70
     1
102
RTVSPropertyOp14
 70
     1
102
RTVSPropertyOp15
 70
     1
102
RTVSPropertyOp16
 70
     1
102
RTVSPropertyOp17
 70
     1
102
RTVSPropertyOp18
 70
     1
102
RTVSPropertyOp19
 70
     1
102
RTVSPropertyOp20
 70
     1
102
RTVSPropertyOp21
 70
     1
102
RTVSPropertyOp22
 70
     1
102
RTVSPropertyOp23
 70
     1
102
RTVSPropertyOp24
 70
     1
102
RTVSPropertyOp25
 70
     1
102
RTVSPropertyOp26
 70
     1
102
RTVSPropertyOp27
 70
     1
  0
XRECORD
  5
452
102
{ACAD_REACTORS
330
451
102
}
330
451
100
AcDbXrecord
280
     1
102
RTVSPropertyOp0
 70
     1
102
RTVSPropertyOp1
 70
     1
102
RTVSPropertyOp2
 70
     1
102
RTVSPropertyOp3
 70
     1
102
RTVSPropertyOp4
 70
     1
102
RTVSPropertyOp5
 70
     1
102
RTVSPropertyOp6
 70
     1
102
RTVSPropertyOp7
 70
     1
102
RTVSPropertyOp8
 70
     1
102
RTVSPropertyOp9
 70
     1
102
RTVSPropertyOp10
 70
     1
102
RTVSPropertyOp11
 70
     1
102
RTVSPropertyOp12
 70
     1
102
RTVSPropertyOp13
 70
     1
102
RTVSPropertyOp14
 70
     1
102
RTVSPropertyOp15
 70
     1
102
RTVSPropertyOp16
 70
     1
102
RTVSPropertyOp17
 70
     1
102
RTVSPropertyOp18
 70
     1
102
RTVSPropertyOp19
 70
     1
102
RTVSPropertyOp20
 70
     1
102
RTVSPropertyOp21
 70
     1
102
RTVSPropertyOp22
 70
     1
102
RTVSPropertyOp23
 70
     1
102
RTVSPropertyOp24
 70
     1
102
RTVSPropertyOp25
 70
     1
102
RTVSPropertyOp26
 70
     1
102
RTVSPropertyOp27
 70
     1
  0
XRECORD
  5
454
102
{ACAD_REACTORS
330
453
102
}
330
453
100
AcDbXrecord
280
     1
102
RTVSPropertyOp0
 70
     1
102
RTVSPropertyOp1
 70
     1
102
RTVSPropertyOp2
 70
     1
102
RTVSPropertyOp3
 70
     1
102
RTVSPropertyOp4
 70
     1
102
RTVSPropertyOp5
 70
     1
102
RTVSPropertyOp6
 70
     1
102
RTVSPropertyOp7
 70
     1
102
RTVSPropertyOp8
 70
     1
102
RTVSPropertyOp9
 70
     1
102
RTVSPropertyOp10
 70
     1
102
RTVSPropertyOp11
 70
     1
102
RTVSPropertyOp12
 70
     1
102
RTVSPropertyOp13
 70
     1
102
RTVSPropertyOp14
 70
     1
102
RTVSPropertyOp15
 70
     1
102
RTVSPropertyOp16
 70
     1
102
RTVSPropertyOp17
 70
     1
102
RTVSPropertyOp18
 70
     1
102
RTVSPropertyOp19
 70
     1
102
RTVSPropertyOp20
 70
     1
102
RTVSPropertyOp21
 70
     1
102
RTVSPropertyOp22
 70
     1
102
RTVSPropertyOp23
 70
     1
102
RTVSPropertyOp24
 70
     1
102
RTVSPropertyOp25
 70
     1
102
RTVSPropertyOp26
 70
     1
102
RTVSPropertyOp27
 70
     1
  0
XRECORD
  5
468
102
{ACAD_REACTORS
330
467
102
}
330
467
100
AcDbXrecord
280
     1
102
RTVSPropertyOp0
 70
     1
102
RTVSPropertyOp1
 70
     1
102
RTVSPropertyOp2
 70
     1
102
RTVSPropertyOp3
 70
     1
102
RTVSPropertyOp4
 70
     1
102
RTVSPropertyOp5
 70
     1
102
RTVSPropertyOp6
 70
     1
102
RTVSPropertyOp7
 70
     1
102
RTVSPropertyOp8
 70
     1
102
RTVSPropertyOp9
 70
     1
102
RTVSPropertyOp10
 70
     1
102
RTVSPropertyOp11
 70
     1
102
RTVSPropertyOp12
 70
     1
102
RTVSPropertyOp13
 70
     1
102
RTVSPropertyOp14
 70
     1
102
RTVSPropertyOp15
 70
     1
102
RTVSPropertyOp16
 70
     1
102
RTVSPropertyOp17
 70
     1
102
RTVSPropertyOp18
 70
     1
102
RTVSPropertyOp19
 70
     1
102
RTVSPropertyOp20
 70
     1
102
RTVSPropertyOp21
 70
     1
102
RTVSPropertyOp22
 70
     1
102
RTVSPropertyOp23
 70
     1
102
RTVSPropertyOp24
 70
     1
102
RTVSPropertyOp25
 70
     1
102
RTVSPropertyOp26
 70
     1
102
RTVSPropertyOp27
 70
     1
  0
XRECORD
  5
45E
102
{ACAD_REACTORS
330
45D
102
}
330
45D
100
AcDbXrecord
280
     1
102
RTVSPropertyOp0
 70
     1
102
RTVSPropertyOp1
 70
     1
102
RTVSPropertyOp2
 70
     1
102
RTVSPropertyOp3
 70
     1
102
RTVSPropertyOp4
 70
     1
102
RTVSPropertyOp5
 70
     1
102
RTVSPropertyOp6
 70
     1
102
RTVSPropertyOp7
 70
     1
102
RTVSPropertyOp8
 70
     1
102
RTVSPropertyOp9
 70
     1
102
RTVSPropertyOp10
 70
     1
102
RTVSPropertyOp11
 70
     1
102
RTVSPropertyOp12
 70
     1
102
RTVSPropertyOp13
 70
     1
102
RTVSPropertyOp14
 70
     1
102
RTVSPropertyOp15
 70
     1
102
RTVSPropertyOp16
 70
     1
102
RTVSPropertyOp17
 70
     1
102
RTVSPropertyOp18
 70
     1
102
RTVSPropertyOp19
 70
     1
102
RTVSPropertyOp20
 70
     1
102
RTVSPropertyOp21
 70
     1
102
RTVSPropertyOp22
 70
     1
102
RTVSPropertyOp23
 70
     1
102
RTVSPropertyOp24
 70
     1
102
RTVSPropertyOp25
 70
     1
102
RTVSPropertyOp26
 70
     1
102
RTVSPropertyOp27
 70
     1
  0
XRECORD
  5
466
102
{ACAD_REACTORS
330
465
102
}
330
465
100
AcDbXrecord
280
     1
102
RTVSPropertyOp0
 70
     1
102
RTVSPropertyOp1
 70
     1
102
RTVSPropertyOp2
 70
     1
102
RTVSPropertyOp3
 70
     1
102
RTVSPropertyOp4
 70
     1
102
RTVSPropertyOp5
 70
     1
102
RTVSPropertyOp6
 70
     1
102
RTVSPropertyOp7
 70
     1
102
RTVSPropertyOp8
 70
     1
102
RTVSPropertyOp9
 70
     1
102
RTVSPropertyOp10
 70
     1
102
RTVSPropertyOp11
 70
     1
102
RTVSPropertyOp12
 70
     1
102
RTVSPropertyOp13
 70
     1
102
RTVSPropertyOp14
 70
     1
102
RTVSPropertyOp15
 70
     1
102
RTVSPropertyOp16
 70
     1
102
RTVSPropertyOp17
 70
     1
102
RTVSPropertyOp18
 70
     1
102
RTVSPropertyOp19
 70
     1
102
RTVSPropertyOp20
 70
     1
102
RTVSPropertyOp21
 70
     1
102
RTVSPropertyOp22
 70
     1
102
RTVSPropertyOp23
 70
     1
102
RTVSPropertyOp24
 70
     1
102
RTVSPropertyOp25
 70
     1
102
RTVSPropertyOp26
 70
     1
102
RTVSPropertyOp27
 70
     1
  0
ENDSEC
  0
EOF
